osu file format v14

[General]
AudioFilename: audio.mp3
AudioLeadIn: 0
PreviewTime: 50338
Countdown: 0
SampleSet: Soft
StackLeniency: 0.7
Mode: 3
LetterboxInBreaks: 0
SpecialStyle: 0
WidescreenStoryboard: 1

[Editor]
DistanceSpacing: 2
BeatDivisor: 4
GridSize: 4
TimelineZoom: 1.3

[Metadata]
Title:Ray of bullet (TV Size)
TitleUnicode:Ray of bullet (TV Size)
Artist:Iris Freyja (CV: Hidaka Rina), Mononobe Mitsuki (CV: Numakura Manami)
ArtistUnicode:イリス・フレイア (CV: 日高里菜)、物部深月 (CV: 沼倉愛美)
Creator:Sun
Version:Mononobe Nabi's Easy
Source:銃皇無尽のファフニール
Tags:FAMoss loveheerin Nabi- Fresh Chicken Juuou Mujin no Fafnir unlimited ed ending japanese jpop j-pop pop anime
BeatmapID:2544258
BeatmapSetID:1223191

[Difficulty]
HPDrainRate:7
CircleSize:4
OverallDifficulty:7
ApproachRate:5
SliderMultiplier:1.4
SliderTickRate:1

[Events]
//Background and Video events
Video,0,"vid.mp4"
0,0,"iris.jpg",0,0
//Break Periods
//Storyboard Layer 0 (Background)
//Storyboard Layer 1 (Fail)
//Storyboard Layer 2 (Pass)
//Storyboard Layer 3 (Foreground)
//Storyboard Layer 4 (Overlay)
//Storyboard Sound Samples

[TimingPoints]
1690,324.324324324324,4,2,1,40,1,0
50987,-100,4,2,1,40,0,1
66230,-100,4,2,1,40,0,0
66554,-100,4,2,1,40,0,1
75473,-100,4,2,1,40,0,0

[HitObjects]
320,192,717,5,0,0:0:0:0:
320,192,1041,1,0,0:0:0:0:
192,192,1365,1,0,0:0:0:0:
64,192,1690,1,2,0:0:0:0:
448,192,1690,128,4,2176:0:0:0:0:
192,192,2176,1,2,0:0:0:0:
320,192,2338,1,2,0:0:0:0:
64,192,2662,128,4,2987:0:0:0:0:
320,192,2662,1,2,0:0:0:0:
448,192,3311,128,0,3635:0:0:0:0:
192,192,3635,128,0,3960:0:0:0:0:
320,192,3960,128,0,4284:0:0:0:0:
64,192,4284,128,4,4608:0:0:0:0:
448,192,4284,1,2,0:0:0:0:
320,192,4771,1,8,0:0:0:0:
192,192,4933,1,8,0:0:0:0:
192,192,5257,1,2,0:0:0:0:
448,192,5257,128,4,5744:0:0:0:0:
64,192,5744,1,8,0:0:0:0:
320,192,5906,1,2,0:0:0:0:
192,192,6230,1,8,0:0:0:0:
448,192,6392,1,8,0:0:0:0:
64,192,6554,1,8,0:0:0:0:
192,192,6717,1,8,0:0:0:0:
320,192,6879,1,2,0:0:0:0:
448,192,6879,128,4,7203:0:0:0:0:
192,192,7203,1,2,0:0:0:0:
320,192,7365,128,8,7852:0:0:0:0:
64,192,7852,1,8,0:0:0:0:
192,192,8014,1,2,0:0:0:0:
448,192,8014,128,4,8500:0:0:0:0:
192,192,8500,1,8,0:0:0:0:
320,192,8662,1,4,0:0:0:0:
64,192,8662,128,2,9149:0:0:0:0:
320,192,9149,1,8,0:0:0:0:
192,192,9311,1,8,0:0:0:0:
64,192,9473,1,4,0:0:0:0:
448,192,9473,1,2,0:0:0:0:
192,192,9798,1,8,0:0:0:0:
320,192,10122,1,2,0:0:0:0:
64,192,10446,1,8,0:0:0:0:
320,192,10771,1,2,0:0:0:0:
448,192,10771,1,0,0:0:0:0:
192,192,11095,1,8,0:0:0:0:
448,192,11419,1,2,0:0:0:0:
320,192,11744,1,8,0:0:0:0:
64,192,12068,1,2,0:0:0:0:
192,192,12068,1,0,0:0:0:0:
448,192,12392,1,8,0:0:0:0:
64,192,12717,1,2,0:0:0:0:
320,192,12717,1,0,0:0:0:0:
192,192,13041,1,8,0:0:0:0:
320,192,13365,1,2,0:0:0:0:
448,192,13365,1,0,0:0:0:0:
64,192,13689,1,8,0:0:0:0:
192,192,14014,1,2,0:0:0:0:
448,192,14014,1,0,0:0:0:0:
320,192,14338,1,8,0:0:0:0:
64,192,14662,1,4,0:0:0:0:
192,192,14662,1,2,0:0:0:0:
448,192,14987,1,8,0:0:0:0:
64,192,15311,1,2,0:0:0:0:
320,192,15311,1,0,0:0:0:0:
192,192,15635,1,8,0:0:0:0:
320,192,15960,1,2,0:0:0:0:
448,192,15960,1,0,0:0:0:0:
64,192,16284,1,8,0:0:0:0:
192,192,16608,1,2,0:0:0:0:
448,192,16608,1,0,0:0:0:0:
320,192,16933,1,8,0:0:0:0:
64,192,17257,1,8,0:0:0:0:
192,192,17257,1,0,0:0:0:0:
448,192,17419,1,8,0:0:0:0:
64,192,17581,1,2,0:0:0:0:
192,192,17744,1,0,0:0:0:0:
320,192,17906,128,2,18392:0:0:0:0:
64,192,18392,1,4,0:0:0:0:
192,192,18392,1,2,0:0:0:0:
448,192,18717,1,8,0:0:0:0:
64,192,18879,1,8,0:0:0:0:
320,192,19041,1,2,0:0:0:0:
320,192,19365,1,2,0:0:0:0:
192,192,19689,1,2,0:0:0:0:
64,192,19852,1,4,0:0:0:0:
448,192,19852,1,2,0:0:0:0:
320,192,20176,1,8,0:0:0:0:
64,192,20500,1,2,0:0:0:0:
192,192,20825,1,8,0:0:0:0:
448,192,21149,1,2,0:0:0:0:
320,192,21473,1,8,0:0:0:0:
192,192,21798,1,2,0:0:0:0:
320,192,21960,1,0,0:0:0:0:
64,192,22122,1,8,0:0:0:0:
448,192,22446,1,2,0:0:0:0:
320,192,22771,1,8,0:0:0:0:
64,192,23095,1,2,0:0:0:0:
192,192,23419,1,8,0:0:0:0:
448,192,23744,1,2,0:0:0:0:
320,192,23906,1,0,0:0:0:0:
64,192,24068,1,8,0:0:0:0:
192,192,24230,1,0,0:0:0:0:
320,192,24392,128,2,24717:0:0:0:0:
64,192,24717,128,8,25041:0:0:0:0:
448,192,25041,128,2,25365:0:0:0:0:
192,192,25365,1,8,0:0:0:0:
320,192,25527,1,0,0:0:0:0:
192,192,25689,128,2,26014:0:0:0:0:
64,192,26014,1,8,0:0:0:0:
448,192,26176,1,0,0:0:0:0:
192,192,26500,1,0,0:0:0:0:
320,192,26662,1,8,0:0:0:0:
64,192,26825,1,0,0:0:0:0:
448,192,27149,1,0,0:0:0:0:
192,192,27473,1,0,0:0:0:0:
448,192,27635,128,2,27960:0:0:0:0:
192,192,27960,1,8,0:0:0:0:
320,192,28122,1,0,0:0:0:0:
192,192,28284,128,2,28608:0:0:0:0:
64,192,28608,1,8,0:0:0:0:
448,192,28771,1,0,0:0:0:0:
320,192,29095,1,0,0:0:0:0:
192,192,29257,1,8,0:0:0:0:
448,192,29419,1,8,0:0:0:0:
64,192,29744,1,0,0:0:0:0:
320,192,30068,1,0,0:0:0:0:
64,192,30230,1,4,0:0:0:0:
448,192,30230,1,2,0:0:0:0:
192,192,30554,1,8,0:0:0:0:
320,192,30879,1,2,0:0:0:0:
64,192,31203,1,8,0:0:0:0:
448,192,31527,1,2,0:0:0:0:
320,192,31852,1,8,0:0:0:0:
192,192,32176,1,2,0:0:0:0:
448,192,32500,1,8,0:0:0:0:
64,192,32825,1,2,0:0:0:0:
192,192,33149,1,8,0:0:0:0:
448,192,33473,1,2,0:0:0:0:
320,192,33798,1,8,0:0:0:0:
192,192,34122,1,2,0:0:0:0:
64,192,34446,128,8,34771:0:0:0:0:
448,192,34771,128,2,35095:0:0:0:0:
320,192,34771,1,8,0:0:0:0:
64,192,35095,1,8,0:0:0:0:
192,192,35257,1,8,0:0:0:0:
448,192,35419,1,2,0:0:0:0:
320,192,35419,1,4,0:0:0:0:
64,192,35744,1,8,0:0:0:0:
448,192,36068,1,2,0:0:0:0:
192,192,36392,1,8,0:0:0:0:
320,192,36392,1,4,0:0:0:0:
64,192,36717,1,2,0:0:0:0:
448,192,37041,1,8,0:0:0:0:
64,192,37365,1,2,0:0:0:0:
192,192,37689,1,8,0:0:0:0:
320,192,37689,1,4,0:0:0:0:
448,192,38014,1,2,0:0:0:0:
64,192,38338,1,8,0:0:0:0:
320,192,38662,1,2,0:0:0:0:
192,192,38987,1,8,0:0:0:0:
448,192,39311,1,12,0:0:0:0:
448,192,39473,1,12,0:0:0:0:
320,192,39798,1,2,0:0:0:0:
64,192,40122,128,6,40446:0:0:0:0:
448,192,40446,1,8,0:0:0:0:
192,192,40608,1,4,0:0:0:0:
64,192,40608,1,2,0:0:0:0:
320,192,40933,1,8,0:0:0:0:
448,192,41257,1,2,0:0:0:0:
192,192,41581,1,8,0:0:0:0:
320,192,41744,128,8,42068:0:0:0:0:
64,192,42068,1,8,0:0:0:0:
320,192,42392,1,8,0:0:0:0:
192,192,42554,128,2,42879:0:0:0:0:
448,192,42879,128,8,43203:0:0:0:0:
320,192,43203,1,8,0:0:0:0:
192,192,43527,1,8,0:0:0:0:
64,192,43852,1,8,0:0:0:0:
320,192,44176,1,8,0:0:0:0:
192,192,44338,128,8,44662:0:0:0:0:
448,192,44662,1,8,0:0:0:0:
192,192,44987,1,8,0:0:0:0:
320,192,45149,128,2,45473:0:0:0:0:
64,192,45473,128,8,45798:0:0:0:0:
192,192,45798,1,4,0:0:0:0:
448,192,45798,1,2,0:0:0:0:
320,192,46122,1,8,0:0:0:0:
64,192,46284,1,4,0:0:0:0:
448,192,46284,1,2,0:0:0:0:
192,192,46608,1,8,0:0:0:0:
64,192,46771,1,2,0:0:0:0:
448,192,46771,128,4,47095:0:0:0:0:
320,192,47095,1,2,0:0:0:0:
64,192,47419,128,2,47744:0:0:0:0:
448,192,47744,128,2,48068:0:0:0:0:
192,192,48068,128,4,48717:0:0:0:0:
320,192,48068,1,2,0:0:0:0:
64,192,48717,1,8,0:0:0:0:
448,192,49041,1,2,0:0:0:0:
64,192,49203,1,8,0:0:0:0:
320,192,49365,1,2,0:0:0:0:
192,192,49527,1,2,0:0:0:0:
64,192,49689,1,8,0:0:0:0:
448,192,49689,1,0,0:0:0:0:
448,192,50338,1,0,0:0:0:0:
64,192,50662,1,0,0:0:0:0:
192,192,50987,128,4,51311:0:0:0:0:
320,192,50987,1,2,0:0:0:0:
448,192,51311,128,8,51635:0:0:0:0:
320,192,51635,128,2,51960:0:0:0:0:
192,192,51960,128,8,52284:0:0:0:0:
320,192,52284,128,2,52608:0:0:0:0:
64,192,52608,128,8,52933:0:0:0:0:
192,192,52933,128,2,53257:0:0:0:0:
320,192,53257,128,8,53581:0:0:0:0:
64,192,53581,1,2,0:0:0:0:
448,192,53906,1,8,0:0:0:0:
192,192,54068,1,0,0:0:0:0:
320,192,54230,1,2,0:0:0:0:
64,192,54392,1,0,0:0:0:0:
448,192,54717,1,0,0:0:0:0:
192,192,54879,1,2,0:0:0:0:
320,192,55203,1,8,0:0:0:0:
64,192,55527,128,2,55852:0:0:0:0:
192,192,55852,128,12,56176:0:0:0:0:
320,192,56176,1,2,0:0:0:0:
448,192,56176,128,4,56500:0:0:0:0:
320,192,56500,128,8,56825:0:0:0:0:
192,192,56825,128,2,57149:0:0:0:0:
448,192,57149,128,8,57473:0:0:0:0:
64,192,57473,128,2,57798:0:0:0:0:
192,192,57798,128,8,58122:0:0:0:0:
320,192,58122,128,2,58446:0:0:0:0:
64,192,58446,128,8,58771:0:0:0:0:
448,192,58771,1,2,0:0:0:0:
192,192,59095,1,8,0:0:0:0:
320,192,59257,1,0,0:0:0:0:
64,192,59581,1,0,0:0:0:0:
448,192,59906,1,0,0:0:0:0:
192,192,60068,1,2,0:0:0:0:
320,192,60392,1,8,0:0:0:0:
64,192,60717,128,2,61041:0:0:0:0:
448,192,61041,128,12,61365:0:0:0:0:
192,192,61365,1,4,0:0:0:0:
320,192,61365,1,2,0:0:0:0:
64,192,61689,1,8,0:0:0:0:
448,192,62014,1,2,0:0:0:0:
192,192,62338,128,8,62662:0:0:0:0:
448,192,62662,1,2,0:0:0:0:
320,192,62987,128,8,63311:0:0:0:0:
192,192,63311,128,2,63635:0:0:0:0:
448,192,63635,128,8,63960:0:0:0:0:
64,192,63960,128,6,64608:0:0:0:0:
448,192,64284,1,8,0:0:0:0:
320,192,64608,128,8,65257:0:0:0:0:
64,192,64933,1,8,0:0:0:0:
192,192,65257,128,12,65906:0:0:0:0:
320,192,65581,1,8,0:0:0:0:
448,192,65906,128,12,66554:0:0:0:0:
192,192,66230,1,6,0:0:0:0:
64,192,66554,128,4,66879:0:0:0:0:
192,192,66554,1,2,0:0:0:0:
320,192,66879,128,8,67203:0:0:0:0:
192,192,67203,128,2,67527:0:0:0:0:
64,192,67527,128,8,67852:0:0:0:0:
448,192,67852,128,2,68176:0:0:0:0:
192,192,68176,128,8,68500:0:0:0:0:
320,192,68500,128,2,68825:0:0:0:0:
448,192,68825,128,8,69149:0:0:0:0:
64,192,69149,1,2,0:0:0:0:
320,192,69473,1,8,0:0:0:0:
192,192,69635,1,0,0:0:0:0:
448,192,69960,1,0,0:0:0:0:
64,192,70284,1,0,0:0:0:0:
320,192,70446,1,2,0:0:0:0:
192,192,70771,1,8,0:0:0:0:
448,192,71095,128,2,71419:0:0:0:0:
320,192,71419,128,8,71744:0:0:0:0:
192,192,71744,1,2,0:0:0:0:
64,192,71744,128,4,72068:0:0:0:0:
192,192,72068,128,8,72392:0:0:0:0:
320,192,72392,128,2,72717:0:0:0:0:
64,192,72717,128,8,73041:0:0:0:0:
448,192,73041,128,2,73365:0:0:0:0:
320,192,73365,128,8,73689:0:0:0:0:
192,192,73689,128,2,74014:0:0:0:0:
448,192,74014,128,8,74338:0:0:0:0:
64,192,74338,1,2,0:0:0:0:
320,192,74662,1,8,0:0:0:0:
192,192,74825,1,0,0:0:0:0:
320,192,75149,1,0,0:0:0:0:
64,192,75473,1,8,0:0:0:0:
448,192,75473,1,4,0:0:0:0:
192,192,75635,1,2,0:0:0:0:
320,192,75960,1,8,0:0:0:0:
64,192,76122,1,4,0:0:0:0:
448,192,76284,1,2,0:0:0:0:
320,192,76446,1,8,0:0:0:0:
192,192,76608,128,8,76933:0:0:0:0:
320,192,76933,1,4,0:0:0:0:
448,192,76933,128,2,77257:0:0:0:0:
64,192,77257,1,8,0:0:0:0:
320,192,77419,1,2,0:0:0:0:
192,192,77581,1,2,0:0:0:0:
448,192,77744,1,2,0:0:0:0:
192,192,77906,128,8,78230:0:0:0:0:
64,192,77906,1,4,0:0:0:0:
320,192,78230,1,2,0:0:0:0:
448,192,78554,128,8,78879:0:0:0:0:
64,192,78879,128,2,79203:0:0:0:0:
320,192,79203,128,8,79527:0:0:0:0:
192,192,79527,1,2,0:0:0:0:
64,192,79527,1,4,0:0:0:0:
448,192,79852,1,8,0:0:0:0:
192,192,80014,1,0,0:0:0:0:
320,192,80176,1,2,0:0:0:0:
64,192,80338,1,2,0:0:0:0:
448,192,80500,1,8,0:0:0:0:
320,192,80500,128,4,80825:0:0:0:0:
192,192,80825,1,2,0:0:0:0:
448,192,81149,1,8,0:0:0:0:
64,192,81473,1,2,0:0:0:0:
192,192,81635,1,8,0:0:0:0:
448,192,81798,1,12,0:0:0:0:
320,192,81960,1,0,0:0:0:0:
192,192,82122,1,2,0:0:0:0:
64,192,82122,1,4,0:0:0:0:
320,192,82446,1,8,0:0:0:0:
192,192,82608,1,0,0:0:0:0:
448,192,82933,1,0,0:0:0:0:
64,192,83095,1,8,0:0:0:0:
320,192,83257,1,4,0:0:0:0:
192,192,83257,128,0,83581:0:0:0:0:
64,192,83581,1,0,0:0:0:0:
448,192,83744,1,8,0:0:0:0:
320,192,83906,128,2,84230:0:0:0:0:
192,192,83906,1,4,0:0:0:0:
64,192,84230,1,8,0:0:0:0:
448,192,84392,1,2,0:0:0:0:
192,192,84554,128,8,86987:0:0:0:0:
64,192,84554,1,4,0:0:0:0:
448,192,85041,1,2,0:0:0:0:
64,192,85365,1,2,0:0:0:0:
320,192,85689,1,2,0:0:0:0:
448,192,86014,1,2,0:0:0:0:
64,192,86338,1,2,0:0:0:0:
320,192,86662,1,2,0:0:0:0:
448,192,86987,1,8,0:0:0:0:
64,192,87149,1,8,0:0:0:0:
