osu file format v14

[General]
AudioFilename: audio.mp3
AudioLeadIn: 0
PreviewTime: 50338
Countdown: 0
SampleSet: Soft
StackLeniency: 0.7
Mode: 3
LetterboxInBreaks: 0
SpecialStyle: 0
WidescreenStoryboard: 1

[Editor]
DistanceSpacing: 2
BeatDivisor: 4
GridSize: 4
TimelineZoom: 2

[Metadata]
Title:Ray of bullet (TV Size)
TitleUnicode:Ray of bullet (TV Size)
Artist:Iris Freyja (CV: Hidaka Rina), Mononobe Mitsuki (CV: Numakura Manami)
ArtistUnicode:イリス・フレイア (CV: 日高里菜)、物部深月 (CV: 沼倉愛美)
Creator:Sun
Version:Lisa heerin's Normal
Source:銃皇無尽のファフニール
Tags:FAMoss loveheerin Nabi- Fresh Chicken Juuou Mujin no Fafnir unlimited ed ending japanese jpop j-pop pop anime
BeatmapID:2544260
BeatmapSetID:1223191

[Difficulty]
HPDrainRate:7.5
CircleSize:4
OverallDifficulty:7.4
ApproachRate:5
SliderMultiplier:1.4
SliderTickRate:1

[Events]
//Background and Video events
Video,0,"vid.mp4"
0,0,"iris.jpg",0,0
//Break Periods
//Storyboard Layer 0 (Background)
//Storyboard Layer 1 (Fail)
//Storyboard Layer 2 (Pass)
//Storyboard Layer 3 (Foreground)
//Storyboard Layer 4 (Overlay)
//Storyboard Sound Samples

[TimingPoints]
1690,324.324324324324,4,2,1,40,1,0
50987,-100,4,2,1,40,0,1
66230,-100,4,2,1,40,0,0
66554,-100,4,2,1,40,0,1
75473,-100,4,2,1,40,0,0

[HitObjects]
192,192,717,5,0,0:0:0:0:
192,192,1041,1,0,0:0:0:0:
320,192,1365,1,0,0:0:0:0:
64,192,1690,1,2,0:0:0:0:
448,192,1690,128,4,2014:0:0:0:0:
320,192,2176,1,2,0:0:0:0:
64,192,2338,1,2,0:0:0:0:
192,192,2338,1,0,0:0:0:0:
320,192,2500,1,0,0:0:0:0:
64,192,2662,128,4,2987:0:0:0:0:
448,192,2662,1,2,0:0:0:0:
448,192,3311,128,0,3635:0:0:0:0:
192,192,3635,128,0,3960:0:0:0:0:
320,192,3960,128,0,4284:0:0:0:0:
64,192,4284,128,4,4608:0:0:0:0:
448,192,4284,1,2,0:0:0:0:
192,192,4771,1,8,0:0:0:0:
320,192,4771,1,0,0:0:0:0:
448,192,4933,1,8,0:0:0:0:
64,192,5095,1,0,0:0:0:0:
192,192,5257,1,2,0:0:0:0:
320,192,5257,128,4,5744:0:0:0:0:
448,192,5744,1,8,0:0:0:0:
64,192,5906,1,2,0:0:0:0:
192,192,6149,1,8,0:0:0:0:
320,192,6230,1,8,0:0:0:0:
448,192,6230,1,0,0:0:0:0:
64,192,6392,1,8,0:0:0:0:
192,192,6554,1,8,0:0:0:0:
320,192,6717,1,8,0:0:0:0:
64,192,6879,1,2,0:0:0:0:
192,192,6879,128,4,7203:0:0:0:0:
320,192,7203,128,2,7365:0:0:0:0:
448,192,7365,128,8,7527:0:0:0:0:
64,192,7527,1,8,0:0:0:0:
192,192,7689,1,8,0:0:0:0:
320,192,7852,1,8,0:0:0:0:
64,192,8014,128,2,8338:0:0:0:0:
192,192,8014,1,4,0:0:0:0:
320,192,8338,1,2,0:0:0:0:
448,192,8338,1,0,0:0:0:0:
192,192,8500,1,8,0:0:0:0:
64,192,8662,1,2,0:0:0:0:
448,192,8662,128,4,8987:0:0:0:0:
192,192,8987,1,8,0:0:0:0:
320,192,9149,1,8,0:0:0:0:
64,192,9311,1,8,0:0:0:0:
320,192,9473,1,4,0:0:0:0:
448,192,9473,1,2,0:0:0:0:
192,192,9635,1,0,0:0:0:0:
64,192,9798,1,8,0:0:0:0:
448,192,9798,1,0,0:0:0:0:
192,192,9960,1,0,0:0:0:0:
448,192,10122,1,2,0:0:0:0:
320,192,10284,1,0,0:0:0:0:
64,192,10446,1,8,0:0:0:0:
192,192,10446,1,0,0:0:0:0:
448,192,10608,1,0,0:0:0:0:
320,192,10771,1,2,0:0:0:0:
64,192,10933,1,0,0:0:0:0:
192,192,11095,1,8,0:0:0:0:
320,192,11095,1,0,0:0:0:0:
64,192,11257,1,0,0:0:0:0:
448,192,11419,1,2,0:0:0:0:
192,192,11581,1,0,0:0:0:0:
64,192,11744,1,8,0:0:0:0:
320,192,11744,1,0,0:0:0:0:
192,192,12068,1,2,0:0:0:0:
448,192,12068,1,0,0:0:0:0:
320,192,12230,1,0,0:0:0:0:
64,192,12392,1,8,0:0:0:0:
192,192,12392,1,0,0:0:0:0:
448,192,12554,1,0,0:0:0:0:
64,192,12717,1,2,0:0:0:0:
320,192,12879,1,0,0:0:0:0:
192,192,13041,1,8,0:0:0:0:
448,192,13041,1,0,0:0:0:0:
64,192,13203,1,0,0:0:0:0:
320,192,13365,1,2,0:0:0:0:
192,192,13527,1,0,0:0:0:0:
64,192,13689,1,8,0:0:0:0:
320,192,13689,1,0,0:0:0:0:
448,192,13852,1,0,0:0:0:0:
192,192,14014,1,2,0:0:0:0:
64,192,14176,1,0,0:0:0:0:
192,192,14338,1,8,0:0:0:0:
448,192,14338,1,0,0:0:0:0:
320,192,14500,1,0,0:0:0:0:
64,192,14662,1,4,0:0:0:0:
448,192,14662,1,2,0:0:0:0:
64,192,14987,1,8,0:0:0:0:
320,192,14987,1,0,0:0:0:0:
192,192,15149,1,0,0:0:0:0:
448,192,15311,1,2,0:0:0:0:
320,192,15473,1,0,0:0:0:0:
64,192,15635,1,8,0:0:0:0:
192,192,15635,1,0,0:0:0:0:
448,192,15798,1,0,0:0:0:0:
320,192,15960,1,2,0:0:0:0:
64,192,16122,1,0,0:0:0:0:
320,192,16284,1,8,0:0:0:0:
448,192,16284,1,0,0:0:0:0:
192,192,16446,1,0,0:0:0:0:
64,192,16608,1,2,0:0:0:0:
448,192,16771,1,0,0:0:0:0:
192,192,16933,1,8,0:0:0:0:
320,192,16933,1,0,0:0:0:0:
64,192,17095,1,0,0:0:0:0:
320,192,17257,1,8,0:0:0:0:
448,192,17257,1,0,0:0:0:0:
320,192,17419,1,8,0:0:0:0:
448,192,17419,1,0,0:0:0:0:
192,192,17581,1,2,0:0:0:0:
448,192,17744,1,0,0:0:0:0:
320,192,17825,1,8,0:0:0:0:
64,192,17906,1,2,0:0:0:0:
192,192,17906,1,0,0:0:0:0:
64,192,18068,1,8,0:0:0:0:
192,192,18068,1,0,0:0:0:0:
320,192,18230,1,8,0:0:0:0:
64,192,18392,1,4,0:0:0:0:
448,192,18392,1,2,0:0:0:0:
64,192,18717,1,8,0:0:0:0:
192,192,18717,1,0,0:0:0:0:
320,192,18879,1,8,0:0:0:0:
448,192,18879,1,0,0:0:0:0:
192,192,19041,128,2,19203:0:0:0:0:
320,192,19041,128,0,19203:0:0:0:0:
192,192,19365,128,2,19527:0:0:0:0:
320,192,19365,128,0,19527:0:0:0:0:
64,192,19689,1,2,0:0:0:0:
320,192,19852,1,4,0:0:0:0:
448,192,19852,128,2,20176:0:0:0:0:
192,192,20176,1,8,0:0:0:0:
448,192,20338,128,0,20500:0:0:0:0:
64,192,20500,128,2,20825:0:0:0:0:
192,192,20500,1,0,0:0:0:0:
320,192,20825,1,8,0:0:0:0:
448,192,20987,128,0,21149:0:0:0:0:
64,192,21149,1,2,0:0:0:0:
192,192,21149,128,0,21473:0:0:0:0:
320,192,21473,1,8,0:0:0:0:
320,192,21635,128,0,21798:0:0:0:0:
64,192,21798,128,2,22122:0:0:0:0:
448,192,21798,1,0,0:0:0:0:
192,192,22122,1,8,0:0:0:0:
320,192,22284,128,0,22446:0:0:0:0:
64,192,22446,1,2,0:0:0:0:
448,192,22446,128,0,22771:0:0:0:0:
192,192,22771,1,8,0:0:0:0:
192,192,22933,128,0,23095:0:0:0:0:
320,192,23095,128,2,23419:0:0:0:0:
448,192,23095,1,0,0:0:0:0:
64,192,23419,1,8,0:0:0:0:
192,192,23581,128,0,23744:0:0:0:0:
64,192,23744,128,2,24068:0:0:0:0:
448,192,23744,1,0,0:0:0:0:
320,192,23906,128,0,24068:0:0:0:0:
192,192,24068,128,8,24230:0:0:0:0:
448,192,24230,128,0,24392:0:0:0:0:
64,192,24392,128,2,24554:0:0:0:0:
320,192,24392,1,0,0:0:0:0:
192,192,24554,128,0,24717:0:0:0:0:
64,192,24717,1,8,0:0:0:0:
448,192,24717,1,0,0:0:0:0:
320,192,24879,1,8,0:0:0:0:
64,192,24960,1,8,0:0:0:0:
192,192,25041,1,2,0:0:0:0:
448,192,25041,128,0,25527:0:0:0:0:
320,192,25203,1,0,0:0:0:0:
64,192,25365,1,8,0:0:0:0:
320,192,25527,128,0,26014:0:0:0:0:
192,192,25689,1,2,0:0:0:0:
448,192,25852,1,0,0:0:0:0:
64,192,26014,128,0,26500:0:0:0:0:
192,192,26014,1,8,0:0:0:0:
320,192,26176,1,0,0:0:0:0:
192,192,26338,1,2,0:0:0:0:
448,192,26500,128,0,26987:0:0:0:0:
64,192,26662,1,8,0:0:0:0:
320,192,26825,1,0,0:0:0:0:
192,192,26987,128,2,27473:0:0:0:0:
64,192,27149,1,0,0:0:0:0:
448,192,27311,1,8,0:0:0:0:
320,192,27473,1,0,0:0:0:0:
64,192,27635,128,2,28122:0:0:0:0:
448,192,27635,1,0,0:0:0:0:
192,192,27798,1,0,0:0:0:0:
320,192,27960,1,8,0:0:0:0:
192,192,28122,128,0,28608:0:0:0:0:
448,192,28284,1,2,0:0:0:0:
64,192,28446,1,0,0:0:0:0:
448,192,28608,128,0,29095:0:0:0:0:
320,192,28608,1,8,0:0:0:0:
192,192,28771,1,0,0:0:0:0:
64,192,28933,1,2,0:0:0:0:
192,192,29095,1,0,0:0:0:0:
64,192,29257,1,8,0:0:0:0:
320,192,29257,1,0,0:0:0:0:
448,192,29419,1,8,0:0:0:0:
320,192,29500,1,8,0:0:0:0:
64,192,29581,1,2,0:0:0:0:
192,192,29581,1,0,0:0:0:0:
320,192,29744,1,0,0:0:0:0:
64,192,29906,1,8,0:0:0:0:
448,192,29906,1,0,0:0:0:0:
192,192,30068,1,0,0:0:0:0:
64,192,30230,128,4,30554:0:0:0:0:
320,192,30230,1,2,0:0:0:0:
192,192,30554,1,8,0:0:0:0:
320,192,30717,128,0,30879:0:0:0:0:
64,192,30879,1,2,0:0:0:0:
448,192,30879,128,0,31203:0:0:0:0:
192,192,31203,1,8,0:0:0:0:
320,192,31365,128,0,31527:0:0:0:0:
64,192,31527,128,2,31852:0:0:0:0:
448,192,31527,1,0,0:0:0:0:
192,192,31852,1,8,0:0:0:0:
192,192,32014,128,0,32176:0:0:0:0:
320,192,32176,128,2,32500:0:0:0:0:
448,192,32176,1,0,0:0:0:0:
64,192,32500,1,8,0:0:0:0:
192,192,32662,128,0,32825:0:0:0:0:
320,192,32825,1,2,0:0:0:0:
448,192,32825,128,0,33149:0:0:0:0:
64,192,33149,1,8,0:0:0:0:
64,192,33311,128,0,33473:0:0:0:0:
192,192,33473,128,2,33798:0:0:0:0:
320,192,33473,1,0,0:0:0:0:
448,192,33798,1,8,0:0:0:0:
320,192,33960,128,0,34122:0:0:0:0:
64,192,34122,128,2,34446:0:0:0:0:
192,192,34122,1,0,0:0:0:0:
448,192,34446,1,8,0:0:0:0:
320,192,34608,128,0,34771:0:0:0:0:
64,192,34771,1,2,0:0:0:0:
192,192,34771,128,8,35095:0:0:0:0:
320,192,35095,1,8,0:0:0:0:
192,192,35257,1,8,0:0:0:0:
320,192,35338,1,8,0:0:0:0:
64,192,35419,1,2,0:0:0:0:
448,192,35419,1,4,0:0:0:0:
192,192,35744,1,8,0:0:0:0:
320,192,35744,1,0,0:0:0:0:
64,192,36068,1,2,0:0:0:0:
192,192,36068,128,0,36230:0:0:0:0:
320,192,36230,1,0,0:0:0:0:
320,192,36392,128,8,36717:0:0:0:0:
448,192,36392,1,4,0:0:0:0:
64,192,36717,1,2,0:0:0:0:
192,192,36717,1,0,0:0:0:0:
448,192,36879,1,0,0:0:0:0:
192,192,37041,1,8,0:0:0:0:
320,192,37041,1,0,0:0:0:0:
64,192,37203,1,0,0:0:0:0:
448,192,37365,128,2,37527:0:0:0:0:
192,192,37527,1,0,0:0:0:0:
320,192,37689,1,4,0:0:0:0:
64,192,37689,128,8,38014:0:0:0:0:
320,192,38014,1,2,0:0:0:0:
448,192,38014,1,0,0:0:0:0:
192,192,38338,1,8,0:0:0:0:
448,192,38338,1,0,0:0:0:0:
64,192,38662,1,2,0:0:0:0:
192,192,38662,1,0,0:0:0:0:
320,192,38825,1,0,0:0:0:0:
192,192,38987,1,8,0:0:0:0:
448,192,38987,1,0,0:0:0:0:
64,192,39311,1,4,0:0:0:0:
320,192,39311,1,8,0:0:0:0:
64,192,39473,1,4,0:0:0:0:
320,192,39473,1,8,0:0:0:0:
64,192,39798,1,2,0:0:0:0:
448,192,39798,1,0,0:0:0:0:
192,192,40122,1,2,0:0:0:0:
448,192,40122,128,4,40446:0:0:0:0:
320,192,40446,1,8,0:0:0:0:
192,192,40527,1,8,0:0:0:0:
64,192,40608,128,2,40771:0:0:0:0:
448,192,40608,1,4,0:0:0:0:
192,192,40933,1,8,0:0:0:0:
320,192,40933,128,0,41095:0:0:0:0:
64,192,41257,1,2,0:0:0:0:
448,192,41257,128,0,41419:0:0:0:0:
64,192,41581,1,8,0:0:0:0:
192,192,41581,1,0,0:0:0:0:
320,192,41744,128,8,41906:0:0:0:0:
448,192,41744,1,0,0:0:0:0:
64,192,42068,1,8,0:0:0:0:
448,192,42068,128,0,42230:0:0:0:0:
192,192,42392,1,8,0:0:0:0:
320,192,42392,1,0,0:0:0:0:
320,192,42554,1,0,0:0:0:0:
64,192,42554,128,2,42879:0:0:0:0:
192,192,42879,1,8,0:0:0:0:
448,192,42879,128,0,43203:0:0:0:0:
64,192,43203,128,8,43365:0:0:0:0:
320,192,43203,1,0,0:0:0:0:
192,192,43527,128,8,43689:0:0:0:0:
448,192,43527,1,0,0:0:0:0:
64,192,43852,1,8,0:0:0:0:
448,192,43852,128,0,44014:0:0:0:0:
64,192,44176,1,8,0:0:0:0:
192,192,44176,1,0,0:0:0:0:
320,192,44338,128,8,44500:0:0:0:0:
448,192,44338,1,0,0:0:0:0:
64,192,44662,1,8,0:0:0:0:
448,192,44662,128,0,44825:0:0:0:0:
64,192,44987,1,8,0:0:0:0:
320,192,44987,1,0,0:0:0:0:
448,192,45149,1,0,0:0:0:0:
192,192,45149,128,2,45473:0:0:0:0:
320,192,45473,1,0,0:0:0:0:
64,192,45473,1,8,0:0:0:0:
448,192,45635,1,8,0:0:0:0:
192,192,45717,1,8,0:0:0:0:
64,192,45798,1,2,0:0:0:0:
320,192,45798,128,4,46284:0:0:0:0:
64,192,46122,1,8,0:0:0:0:
192,192,46284,128,2,46771:0:0:0:0:
448,192,46284,1,4,0:0:0:0:
320,192,46608,1,8,0:0:0:0:
64,192,46771,128,2,47095:0:0:0:0:
448,192,46771,1,4,0:0:0:0:
192,192,47095,1,2,0:0:0:0:
448,192,47419,1,2,0:0:0:0:
320,192,47527,1,8,0:0:0:0:
64,192,47635,1,8,0:0:0:0:
320,192,47744,1,2,0:0:0:0:
192,192,47852,1,2,0:0:0:0:
64,192,47960,1,2,0:0:0:0:
320,192,48068,1,2,0:0:0:0:
448,192,48068,128,4,49689:0:0:0:0:
64,192,48717,1,8,0:0:0:0:
64,192,49041,1,2,0:0:0:0:
320,192,49203,1,8,0:0:0:0:
64,192,49365,1,2,0:0:0:0:
320,192,49527,1,2,0:0:0:0:
64,192,49689,1,8,0:0:0:0:
192,192,49689,1,0,0:0:0:0:
192,192,50338,128,0,50662:0:0:0:0:
320,192,50662,128,0,50987:0:0:0:0:
448,192,50987,1,4,0:0:0:0:
64,192,50987,128,2,51311:0:0:0:0:
192,192,51149,1,0,0:0:0:0:
320,192,51311,1,8,0:0:0:0:
448,192,51311,128,0,51635:0:0:0:0:
192,192,51635,128,0,51960:0:0:0:0:
64,192,51635,1,2,0:0:0:0:
320,192,51798,1,0,0:0:0:0:
448,192,51960,128,0,52284:0:0:0:0:
64,192,51960,1,8,0:0:0:0:
192,192,52284,128,2,52608:0:0:0:0:
320,192,52284,1,0,0:0:0:0:
64,192,52446,1,0,0:0:0:0:
320,192,52608,128,8,52933:0:0:0:0:
448,192,52608,1,0,0:0:0:0:
64,192,52933,128,2,53257:0:0:0:0:
192,192,52933,1,0,0:0:0:0:
448,192,53095,1,0,0:0:0:0:
320,192,53257,128,0,53581:0:0:0:0:
192,192,53257,1,8,0:0:0:0:
448,192,53581,1,2,0:0:0:0:
64,192,53744,1,0,0:0:0:0:
320,192,53906,1,8,0:0:0:0:
448,192,53906,1,0,0:0:0:0:
192,192,54068,128,0,54230:0:0:0:0:
64,192,54230,1,2,0:0:0:0:
448,192,54392,128,0,54554:0:0:0:0:
320,192,54554,1,8,0:0:0:0:
64,192,54717,128,0,55203:0:0:0:0:
192,192,54879,1,2,0:0:0:0:
320,192,55203,1,8,0:0:0:0:
448,192,55203,1,0,0:0:0:0:
64,192,55527,1,2,0:0:0:0:
192,192,55527,128,0,55852:0:0:0:0:
320,192,55852,128,8,56176:0:0:0:0:
448,192,55852,1,4,0:0:0:0:
64,192,56176,128,2,56500:0:0:0:0:
448,192,56176,1,4,0:0:0:0:
192,192,56338,1,0,0:0:0:0:
320,192,56500,128,8,56825:0:0:0:0:
448,192,56500,1,0,0:0:0:0:
64,192,56825,1,2,0:0:0:0:
192,192,56825,128,0,57149:0:0:0:0:
320,192,56987,1,0,0:0:0:0:
64,192,57149,128,8,57473:0:0:0:0:
448,192,57149,1,0,0:0:0:0:
192,192,57473,128,2,57798:0:0:0:0:
320,192,57473,1,0,0:0:0:0:
448,192,57635,1,0,0:0:0:0:
64,192,57798,1,8,0:0:0:0:
320,192,57798,128,0,58122:0:0:0:0:
448,192,58122,1,0,0:0:0:0:
192,192,58122,128,2,58446:0:0:0:0:
64,192,58284,1,0,0:0:0:0:
320,192,58446,128,8,58771:0:0:0:0:
448,192,58446,1,0,0:0:0:0:
64,192,58771,1,2,0:0:0:0:
192,192,58933,1,0,0:0:0:0:
448,192,59095,1,8,0:0:0:0:
64,192,59095,1,0,0:0:0:0:
320,192,59257,128,0,59419:0:0:0:0:
64,192,59419,1,2,0:0:0:0:
192,192,59581,128,0,59744:0:0:0:0:
448,192,59744,1,8,0:0:0:0:
64,192,59906,128,0,60392:0:0:0:0:
320,192,60068,1,2,0:0:0:0:
192,192,60392,1,8,0:0:0:0:
448,192,60392,1,0,0:0:0:0:
64,192,60717,1,2,0:0:0:0:
320,192,60717,128,0,61041:0:0:0:0:
192,192,60879,1,0,0:0:0:0:
64,192,61041,128,4,61365:0:0:0:0:
448,192,61041,1,8,0:0:0:0:
192,192,61365,128,2,61852:0:0:0:0:
320,192,61365,1,4,0:0:0:0:
448,192,61527,1,0,0:0:0:0:
64,192,61689,1,8,0:0:0:0:
320,192,61852,128,0,62014:0:0:0:0:
448,192,62014,1,2,0:0:0:0:
192,192,62176,1,0,0:0:0:0:
64,192,62338,128,8,62662:0:0:0:0:
448,192,62338,1,0,0:0:0:0:
192,192,62662,1,2,0:0:0:0:
320,192,62662,1,0,0:0:0:0:
448,192,62825,1,0,0:0:0:0:
64,192,62987,1,8,0:0:0:0:
320,192,62987,128,0,63311:0:0:0:0:
192,192,63311,128,2,63635:0:0:0:0:
448,192,63311,1,0,0:0:0:0:
64,192,63473,1,0,0:0:0:0:
320,192,63635,128,8,63960:0:0:0:0:
64,192,63960,128,2,64608:0:0:0:0:
448,192,63960,1,4,0:0:0:0:
192,192,64122,1,2,0:0:0:0:
320,192,64284,1,8,0:0:0:0:
192,192,64608,128,8,65257:0:0:0:0:
448,192,64608,1,0,0:0:0:0:
320,192,64771,1,2,0:0:0:0:
64,192,64933,1,8,0:0:0:0:
320,192,65257,1,4,0:0:0:0:
448,192,65257,128,8,65906:0:0:0:0:
64,192,65419,1,2,0:0:0:0:
192,192,65581,1,8,0:0:0:0:
64,192,65744,1,2,0:0:0:0:
320,192,65906,1,12,0:0:0:0:
64,192,66068,1,8,0:0:0:0:
192,192,66149,1,8,0:0:0:0:
320,192,66230,1,2,0:0:0:0:
448,192,66230,1,4,0:0:0:0:
192,192,66392,1,8,0:0:0:0:
320,192,66473,1,8,0:0:0:0:
448,192,66554,128,4,66879:0:0:0:0:
64,192,66554,1,2,0:0:0:0:
192,192,66717,1,0,0:0:0:0:
64,192,66879,128,8,67203:0:0:0:0:
320,192,66879,1,0,0:0:0:0:
448,192,67041,1,0,0:0:0:0:
192,192,67203,1,2,0:0:0:0:
320,192,67203,128,0,67527:0:0:0:0:
64,192,67365,1,0,0:0:0:0:
448,192,67527,1,0,0:0:0:0:
192,192,67527,128,8,67852:0:0:0:0:
320,192,67689,1,0,0:0:0:0:
64,192,67852,1,2,0:0:0:0:
448,192,67852,128,0,68176:0:0:0:0:
192,192,68014,1,0,0:0:0:0:
320,192,68176,1,0,0:0:0:0:
64,192,68176,128,8,68500:0:0:0:0:
448,192,68338,1,0,0:0:0:0:
192,192,68500,1,2,0:0:0:0:
320,192,68500,128,0,68825:0:0:0:0:
64,192,68662,1,0,0:0:0:0:
448,192,68825,1,0,0:0:0:0:
192,192,68825,128,8,69149:0:0:0:0:
320,192,68987,1,0,0:0:0:0:
448,192,69149,1,2,0:0:0:0:
64,192,69311,1,0,0:0:0:0:
192,192,69473,1,8,0:0:0:0:
448,192,69473,1,0,0:0:0:0:
320,192,69635,128,0,69798:0:0:0:0:
64,192,69798,1,2,0:0:0:0:
448,192,69960,128,0,70122:0:0:0:0:
192,192,70122,1,8,0:0:0:0:
320,192,70284,128,0,70771:0:0:0:0:
64,192,70446,1,2,0:0:0:0:
192,192,70771,1,8,0:0:0:0:
448,192,70771,1,0,0:0:0:0:
64,192,71095,128,2,71419:0:0:0:0:
320,192,71095,1,0,0:0:0:0:
192,192,71419,1,8,0:0:0:0:
448,192,71419,128,0,71744:0:0:0:0:
64,192,71744,1,2,0:0:0:0:
320,192,71744,128,4,72068:0:0:0:0:
192,192,71906,1,0,0:0:0:0:
448,192,72068,1,0,0:0:0:0:
64,192,72068,128,8,72392:0:0:0:0:
320,192,72230,1,0,0:0:0:0:
192,192,72392,1,2,0:0:0:0:
448,192,72392,128,0,72717:0:0:0:0:
64,192,72554,1,0,0:0:0:0:
320,192,72717,1,0,0:0:0:0:
192,192,72717,128,8,73041:0:0:0:0:
448,192,72879,1,0,0:0:0:0:
448,192,73041,1,0,0:0:0:0:
64,192,73041,128,2,73365:0:0:0:0:
320,192,73203,1,0,0:0:0:0:
192,192,73365,1,8,0:0:0:0:
448,192,73365,128,0,73689:0:0:0:0:
64,192,73527,1,0,0:0:0:0:
320,192,73689,1,0,0:0:0:0:
192,192,73689,128,2,74014:0:0:0:0:
448,192,73852,1,0,0:0:0:0:
64,192,74014,1,8,0:0:0:0:
320,192,74014,128,0,74338:0:0:0:0:
192,192,74176,1,0,0:0:0:0:
64,192,74338,1,2,0:0:0:0:
448,192,74338,1,0,0:0:0:0:
192,192,74500,1,0,0:0:0:0:
320,192,74662,1,8,0:0:0:0:
448,192,74662,1,0,0:0:0:0:
64,192,74825,128,0,74987:0:0:0:0:
448,192,74987,1,2,0:0:0:0:
320,192,75149,128,0,75311:0:0:0:0:
192,192,75311,1,8,0:0:0:0:
64,192,75473,128,4,75635:0:0:0:0:
320,192,75473,1,8,0:0:0:0:
448,192,75635,1,2,0:0:0:0:
320,192,75960,128,8,76122:0:0:0:0:
192,192,76122,1,4,0:0:0:0:
64,192,76122,1,0,0:0:0:0:
320,192,76284,128,2,76446:0:0:0:0:
192,192,76446,1,8,0:0:0:0:
320,192,76608,128,8,76771:0:0:0:0:
192,192,76771,1,8,0:0:0:0:
64,192,76852,1,8,0:0:0:0:
320,192,76933,1,4,0:0:0:0:
448,192,76933,128,2,77257:0:0:0:0:
192,192,77257,1,8,0:0:0:0:
64,192,77419,1,2,0:0:0:0:
192,192,77581,1,2,0:0:0:0:
320,192,77744,1,2,0:0:0:0:
64,192,77906,128,8,78230:0:0:0:0:
448,192,77906,1,4,0:0:0:0:
320,192,78230,1,2,0:0:0:0:
192,192,78230,1,0,0:0:0:0:
448,192,78554,128,8,78717:0:0:0:0:
64,192,78717,1,0,0:0:0:0:
448,192,78879,128,2,79041:0:0:0:0:
64,192,79041,1,0,0:0:0:0:
448,192,79203,128,8,79365:0:0:0:0:
64,192,79365,1,0,0:0:0:0:
192,192,79527,1,4,0:0:0:0:
320,192,79527,128,2,79852:0:0:0:0:
64,192,79852,1,8,0:0:0:0:
192,192,80014,1,0,0:0:0:0:
448,192,80176,1,2,0:0:0:0:
320,192,80338,1,2,0:0:0:0:
64,192,80500,1,8,0:0:0:0:
448,192,80500,128,4,80825:0:0:0:0:
192,192,80825,1,2,0:0:0:0:
320,192,80825,1,0,0:0:0:0:
64,192,81149,1,8,0:0:0:0:
448,192,81473,1,2,0:0:0:0:
320,192,81635,1,8,0:0:0:0:
192,192,81635,1,0,0:0:0:0:
448,192,81798,1,4,0:0:0:0:
64,192,81798,1,8,0:0:0:0:
192,192,81960,1,0,0:0:0:0:
320,192,82122,128,2,82446:0:0:0:0:
448,192,82122,1,4,0:0:0:0:
64,192,82446,1,8,0:0:0:0:
192,192,82446,128,0,82608:0:0:0:0:
448,192,82608,128,0,83095:0:0:0:0:
64,192,82771,1,2,0:0:0:0:
192,192,83095,1,8,0:0:0:0:
64,192,83257,1,4,0:0:0:0:
320,192,83257,1,0,0:0:0:0:
192,192,83419,1,2,0:0:0:0:
448,192,83419,1,0,0:0:0:0:
320,192,83744,1,8,0:0:0:0:
64,192,83906,1,2,0:0:0:0:
448,192,83906,1,4,0:0:0:0:
192,192,84068,1,2,0:0:0:0:
320,192,84068,1,0,0:0:0:0:
64,192,84230,1,8,0:0:0:0:
192,192,84311,1,8,0:0:0:0:
320,192,84392,1,2,0:0:0:0:
64,192,84554,1,8,0:0:0:0:
448,192,84554,128,4,86825:0:0:0:0:
320,192,84879,1,8,0:0:0:0:
192,192,85041,1,2,0:0:0:0:
64,192,85203,1,8,0:0:0:0:
320,192,85365,1,2,0:0:0:0:
192,192,85527,1,8,0:0:0:0:
64,192,85689,1,2,0:0:0:0:
192,192,85852,1,8,0:0:0:0:
320,192,86014,1,2,0:0:0:0:
64,192,86176,1,8,0:0:0:0:
192,192,86338,1,2,0:0:0:0:
320,192,86500,1,8,0:0:0:0:
192,192,86662,1,2,0:0:0:0:
192,192,86825,1,8,0:0:0:0:
64,192,86987,1,8,0:0:0:0:
320,192,86987,1,0,0:0:0:0:
64,192,87149,1,8,0:0:0:0:
448,192,87149,1,0,0:0:0:0:
