osu file format v14

[General]
AudioFilename: audio.mp3
AudioLeadIn: 0
PreviewTime: 50338
Countdown: 0
SampleSet: Soft
StackLeniency: 0.7
Mode: 3
LetterboxInBreaks: 0
SpecialStyle: 0
WidescreenStoryboard: 1

[Editor]
DistanceSpacing: 2
BeatDivisor: 4
GridSize: 4
TimelineZoom: 1.8

[Metadata]
Title:Ray of bullet (TV Size)
TitleUnicode:Ray of bullet (TV Size)
Artist:Iris Freyja (CV: Hidaka Rina), Mononobe Mitsuki (CV: Numakura Manami)
ArtistUnicode:イリス・フレイア (CV: 日高里菜)、物部深月 (CV: 沼倉愛美)
Creator:Sun
Version:Iris Chicken's Hard
Source:銃皇無尽のファフニール
Tags:FAMoss loveheerin Nabi- Fresh Chicken Juuou Mujin no Fafnir unlimited ed ending japanese jpop j-pop pop anime
BeatmapID:2544259
BeatmapSetID:1223191

[Difficulty]
HPDrainRate:8
CircleSize:4
OverallDifficulty:7.8
ApproachRate:5
SliderMultiplier:1.4
SliderTickRate:1

[Events]
//Background and Video events
Video,0,"vid.mp4"
0,0,"iris.jpg",0,0
//Break Periods
//Storyboard Layer 0 (Background)
//Storyboard Layer 1 (Fail)
//Storyboard Layer 2 (Pass)
//Storyboard Layer 3 (Foreground)
//Storyboard Layer 4 (Overlay)
//Storyboard Sound Samples

[TimingPoints]
1690,324.324324324324,4,2,1,40,1,0
50987,-100,4,2,1,40,0,1
66230,-100,4,2,1,40,0,0
66554,-100,4,2,1,40,0,1
75473,-100,4,2,1,40,0,0

[HitObjects]
192,192,717,5,0,0:0:0:0:
192,192,1041,1,0,0:0:0:0:
320,192,1365,1,0,0:0:0:0:
64,192,1690,1,2,0:0:0:0:
192,192,1690,1,4,0:0:0:0:
448,192,1690,128,0,2176:0:0:0:0:
64,192,2176,1,2,0:0:0:0:
320,192,2176,1,0,0:0:0:0:
192,192,2338,1,2,0:0:0:0:
448,192,2338,1,0,0:0:0:0:
64,192,2500,1,0,0:0:0:0:
64,192,2662,128,4,3311:0:0:0:0:
320,192,2662,1,2,0:0:0:0:
448,192,2662,1,0,0:0:0:0:
320,192,3311,128,0,3635:0:0:0:0:
192,192,3635,128,0,3960:0:0:0:0:
64,192,3960,128,0,4284:0:0:0:0:
192,192,4284,1,4,0:0:0:0:
320,192,4284,128,2,4771:0:0:0:0:
448,192,4284,1,0,0:0:0:0:
192,192,4771,1,8,0:0:0:0:
448,192,4771,1,0,0:0:0:0:
64,192,4933,1,8,0:0:0:0:
320,192,4933,1,0,0:0:0:0:
448,192,5095,1,0,0:0:0:0:
64,192,5257,1,2,0:0:0:0:
192,192,5257,1,4,0:0:0:0:
448,192,5257,128,0,6068:0:0:0:0:
192,192,5744,1,8,0:0:0:0:
64,192,5744,1,0,0:0:0:0:
64,192,5906,1,2,0:0:0:0:
320,192,5906,1,0,0:0:0:0:
192,192,6068,1,0,0:0:0:0:
320,192,6149,1,8,0:0:0:0:
64,192,6230,1,8,0:0:0:0:
448,192,6230,1,0,0:0:0:0:
192,192,6392,1,8,0:0:0:0:
320,192,6473,1,8,0:0:0:0:
64,192,6554,1,8,0:0:0:0:
192,192,6554,1,0,0:0:0:0:
320,192,6717,1,8,0:0:0:0:
192,192,6798,1,2,0:0:0:0:
64,192,6879,1,2,0:0:0:0:
448,192,6879,1,4,0:0:0:0:
320,192,7203,1,2,0:0:0:0:
448,192,7203,1,0,0:0:0:0:
64,192,7365,1,8,0:0:0:0:
448,192,7365,1,0,0:0:0:0:
192,192,7527,1,8,0:0:0:0:
320,192,7527,1,0,0:0:0:0:
64,192,7689,1,8,0:0:0:0:
320,192,7689,1,0,0:0:0:0:
192,192,7852,1,8,0:0:0:0:
448,192,7852,1,0,0:0:0:0:
64,192,8014,128,2,8500:0:0:0:0:
192,192,8014,1,4,0:0:0:0:
320,192,8014,1,0,0:0:0:0:
320,192,8338,1,2,0:0:0:0:
192,192,8500,1,8,0:0:0:0:
448,192,8500,1,0,0:0:0:0:
192,192,8662,1,2,0:0:0:0:
320,192,8662,1,4,0:0:0:0:
448,192,8662,128,0,9149:0:0:0:0:
192,192,8987,1,8,0:0:0:0:
64,192,9149,1,8,0:0:0:0:
320,192,9149,1,0,0:0:0:0:
192,192,9311,1,8,0:0:0:0:
448,192,9392,1,8,0:0:0:0:
64,192,9473,1,4,0:0:0:0:
192,192,9473,128,2,10771:0:0:0:0:
320,192,9473,1,0,0:0:0:0:
448,192,9635,1,0,0:0:0:0:
64,192,9798,1,8,0:0:0:0:
448,192,9798,1,0,0:0:0:0:
320,192,9960,1,0,0:0:0:0:
64,192,10122,1,2,0:0:0:0:
448,192,10122,1,0,0:0:0:0:
320,192,10284,1,0,0:0:0:0:
64,192,10446,1,8,0:0:0:0:
448,192,10446,1,0,0:0:0:0:
64,192,10608,1,0,0:0:0:0:
320,192,10771,1,2,0:0:0:0:
448,192,10771,1,0,0:0:0:0:
192,192,10933,1,0,0:0:0:0:
64,192,11095,1,8,0:0:0:0:
320,192,11095,1,0,0:0:0:0:
192,192,11257,1,0,0:0:0:0:
320,192,11419,1,2,0:0:0:0:
448,192,11419,1,0,0:0:0:0:
64,192,11581,1,0,0:0:0:0:
192,192,11744,1,8,0:0:0:0:
448,192,11744,1,0,0:0:0:0:
320,192,11906,1,0,0:0:0:0:
64,192,12068,1,2,0:0:0:0:
192,192,12068,1,0,0:0:0:0:
64,192,12230,1,0,0:0:0:0:
320,192,12392,1,8,0:0:0:0:
448,192,12392,1,0,0:0:0:0:
192,192,12554,1,0,0:0:0:0:
64,192,12717,1,2,0:0:0:0:
448,192,12717,1,0,0:0:0:0:
320,192,12879,1,0,0:0:0:0:
64,192,13041,1,8,0:0:0:0:
448,192,13041,1,0,0:0:0:0:
192,192,13203,1,0,0:0:0:0:
192,192,13365,1,2,0:0:0:0:
448,192,13365,1,0,0:0:0:0:
320,192,13527,1,0,0:0:0:0:
64,192,13689,1,8,0:0:0:0:
192,192,13689,1,0,0:0:0:0:
320,192,13852,1,0,0:0:0:0:
64,192,14014,1,2,0:0:0:0:
192,192,14014,1,0,0:0:0:0:
448,192,14176,1,0,0:0:0:0:
64,192,14338,1,8,0:0:0:0:
320,192,14338,1,0,0:0:0:0:
192,192,14500,1,0,0:0:0:0:
64,192,14662,1,4,0:0:0:0:
320,192,14662,1,2,0:0:0:0:
448,192,14662,1,0,0:0:0:0:
192,192,14825,1,0,0:0:0:0:
192,192,14987,1,8,0:0:0:0:
448,192,14987,1,0,0:0:0:0:
320,192,15149,1,0,0:0:0:0:
64,192,15311,1,2,0:0:0:0:
448,192,15311,1,0,0:0:0:0:
192,192,15473,1,0,0:0:0:0:
64,192,15635,1,8,0:0:0:0:
448,192,15635,1,0,0:0:0:0:
448,192,15798,1,0,0:0:0:0:
64,192,15960,1,2,0:0:0:0:
192,192,15960,1,0,0:0:0:0:
320,192,16122,1,0,0:0:0:0:
192,192,16284,1,8,0:0:0:0:
448,192,16284,1,0,0:0:0:0:
320,192,16446,1,0,0:0:0:0:
64,192,16608,1,2,0:0:0:0:
192,192,16608,1,0,0:0:0:0:
448,192,16771,1,0,0:0:0:0:
64,192,16933,1,8,0:0:0:0:
320,192,16933,1,0,0:0:0:0:
192,192,17095,1,0,0:0:0:0:
64,192,17257,1,8,0:0:0:0:
320,192,17257,1,0,0:0:0:0:
448,192,17257,1,0,0:0:0:0:
320,192,17419,1,8,0:0:0:0:
448,192,17419,1,0,0:0:0:0:
64,192,17581,1,2,0:0:0:0:
192,192,17744,1,0,0:0:0:0:
320,192,17825,1,8,0:0:0:0:
192,192,17906,1,2,0:0:0:0:
448,192,17906,1,0,0:0:0:0:
64,192,18068,1,8,0:0:0:0:
320,192,18068,1,0,0:0:0:0:
64,192,18230,1,8,0:0:0:0:
448,192,18230,1,0,0:0:0:0:
192,192,18392,1,4,0:0:0:0:
320,192,18392,1,2,0:0:0:0:
448,192,18392,1,0,0:0:0:0:
64,192,18717,1,8,0:0:0:0:
192,192,18717,1,0,0:0:0:0:
192,192,18879,1,8,0:0:0:0:
320,192,18879,1,0,0:0:0:0:
64,192,19041,128,2,19203:0:0:0:0:
448,192,19041,128,0,19203:0:0:0:0:
64,192,19365,128,2,19527:0:0:0:0:
448,192,19365,128,0,19527:0:0:0:0:
320,192,19689,1,2,0:0:0:0:
64,192,19852,1,4,0:0:0:0:
192,192,19852,1,2,0:0:0:0:
448,192,19852,1,0,0:0:0:0:
320,192,20176,1,8,0:0:0:0:
448,192,20176,1,0,0:0:0:0:
448,192,20338,1,0,0:0:0:0:
64,192,20500,1,2,0:0:0:0:
192,192,20500,1,0,0:0:0:0:
320,192,20662,1,0,0:0:0:0:
64,192,20825,1,8,0:0:0:0:
192,192,20825,1,0,0:0:0:0:
64,192,20987,1,0,0:0:0:0:
320,192,21149,1,2,0:0:0:0:
448,192,21149,1,0,0:0:0:0:
192,192,21311,1,0,0:0:0:0:
64,192,21473,1,8,0:0:0:0:
448,192,21473,1,0,0:0:0:0:
448,192,21635,1,0,0:0:0:0:
64,192,21798,1,2,0:0:0:0:
192,192,21798,1,0,0:0:0:0:
448,192,21960,1,0,0:0:0:0:
192,192,22122,1,8,0:0:0:0:
320,192,22122,1,0,0:0:0:0:
192,192,22284,1,0,0:0:0:0:
64,192,22446,1,2,0:0:0:0:
448,192,22446,1,0,0:0:0:0:
192,192,22608,1,0,0:0:0:0:
320,192,22771,1,8,0:0:0:0:
448,192,22771,1,0,0:0:0:0:
320,192,22933,1,0,0:0:0:0:
192,192,23095,1,2,0:0:0:0:
448,192,23095,1,0,0:0:0:0:
320,192,23257,1,0,0:0:0:0:
64,192,23419,1,8,0:0:0:0:
192,192,23419,1,0,0:0:0:0:
64,192,23581,1,0,0:0:0:0:
192,192,23744,1,2,0:0:0:0:
320,192,23744,1,0,0:0:0:0:
64,192,23906,128,0,24068:0:0:0:0:
320,192,24068,128,8,24230:0:0:0:0:
448,192,24068,1,0,0:0:0:0:
192,192,24230,128,0,24392:0:0:0:0:
64,192,24392,1,2,0:0:0:0:
448,192,24392,128,0,24554:0:0:0:0:
192,192,24554,128,0,24717:0:0:0:0:
64,192,24717,1,8,0:0:0:0:
320,192,24717,128,0,24879:0:0:0:0:
192,192,24879,1,8,0:0:0:0:
64,192,24960,1,8,0:0:0:0:
192,192,25041,1,2,0:0:0:0:
448,192,25041,128,0,25203:0:0:0:0:
320,192,25203,128,0,25365:0:0:0:0:
64,192,25365,1,8,0:0:0:0:
192,192,25365,128,0,25527:0:0:0:0:
320,192,25527,128,0,25852:0:0:0:0:
64,192,25689,1,2,0:0:0:0:
192,192,25689,1,0,0:0:0:0:
448,192,25852,128,0,26014:0:0:0:0:
64,192,26014,1,8,0:0:0:0:
320,192,26014,128,0,26176:0:0:0:0:
192,192,26176,128,0,26338:0:0:0:0:
64,192,26338,128,2,26500:0:0:0:0:
448,192,26338,1,0,0:0:0:0:
192,192,26500,128,0,26662:0:0:0:0:
320,192,26662,128,8,26825:0:0:0:0:
448,192,26662,1,0,0:0:0:0:
192,192,26825,128,0,26987:0:0:0:0:
64,192,26987,128,2,27149:0:0:0:0:
448,192,26987,1,0,0:0:0:0:
320,192,27149,128,0,27311:0:0:0:0:
64,192,27311,128,8,27473:0:0:0:0:
448,192,27311,1,0,0:0:0:0:
192,192,27473,128,0,27635:0:0:0:0:
64,192,27635,1,2,0:0:0:0:
448,192,27635,128,0,27798:0:0:0:0:
320,192,27798,128,0,27960:0:0:0:0:
64,192,27960,1,8,0:0:0:0:
192,192,27960,128,0,28122:0:0:0:0:
320,192,28122,128,0,28446:0:0:0:0:
64,192,28284,1,2,0:0:0:0:
192,192,28284,1,0,0:0:0:0:
448,192,28446,128,0,28608:0:0:0:0:
64,192,28608,1,8,0:0:0:0:
320,192,28608,128,0,28771:0:0:0:0:
192,192,28771,128,0,28933:0:0:0:0:
64,192,28933,128,2,29095:0:0:0:0:
448,192,28933,1,0,0:0:0:0:
192,192,29095,128,0,29257:0:0:0:0:
320,192,29257,128,8,29419:0:0:0:0:
448,192,29257,1,0,0:0:0:0:
192,192,29419,1,8,0:0:0:0:
320,192,29500,1,8,0:0:0:0:
64,192,29581,1,2,0:0:0:0:
448,192,29581,1,0,0:0:0:0:
192,192,29744,1,0,0:0:0:0:
320,192,29906,1,8,0:0:0:0:
448,192,29906,1,0,0:0:0:0:
320,192,30068,1,0,0:0:0:0:
64,192,30230,1,4,0:0:0:0:
192,192,30230,1,2,0:0:0:0:
448,192,30230,1,0,0:0:0:0:
64,192,30554,1,8,0:0:0:0:
192,192,30554,1,0,0:0:0:0:
64,192,30717,1,0,0:0:0:0:
320,192,30879,1,2,0:0:0:0:
448,192,30879,1,0,0:0:0:0:
192,192,31041,1,0,0:0:0:0:
320,192,31203,1,8,0:0:0:0:
448,192,31203,1,0,0:0:0:0:
448,192,31365,1,0,0:0:0:0:
320,192,31446,1,0,0:0:0:0:
64,192,31527,1,2,0:0:0:0:
192,192,31527,1,0,0:0:0:0:
320,192,31689,1,0,0:0:0:0:
64,192,31852,1,8,0:0:0:0:
448,192,31852,1,0,0:0:0:0:
64,192,32014,1,0,0:0:0:0:
320,192,32176,1,2,0:0:0:0:
448,192,32176,1,0,0:0:0:0:
64,192,32338,1,0,0:0:0:0:
192,192,32500,1,8,0:0:0:0:
320,192,32500,1,0,0:0:0:0:
320,192,32662,1,0,0:0:0:0:
64,192,32825,1,2,0:0:0:0:
192,192,32825,1,0,0:0:0:0:
448,192,32825,1,0,0:0:0:0:
320,192,32987,1,0,0:0:0:0:
64,192,33149,1,8,0:0:0:0:
192,192,33149,1,0,0:0:0:0:
192,192,33311,1,0,0:0:0:0:
64,192,33473,1,2,0:0:0:0:
320,192,33473,1,0,0:0:0:0:
192,192,33635,1,0,0:0:0:0:
320,192,33798,1,8,0:0:0:0:
448,192,33798,1,0,0:0:0:0:
448,192,33960,1,0,0:0:0:0:
192,192,34122,1,2,0:0:0:0:
320,192,34122,1,0,0:0:0:0:
448,192,34284,1,0,0:0:0:0:
320,192,34365,1,0,0:0:0:0:
192,192,34446,1,8,0:0:0:0:
64,192,34446,1,0,0:0:0:0:
448,192,34527,1,0,0:0:0:0:
320,192,34608,128,0,34771:0:0:0:0:
64,192,34771,1,2,0:0:0:0:
192,192,34771,1,8,0:0:0:0:
448,192,34771,1,0,0:0:0:0:
320,192,34933,1,8,0:0:0:0:
64,192,35014,1,8,0:0:0:0:
192,192,35095,1,8,0:0:0:0:
448,192,35095,1,0,0:0:0:0:
320,192,35257,1,8,0:0:0:0:
192,192,35338,1,8,0:0:0:0:
64,192,35419,1,2,0:0:0:0:
320,192,35419,1,4,0:0:0:0:
448,192,35419,1,0,0:0:0:0:
192,192,35744,1,8,0:0:0:0:
448,192,35744,1,0,0:0:0:0:
192,192,35906,1,0,0:0:0:0:
64,192,36068,1,2,0:0:0:0:
320,192,36068,1,0,0:0:0:0:
448,192,36230,1,0,0:0:0:0:
64,192,36392,1,8,0:0:0:0:
192,192,36392,1,4,0:0:0:0:
320,192,36392,1,0,0:0:0:0:
64,192,36717,1,2,0:0:0:0:
448,192,36717,1,0,0:0:0:0:
320,192,36879,1,0,0:0:0:0:
64,192,37041,1,8,0:0:0:0:
192,192,37041,1,0,0:0:0:0:
64,192,37203,1,0,0:0:0:0:
192,192,37365,1,2,0:0:0:0:
448,192,37365,1,0,0:0:0:0:
320,192,37527,1,0,0:0:0:0:
64,192,37689,1,8,0:0:0:0:
192,192,37689,1,4,0:0:0:0:
448,192,37689,1,0,0:0:0:0:
64,192,38014,1,2,0:0:0:0:
320,192,38014,1,0,0:0:0:0:
192,192,38176,1,0,0:0:0:0:
320,192,38338,1,8,0:0:0:0:
448,192,38338,1,0,0:0:0:0:
320,192,38500,1,0,0:0:0:0:
64,192,38662,1,2,0:0:0:0:
192,192,38662,1,0,0:0:0:0:
448,192,38825,1,0,0:0:0:0:
64,192,38987,1,8,0:0:0:0:
320,192,38987,1,0,0:0:0:0:
448,192,39149,1,0,0:0:0:0:
64,192,39311,1,8,0:0:0:0:
192,192,39311,1,4,0:0:0:0:
320,192,39311,1,0,0:0:0:0:
64,192,39473,1,4,0:0:0:0:
192,192,39473,1,8,0:0:0:0:
320,192,39473,1,0,0:0:0:0:
64,192,39798,1,2,0:0:0:0:
448,192,39798,1,0,0:0:0:0:
192,192,40122,1,4,0:0:0:0:
320,192,40122,1,2,0:0:0:0:
448,192,40122,128,0,40446:0:0:0:0:
320,192,40446,1,8,0:0:0:0:
192,192,40527,1,8,0:0:0:0:
64,192,40608,1,4,0:0:0:0:
320,192,40608,128,2,40771:0:0:0:0:
448,192,40608,128,0,40771:0:0:0:0:
64,192,40933,128,8,41095:0:0:0:0:
320,192,40933,128,0,41095:0:0:0:0:
448,192,40933,1,0,0:0:0:0:
64,192,41257,1,2,0:0:0:0:
192,192,41257,128,0,41419:0:0:0:0:
320,192,41257,128,0,41419:0:0:0:0:
64,192,41581,1,8,0:0:0:0:
192,192,41581,1,0,0:0:0:0:
320,192,41581,1,0,0:0:0:0:
64,192,41744,128,8,41906:0:0:0:0:
192,192,41744,128,0,41906:0:0:0:0:
320,192,41744,1,0,0:0:0:0:
64,192,42068,128,8,42230:0:0:0:0:
320,192,42068,1,0,0:0:0:0:
448,192,42068,128,0,42230:0:0:0:0:
192,192,42392,1,8,0:0:0:0:
320,192,42392,1,0,0:0:0:0:
448,192,42392,1,0,0:0:0:0:
192,192,42554,1,2,0:0:0:0:
320,192,42554,128,0,42879:0:0:0:0:
448,192,42554,128,0,42879:0:0:0:0:
64,192,42879,128,8,43203:0:0:0:0:
192,192,42879,128,0,43203:0:0:0:0:
320,192,43203,128,8,43365:0:0:0:0:
448,192,43203,128,0,43365:0:0:0:0:
64,192,43527,128,8,43689:0:0:0:0:
320,192,43527,128,0,43689:0:0:0:0:
448,192,43527,1,0,0:0:0:0:
64,192,43852,1,8,0:0:0:0:
192,192,43852,128,0,44014:0:0:0:0:
448,192,43852,128,0,44014:0:0:0:0:
64,192,44176,1,8,0:0:0:0:
192,192,44176,1,0,0:0:0:0:
448,192,44176,1,0,0:0:0:0:
64,192,44338,128,8,44500:0:0:0:0:
192,192,44338,128,0,44500:0:0:0:0:
448,192,44338,1,0,0:0:0:0:
192,192,44662,128,8,44825:0:0:0:0:
320,192,44662,128,0,44825:0:0:0:0:
448,192,44662,1,0,0:0:0:0:
64,192,44987,1,8,0:0:0:0:
320,192,44987,1,0,0:0:0:0:
448,192,44987,1,0,0:0:0:0:
64,192,45149,1,2,0:0:0:0:
320,192,45149,128,0,45473:0:0:0:0:
448,192,45149,128,0,45473:0:0:0:0:
64,192,45473,128,8,45635:0:0:0:0:
192,192,45473,128,0,45635:0:0:0:0:
320,192,45635,1,8,0:0:0:0:
192,192,45717,1,8,0:0:0:0:
64,192,45798,1,4,0:0:0:0:
320,192,45798,1,2,0:0:0:0:
448,192,45798,128,0,46771:0:0:0:0:
64,192,46122,1,8,0:0:0:0:
192,192,46122,1,0,0:0:0:0:
64,192,46284,1,4,0:0:0:0:
192,192,46284,1,2,0:0:0:0:
320,192,46284,128,0,47419:0:0:0:0:
64,192,46608,1,8,0:0:0:0:
192,192,46608,1,0,0:0:0:0:
64,192,46771,1,2,0:0:0:0:
192,192,46771,128,4,47419:0:0:0:0:
448,192,47095,1,2,0:0:0:0:
64,192,47419,1,2,0:0:0:0:
448,192,47419,1,0,0:0:0:0:
192,192,47527,1,8,0:0:0:0:
320,192,47527,1,0,0:0:0:0:
448,192,47635,1,8,0:0:0:0:
64,192,47744,1,2,0:0:0:0:
192,192,47744,1,0,0:0:0:0:
320,192,47852,1,2,0:0:0:0:
448,192,47852,1,0,0:0:0:0:
64,192,47960,1,2,0:0:0:0:
192,192,48068,1,4,0:0:0:0:
320,192,48068,1,2,0:0:0:0:
448,192,48068,128,0,49689:0:0:0:0:
64,192,48717,1,8,0:0:0:0:
320,192,48717,1,0,0:0:0:0:
320,192,48879,1,0,0:0:0:0:
64,192,49041,1,2,0:0:0:0:
192,192,49041,1,0,0:0:0:0:
192,192,49203,1,8,0:0:0:0:
64,192,49365,1,2,0:0:0:0:
320,192,49365,1,0,0:0:0:0:
192,192,49527,1,2,0:0:0:0:
320,192,49608,1,0,0:0:0:0:
64,192,49689,1,8,0:0:0:0:
192,192,49689,1,0,0:0:0:0:
192,192,50338,128,0,50662:0:0:0:0:
320,192,50662,128,0,50987:0:0:0:0:
64,192,50987,128,4,51311:0:0:0:0:
192,192,50987,128,2,51311:0:0:0:0:
448,192,50987,1,0,0:0:0:0:
320,192,51311,1,8,0:0:0:0:
448,192,51311,128,0,51635:0:0:0:0:
64,192,51473,128,0,51635:0:0:0:0:
192,192,51635,128,2,51960:0:0:0:0:
320,192,51635,1,0,0:0:0:0:
448,192,51798,128,0,51960:0:0:0:0:
64,192,51960,128,8,52284:0:0:0:0:
320,192,51960,1,0,0:0:0:0:
192,192,52122,128,0,52284:0:0:0:0:
320,192,52284,128,2,52608:0:0:0:0:
448,192,52284,1,0,0:0:0:0:
64,192,52446,128,0,52608:0:0:0:0:
192,192,52608,1,8,0:0:0:0:
448,192,52608,128,0,52933:0:0:0:0:
64,192,52771,128,0,52933:0:0:0:0:
192,192,52933,1,2,0:0:0:0:
320,192,52933,128,0,53257:0:0:0:0:
448,192,53095,128,0,53257:0:0:0:0:
64,192,53257,1,8,0:0:0:0:
192,192,53257,128,0,53581:0:0:0:0:
320,192,53419,128,0,53581:0:0:0:0:
64,192,53581,1,2,0:0:0:0:
448,192,53581,128,0,53906:0:0:0:0:
192,192,53744,1,0,0:0:0:0:
64,192,53906,1,8,0:0:0:0:
320,192,53906,128,0,54230:0:0:0:0:
192,192,54068,128,0,54230:0:0:0:0:
64,192,54230,1,2,0:0:0:0:
448,192,54230,1,0,0:0:0:0:
320,192,54392,128,0,54554:0:0:0:0:
64,192,54554,1,8,0:0:0:0:
192,192,54554,1,0,0:0:0:0:
448,192,54717,128,0,55041:0:0:0:0:
64,192,54879,1,2,0:0:0:0:
320,192,54879,1,0,0:0:0:0:
192,192,55041,1,0,0:0:0:0:
64,192,55203,1,8,0:0:0:0:
320,192,55203,1,0,0:0:0:0:
192,192,55365,1,0,0:0:0:0:
320,192,55446,1,2,0:0:0:0:
64,192,55527,1,2,0:0:0:0:
448,192,55527,128,0,55689:0:0:0:0:
192,192,55689,1,0,0:0:0:0:
64,192,55852,128,8,56014:0:0:0:0:
448,192,55852,1,4,0:0:0:0:
320,192,55852,1,0,0:0:0:0:
192,192,56014,1,0,0:0:0:0:
64,192,56176,1,2,0:0:0:0:
320,192,56176,128,4,56500:0:0:0:0:
448,192,56176,128,0,56500:0:0:0:0:
64,192,56500,128,8,56825:0:0:0:0:
192,192,56500,1,0,0:0:0:0:
448,192,56662,128,0,56825:0:0:0:0:
192,192,56825,1,2,0:0:0:0:
320,192,56825,128,0,57149:0:0:0:0:
64,192,56987,128,0,57149:0:0:0:0:
192,192,57149,1,8,0:0:0:0:
448,192,57149,128,0,57473:0:0:0:0:
320,192,57311,128,0,57473:0:0:0:0:
64,192,57473,1,2,0:0:0:0:
192,192,57473,128,0,57798:0:0:0:0:
448,192,57635,128,0,57798:0:0:0:0:
64,192,57798,128,8,58122:0:0:0:0:
320,192,57798,1,0,0:0:0:0:
448,192,57960,128,0,58122:0:0:0:0:
192,192,58122,128,2,58446:0:0:0:0:
320,192,58122,1,0,0:0:0:0:
64,192,58284,128,0,58446:0:0:0:0:
320,192,58446,128,8,58771:0:0:0:0:
448,192,58446,1,0,0:0:0:0:
192,192,58608,128,0,58771:0:0:0:0:
64,192,58771,128,2,59095:0:0:0:0:
448,192,58771,1,0,0:0:0:0:
320,192,58933,1,0,0:0:0:0:
192,192,59095,128,8,59419:0:0:0:0:
448,192,59095,1,0,0:0:0:0:
320,192,59257,128,0,59419:0:0:0:0:
64,192,59419,1,2,0:0:0:0:
448,192,59419,1,0,0:0:0:0:
192,192,59581,128,0,59744:0:0:0:0:
320,192,59744,1,8,0:0:0:0:
448,192,59744,1,0,0:0:0:0:
64,192,59906,128,0,60230:0:0:0:0:
192,192,60068,1,2,0:0:0:0:
448,192,60068,1,0,0:0:0:0:
320,192,60230,1,0,0:0:0:0:
192,192,60392,1,8,0:0:0:0:
448,192,60392,1,0,0:0:0:0:
320,192,60554,1,0,0:0:0:0:
192,192,60635,1,8,0:0:0:0:
64,192,60717,128,2,60879:0:0:0:0:
448,192,60717,1,0,0:0:0:0:
320,192,60879,1,0,0:0:0:0:
64,192,61041,1,8,0:0:0:0:
448,192,61041,128,4,61203:0:0:0:0:
192,192,61203,1,0,0:0:0:0:
64,192,61365,1,4,0:0:0:0:
320,192,61365,1,2,0:0:0:0:
448,192,61365,128,0,61852:0:0:0:0:
192,192,61527,1,0,0:0:0:0:
64,192,61689,1,8,0:0:0:0:
192,192,61689,1,0,0:0:0:0:
320,192,61852,128,0,62338:0:0:0:0:
64,192,62014,1,2,0:0:0:0:
448,192,62014,1,0,0:0:0:0:
192,192,62176,1,0,0:0:0:0:
64,192,62338,128,8,62987:0:0:0:0:
448,192,62338,1,0,0:0:0:0:
320,192,62500,1,0,0:0:0:0:
192,192,62662,1,2,0:0:0:0:
448,192,62662,1,0,0:0:0:0:
192,192,62825,1,0,0:0:0:0:
320,192,62987,128,8,63311:0:0:0:0:
448,192,62987,1,0,0:0:0:0:
192,192,63149,1,0,0:0:0:0:
64,192,63311,128,2,63635:0:0:0:0:
448,192,63311,1,0,0:0:0:0:
192,192,63473,1,0,0:0:0:0:
320,192,63635,1,8,0:0:0:0:
448,192,63635,128,0,63960:0:0:0:0:
64,192,63798,1,0,0:0:0:0:
64,192,63960,1,2,0:0:0:0:
192,192,63960,1,4,0:0:0:0:
320,192,63960,128,0,64608:0:0:0:0:
448,192,64122,1,2,0:0:0:0:
64,192,64284,1,8,0:0:0:0:
192,192,64284,1,0,0:0:0:0:
64,192,64446,1,2,0:0:0:0:
192,192,64608,128,8,65257:0:0:0:0:
448,192,64608,1,0,0:0:0:0:
320,192,64771,1,2,0:0:0:0:
64,192,64933,1,8,0:0:0:0:
448,192,64933,1,0,0:0:0:0:
448,192,65095,1,2,0:0:0:0:
64,192,65257,128,8,65906:0:0:0:0:
320,192,65257,1,4,0:0:0:0:
448,192,65419,1,2,0:0:0:0:
192,192,65581,1,8,0:0:0:0:
320,192,65581,1,0,0:0:0:0:
320,192,65744,1,2,0:0:0:0:
192,192,65906,1,8,0:0:0:0:
448,192,65906,128,4,66230:0:0:0:0:
64,192,66068,1,8,0:0:0:0:
192,192,66149,1,8,0:0:0:0:
64,192,66230,1,4,0:0:0:0:
320,192,66230,1,2,0:0:0:0:
448,192,66392,1,8,0:0:0:0:
320,192,66473,1,8,0:0:0:0:
64,192,66554,128,4,66879:0:0:0:0:
192,192,66554,1,2,0:0:0:0:
448,192,66554,1,0,0:0:0:0:
320,192,66717,128,0,66879:0:0:0:0:
192,192,66879,128,8,67203:0:0:0:0:
448,192,66879,128,0,67041:0:0:0:0:
320,192,67041,128,0,67203:0:0:0:0:
64,192,67203,128,2,67365:0:0:0:0:
448,192,67203,128,0,67527:0:0:0:0:
192,192,67365,128,0,67527:0:0:0:0:
64,192,67527,128,8,67689:0:0:0:0:
320,192,67527,128,0,67852:0:0:0:0:
448,192,67689,128,0,67852:0:0:0:0:
64,192,67852,128,2,68176:0:0:0:0:
192,192,67852,128,0,68014:0:0:0:0:
320,192,68014,128,0,68176:0:0:0:0:
192,192,68176,128,8,68338:0:0:0:0:
448,192,68176,128,0,68500:0:0:0:0:
64,192,68338,128,0,68500:0:0:0:0:
192,192,68500,128,2,68825:0:0:0:0:
320,192,68500,128,0,68662:0:0:0:0:
448,192,68662,128,0,68825:0:0:0:0:
64,192,68825,128,8,68987:0:0:0:0:
320,192,68825,128,0,69149:0:0:0:0:
192,192,68987,128,0,69149:0:0:0:0:
64,192,69149,128,2,69311:0:0:0:0:
448,192,69149,128,0,69473:0:0:0:0:
192,192,69311,1,0,0:0:0:0:
64,192,69473,128,8,69635:0:0:0:0:
320,192,69473,128,0,69798:0:0:0:0:
192,192,69635,128,0,69798:0:0:0:0:
64,192,69798,1,2,0:0:0:0:
448,192,69798,1,0,0:0:0:0:
192,192,69960,128,0,70122:0:0:0:0:
64,192,70122,1,8,0:0:0:0:
448,192,70122,1,0,0:0:0:0:
320,192,70284,128,0,70608:0:0:0:0:
64,192,70446,1,2,0:0:0:0:
192,192,70446,1,0,0:0:0:0:
448,192,70608,1,0,0:0:0:0:
64,192,70771,1,8,0:0:0:0:
192,192,70771,1,0,0:0:0:0:
448,192,70933,1,0,0:0:0:0:
320,192,71014,1,8,0:0:0:0:
64,192,71095,1,2,0:0:0:0:
192,192,71095,128,0,71257:0:0:0:0:
320,192,71257,1,0,0:0:0:0:
320,192,71419,128,8,71581:0:0:0:0:
448,192,71419,1,0,0:0:0:0:
192,192,71581,1,0,0:0:0:0:
64,192,71744,128,2,72068:0:0:0:0:
320,192,71744,1,4,0:0:0:0:
448,192,71744,128,0,72068:0:0:0:0:
192,192,72068,128,8,72230:0:0:0:0:
320,192,72068,128,0,72392:0:0:0:0:
64,192,72230,128,0,72392:0:0:0:0:
192,192,72392,128,2,72717:0:0:0:0:
448,192,72392,128,0,72554:0:0:0:0:
320,192,72554,128,0,72717:0:0:0:0:
64,192,72717,128,8,72879:0:0:0:0:
448,192,72717,128,0,73041:0:0:0:0:
192,192,72879,128,0,73041:0:0:0:0:
64,192,73041,128,2,73365:0:0:0:0:
320,192,73041,128,0,73203:0:0:0:0:
448,192,73203,128,0,73365:0:0:0:0:
192,192,73365,128,8,73527:0:0:0:0:
320,192,73365,128,0,73689:0:0:0:0:
64,192,73527,128,0,73689:0:0:0:0:
192,192,73689,128,2,74014:0:0:0:0:
448,192,73689,128,0,73852:0:0:0:0:
320,192,73852,128,0,74014:0:0:0:0:
64,192,74014,128,8,74338:0:0:0:0:
448,192,74014,128,0,74176:0:0:0:0:
192,192,74176,128,0,74338:0:0:0:0:
320,192,74338,1,2,0:0:0:0:
448,192,74338,128,0,74662:0:0:0:0:
192,192,74500,1,0,0:0:0:0:
64,192,74662,128,8,74825:0:0:0:0:
320,192,74662,1,0,0:0:0:0:
192,192,74825,128,0,75149:0:0:0:0:
448,192,74906,1,2,0:0:0:0:
64,192,74987,1,2,0:0:0:0:
320,192,74987,1,0,0:0:0:0:
448,192,75149,128,0,75473:0:0:0:0:
64,192,75311,1,8,0:0:0:0:
192,192,75311,1,0,0:0:0:0:
64,192,75473,1,8,0:0:0:0:
192,192,75473,1,4,0:0:0:0:
320,192,75473,1,0,0:0:0:0:
448,192,75635,1,2,0:0:0:0:
192,192,75798,1,0,0:0:0:0:
64,192,75960,1,8,0:0:0:0:
448,192,75960,1,0,0:0:0:0:
320,192,76122,1,0,0:0:0:0:
192,192,76122,1,4,0:0:0:0:
448,192,76122,1,0,0:0:0:0:
64,192,76284,1,2,0:0:0:0:
192,192,76284,1,0,0:0:0:0:
320,192,76446,1,8,0:0:0:0:
448,192,76446,1,0,0:0:0:0:
320,192,76608,1,8,0:0:0:0:
448,192,76608,1,0,0:0:0:0:
64,192,76771,1,8,0:0:0:0:
192,192,76852,1,8,0:0:0:0:
320,192,76933,128,4,77257:0:0:0:0:
448,192,76933,128,2,77744:0:0:0:0:
64,192,77257,1,8,0:0:0:0:
192,192,77257,1,0,0:0:0:0:
192,192,77419,128,2,77744:0:0:0:0:
64,192,77581,1,2,0:0:0:0:
320,192,77744,1,2,0:0:0:0:
64,192,77906,128,8,78230:0:0:0:0:
192,192,77906,1,4,0:0:0:0:
448,192,77906,128,0,78554:0:0:0:0:
320,192,78230,1,2,0:0:0:0:
64,192,78392,1,0,0:0:0:0:
192,192,78554,1,8,0:0:0:0:
320,192,78554,128,0,78879:0:0:0:0:
448,192,78717,1,0,0:0:0:0:
64,192,78879,128,2,79203:0:0:0:0:
192,192,78879,1,0,0:0:0:0:
320,192,79041,1,0,0:0:0:0:
192,192,79203,1,8,0:0:0:0:
448,192,79203,128,0,79527:0:0:0:0:
320,192,79365,1,0,0:0:0:0:
64,192,79527,128,4,80338:0:0:0:0:
192,192,79527,128,2,79852:0:0:0:0:
320,192,79852,1,8,0:0:0:0:
448,192,79852,1,0,0:0:0:0:
320,192,80014,128,0,80338:0:0:0:0:
448,192,80176,1,2,0:0:0:0:
192,192,80338,1,2,0:0:0:0:
64,192,80500,128,8,81149:0:0:0:0:
320,192,80500,1,4,0:0:0:0:
448,192,80500,128,0,80825:0:0:0:0:
192,192,80825,1,2,0:0:0:0:
448,192,80987,1,0,0:0:0:0:
192,192,81149,1,8,0:0:0:0:
320,192,81149,1,0,0:0:0:0:
320,192,81311,1,2,0:0:0:0:
64,192,81473,1,2,0:0:0:0:
192,192,81473,1,0,0:0:0:0:
64,192,81635,1,8,0:0:0:0:
320,192,81635,1,0,0:0:0:0:
448,192,81635,1,0,0:0:0:0:
192,192,81798,1,8,0:0:0:0:
320,192,81798,1,4,0:0:0:0:
448,192,81798,1,0,0:0:0:0:
64,192,81960,1,0,0:0:0:0:
192,192,82122,1,2,0:0:0:0:
320,192,82122,128,4,82446:0:0:0:0:
448,192,82122,128,0,82608:0:0:0:0:
64,192,82446,1,8,0:0:0:0:
192,192,82446,1,0,0:0:0:0:
64,192,82608,128,0,83095:0:0:0:0:
320,192,82608,1,0,0:0:0:0:
448,192,82771,1,2,0:0:0:0:
192,192,82933,1,0,0:0:0:0:
320,192,83095,1,8,0:0:0:0:
448,192,83095,1,0,0:0:0:0:
64,192,83257,128,4,83744:0:0:0:0:
192,192,83257,1,0,0:0:0:0:
448,192,83257,1,0,0:0:0:0:
320,192,83419,1,2,0:0:0:0:
448,192,83581,1,0,0:0:0:0:
192,192,83744,1,8,0:0:0:0:
320,192,83744,1,0,0:0:0:0:
64,192,83906,1,2,0:0:0:0:
320,192,83906,1,4,0:0:0:0:
448,192,83906,128,0,84230:0:0:0:0:
192,192,84068,1,2,0:0:0:0:
320,192,84230,1,8,0:0:0:0:
192,192,84311,1,8,0:0:0:0:
64,192,84392,1,2,0:0:0:0:
320,192,84392,1,0,0:0:0:0:
64,192,84554,1,8,0:0:0:0:
192,192,84554,128,4,84879:0:0:0:0:
448,192,84554,128,0,84879:0:0:0:0:
320,192,84879,1,8,0:0:0:0:
320,192,85041,1,2,0:0:0:0:
320,192,85203,1,8,0:0:0:0:
64,192,85365,1,2,0:0:0:0:
192,192,85365,1,0,0:0:0:0:
64,192,85527,1,8,0:0:0:0:
320,192,85527,1,0,0:0:0:0:
320,192,85689,1,2,0:0:0:0:
448,192,85689,1,0,0:0:0:0:
192,192,85852,1,8,0:0:0:0:
448,192,85852,1,0,0:0:0:0:
64,192,86014,1,2,0:0:0:0:
192,192,86014,1,0,0:0:0:0:
320,192,86014,1,0,0:0:0:0:
64,192,86176,1,8,0:0:0:0:
448,192,86176,1,0,0:0:0:0:
192,192,86338,1,2,0:0:0:0:
320,192,86338,1,0,0:0:0:0:
448,192,86338,1,0,0:0:0:0:
64,192,86500,1,8,0:0:0:0:
320,192,86500,1,0,0:0:0:0:
64,192,86662,1,2,0:0:0:0:
192,192,86662,1,0,0:0:0:0:
448,192,86662,1,0,0:0:0:0:
64,192,86825,1,8,0:0:0:0:
192,192,86825,1,0,0:0:0:0:
448,192,86825,1,0,0:0:0:0:
64,192,86987,1,8,0:0:0:0:
192,192,86987,1,0,0:0:0:0:
448,192,86987,1,0,0:0:0:0:
64,192,87149,1,8,0:0:0:0:
192,192,87149,1,0,0:0:0:0:
448,192,87149,1,0,0:0:0:0:
