osu file format v14

[General]
AudioFilename: audio.mp3
AudioLeadIn: 0
PreviewTime: 57281
Countdown: 0
SampleSet: Soft
StackLeniency: 0.7
Mode: 0
LetterboxInBreaks: 0
WidescreenStoryboard: 0

[Editor]
Bookmarks: 1410,22983,101775
DistanceSpacing: 1
BeatDivisor: 2
GridSize: 4
TimelineZoom: 1

[Metadata]
Title:Crying Heart
TitleUnicode:クライングハート
Artist:Iris December Uncry (Hanazono Mei), Noel the Nextseason (Ameba Tsukasa)
ArtistUnicode:アイリス・ディセンバー・アンクライ(花園めい)、ノエル・ザ・ネクストシーズン(雨場つかさ)
Creator:Asuka_-
Version:Yasai's Easy
Source:ノラと皇女と野良猫ハート2 -Nora, Princess, and Crying Cat.-
Tags:eroge to oujo noraneko noratoto Yasaija 714 Sekaii Sekai-nyan Momochikun
BeatmapID:1441883
BeatmapSetID:681010

[Difficulty]
HPDrainRate:3
CircleSize:3
OverallDifficulty:3
ApproachRate:3
SliderMultiplier:0.85
SliderTickRate:1

[Events]
//Background and Video events
0,0,"bg(1366x768).jpg",0,0
//Break Periods
//Storyboard Layer 0 (Background)
//Storyboard Layer 1 (Fail)
//Storyboard Layer 2 (Pass)
//Storyboard Layer 3 (Foreground)
//Storyboard Sound Samples

[TimingPoints]
62,337.078651685393,4,2,0,50,1,0
1410,-100,4,2,0,50,0,0
5960,-100,4,2,1,50,0,0
6803,-100,4,2,1,60,0,0
12196,-100,4,2,1,40,0,0
33769,-100,4,2,1,35,0,0
44556,-100,4,2,1,55,0,0
58039,-100,4,2,1,60,0,1
90399,-100,4,2,1,55,0,0
105146,-100,4,2,1,5,0,0

[Colours]
Combo1 : 255,255,128
Combo2 : 128,255,255
Combo3 : 255,128,192
Combo4 : 255,128,64

[HitObjects]
131,53,1410,6,0,P|126:113|152:195,1,127.5,6|2,0:0|0:0,0:0:0:0:
204,236,2253,1,2,0:0:0:0:
261,173,2590,2,0,P|343:153|437:194,1,170,2|2,0:0|0:0,0:0:0:0:
286,344,4106,6,0,P|227:330|151:329,1,127.5,2|2,0:0|0:0,0:0:0:0:
76,340,4949,1,2,0:0:0:0:
26,271,5286,2,0,P|8:192|31:92,1,170,2|8,0:0|0:0,0:0:0:0:
232,151,6803,6,0,P|317:164|374:151,1,127.5,2|6,0:0|0:0,0:0:0:0:
413,92,7646,2,0,P|466:100|507:123,1,85,8|6,0:0|0:0,0:0:0:0:
488,326,8826,1,2,0:0:0:0:
325,352,9500,6,0,P|318:310|320:254,1,85,2|2,0:0|0:0,0:0:0:0:
374,203,10174,2,0,P|381:161|379:105,1,85,2|8,0:0|0:0,0:0:0:0:
316,63,10848,1,12,0:0:0:0:
65,110,11859,1,12,0:0:0:0:
124,172,12196,6,0,P|166:163|219:165,1,85,6|8,0:0|0:0,0:0:0:0:
275,214,12870,2,0,P|352:217|436:190,2,127.5,2|2|8,0:0|0:0|0:0,0:0:0:0:
207,163,14219,2,0,P|198:121|200:68,1,85,2|8,0:0|0:0,0:0:0:0:
269,32,14893,6,0,P|383:25|457:53,1,170,2|2,0:0|0:0,0:0:0:0:
487,157,16073,2,0,L|477:298,1,127.5,2|8,0:0|0:0,0:0:0:0:
407,331,16915,2,0,P|362:322|308:326,1,85,2|8,0:0|0:0,0:0:0:0:
244,355,17590,6,0,P|194:286|202:197,1,170,2|0,0:0|0:0,0:0:0:0:
279,106,18769,2,0,P|222:80|144:89,1,127.5,2|8,0:0|0:0,0:0:0:0:
92,137,19612,2,0,L|104:227,1,85,2|8,0:0|0:0,0:0:0:0:
145,294,20286,6,0,P|193:270|233:268,1,85,2|8,0:0|0:0,0:0:0:0:
305,291,20960,2,0,P|353:314|393:317,1,85,2|8,0:0|0:0,0:0:0:0:
457,273,21635,2,0,P|473:189|468:133,2,127.5,2|6|8,0:0|0:0|0:0,0:0:0:0:
384,317,22983,5,6,0:0:0:0:
305,291,23320,2,0,P|257:282|208:285,1,85,8|2,0:0|0:0,0:0:0:0:
102,330,24163,2,0,P|73:248|78:183,1,127.5,2|8,0:0|0:0,0:0:0:0:
132,147,25005,2,0,L|217:154,1,85,2|8,0:0|0:0,0:0:0:0:
254,229,25679,6,0,P|298:181|268:86,1,170,2|0,0:0|0:0,0:0:0:0:
147,57,26859,2,0,B|64:67|64:67|23:101,1,127.5,2|8,0:0|0:0,0:0:0:0:
11,178,27702,2,0,L|23:265,1,85,2|8,0:0|0:0,0:0:0:0:
76,328,28376,6,0,B|122:328|160:314|160:314|198:330|263:335,1,170,2|2,0:0|0:0,0:0:0:0:
369,329,29556,2,0,P|386:247|373:197,1,127.5,2|8,0:0|0:0,0:0:0:0:
307,156,30399,2,0,P|259:158|194:140,1,85,0|8,0:0|0:0,0:0:0:0:
163,90,31073,6,0,B|193:45|193:45|257:48|323:33,1,170,6|2,0:0|0:0,0:0:0:0:
462,105,32421,2,0,P|461:169|445:231,2,127.5,6|6|8,0:0|0:0|0:0,0:0:0:0:
401,47,33769,5,6,0:0:0:0:
341,206,34444,2,0,P|342:258|364:301,1,85,8|0,0:0|0:0,0:0:0:0:
400,359,35118,1,0,0:0:0:0:
231,334,35792,2,0,P|230:282|208:239,1,85,8|2,0:0|0:0,0:0:0:0:
162,187,36466,5,2,0:0:0:0:
305,95,37140,2,0,P|396:88|455:106,2,127.5,8|2|2,0:0|0:0|0:0,0:0:0:0:
251,160,38488,1,8,0:0:0:0:
110,63,39163,5,8,0:0:0:0:
18,206,39837,2,0,P|21:258|38:307,1,85,8|0,0:0|0:0,0:0:0:0:
82,356,40511,1,0,0:0:0:0:
239,291,41185,2,0,P|249:249|251:207,1,85,8|2,0:0|0:0,0:0:0:0:
193,145,41859,6,0,P|257:93|346:115,1,170,0|8,0:0|0:0,0:0:0:0:
423,203,43039,2,0,L|409:336,1,127.5,6|8,0:0|0:0,0:0:0:0:
325,345,43882,2,0,P|319:302|298:262,1,85,8|10,0:0|0:0,0:0:0:0:
226,224,44556,5,6,0:0:0:0:
145,196,44893,2,0,P|126:158|120:116,1,85,8|2,0:0|0:0,0:0:0:0:
221,38,45736,2,0,L|354:49,1,127.5,2|8,0:0|0:0,0:0:0:0:
402,114,46578,2,0,P|402:164|416:211,1,85,2|8,0:0|0:0,0:0:0:0:
418,282,47253,6,0,P|326:285|248:316,1,170,2|2,0:0|0:0,0:0:0:0:
138,365,48432,2,0,P|116:290|120:217,1,127.5,2|8,0:0|0:0,0:0:0:0:
155,165,49275,2,0,P|200:165|282:133,1,127.5,2|6,0:0|0:0,0:0:0:0:
376,57,50286,5,8,0:0:0:0:
440,112,50623,2,0,P|450:169|445:246,1,127.5,2|6,0:0|0:0,0:0:0:0:
362,334,51635,1,8,0:0:0:0:
298,277,51972,2,0,L|203:292,1,85,0|8,0:0|0:0,0:0:0:0:
133,264,52646,6,0,P|141:180|115:89,1,170,6|0,0:0|0:0,0:0:0:0:
233,39,53826,2,0,P|282:53|370:52,1,127.5,6|8,0:0|0:0,0:0:0:0:
441,36,54668,1,2,0:0:0:0:
472,159,55174,6,0,P|367:153|282:184,1,170,2|8,0:0|0:0,0:0:0:0:
186,292,56522,2,0,P|143:308|104:312,2,85,6|8|8,0:0|0:0|0:0,0:0:0:0:
54,124,58039,5,6,0:0:0:0:
207,49,58713,2,0,L|201:144,1,85,2|8,0:0|0:0,0:0:0:0:
239,209,59387,2,0,P|304:204|372:222,2,127.5,2|2|8,0:0|0:0|0:0,0:0:0:0:
171,261,60736,6,0,L|177:356,1,85,2|8,0:0|0:0,0:0:0:0:
253,380,61410,1,2,0:0:0:0:
375,343,61915,2,0,P|379:286|358:206,1,127.5,2|8,0:0|0:0,0:0:0:0:
290,174,62758,2,0,P|276:118|278:78,1,85,0|8,0:0|0:0,0:0:0:0:
332,27,63432,6,0,P|418:46|506:57,1,170,6|0,0:0|0:0,0:0:0:0:
498,184,64612,2,0,P|436:166|363:157,1,127.5,2|8,0:0|0:0,0:0:0:0:
290,174,65455,2,0,P|276:230|278:270,1,85,2|8,0:0|0:0,0:0:0:0:
299,338,66129,6,0,P|205:347|157:326,1,127.5,6|2,0:0|0:0,0:0:0:0:
112,279,66972,1,2,0:0:0:0:
120,194,67309,2,0,P|162:184|214:194,1,85,6|2,0:0|0:0,0:0:0:0:
282,219,67983,2,0,P|323:224|414:195,1,127.5,4|0,0:0|0:0,0:0:0:0:
442,124,68826,5,6,0:0:0:0:
298,33,69500,2,0,P|242:32|206:37,1,85,2|8,0:0|0:0,0:0:0:0:
167,107,70174,2,0,P|104:113|33:98,2,127.5,2|2|8,0:0|0:0|0:0,0:0:0:0:
242,145,71522,5,2,0:0:0:0:
397,213,72196,2,0,L|391:348,1,127.5,2|6,0:0|0:0,0:0:0:0:
309,365,73039,1,0,0:0:0:0:
245,308,73376,2,0,P|180:292|114:305,1,127.5,2|8,0:0|0:0,0:0:0:0:
37,319,74219,6,0,P|18:252|25:186,1,127.5,6|2,0:0|0:0,0:0:0:0:
69,125,75061,1,2,0:0:0:0:
131,182,75399,2,0,P|227:181|272:164,1,127.5,6|8,0:0|0:0,0:0:0:0:
303,101,76241,2,0,P|364:85|408:91,1,85,2|8,0:0|0:0,0:0:0:0:
456,133,76915,6,0,B|470:173|470:173|462:225,1,85,6|8,0:0|0:0,0:0:0:0:
407,278,77590,2,0,B|367:292|367:292|315:284,1,85,0|8,0:0|0:0,0:0:0:0:
250,244,78264,2,0,B|188:224|188:224|121:249,2,127.5,8|12|8,0:0|0:0|0:0,0:0:0:0:
324,285,79612,5,6,0:0:0:0:
363,209,79949,2,0,P|373:160|362:111,1,85,8|2,0:0|0:0,0:0:0:0:
260,57,80792,2,0,L|137:65,1,85,2|2,0:0|0:0,0:0:0:0:
107,114,81466,2,0,P|89:171|94:249,1,127.5,2|8,0:0|0:0,0:0:0:0:
127,315,82309,5,2,0:0:0:0:
196,266,82646,2,0,B|237:257|237:257|289:264,1,85,8|2,0:0|0:0,0:0:0:0:
394,318,83488,2,0,L|409:229,1,85,6|2,0:0|0:0,0:0:0:0:
341,180,84163,2,0,L|321:49,1,127.5,6|8,0:0|0:0,0:0:0:0:
238,37,85005,6,0,P|148:47|74:119,1,170,6|2,0:0|0:0,0:0:0:0:
38,164,86017,1,8,0:0:0:0:
90,230,86354,2,0,P|89:281|77:329,2,85,2|8|2,0:0|0:0|0:0,0:0:0:0:
141,162,87365,1,8,0:0:0:0:
211,208,87702,6,0,P|271:206|314:197,1,85,6|8,0:0|0:0,0:0:0:0:
359,146,88376,2,0,P|419:148|462:157,1,85,8|0,0:0|0:0,0:0:0:0:
499,216,89050,1,8,0:0:0:0:
456,336,89556,2,0,P|406:344|296:324,1,127.5,8|0,0:0|0:0,0:0:0:0:
272,272,90399,6,0,B|185:276|185:276|143:297,1,127.5,6|2,0:0|0:0,0:0:0:0:
82,346,91241,1,2,0:0:0:0:
22,284,91578,2,0,P|10:215|20:150,1,127.5,2|8,0:0|0:0,0:0:0:0:
69,90,92421,2,0,L|153:95,1,85,2|8,0:0|0:0,0:0:0:0:
223,48,93095,6,0,P|238:109|206:162,1,127.5,2|2,0:0|0:0,0:0:0:0:
131,203,93938,1,2,0:0:0:0:
203,246,94275,2,0,B|286:233|286:233|340:241,1,127.5,6|8,0:0|0:0,0:0:0:0:
411,262,95118,2,0,P|428:218|430:176,1,85,8|8,0:0|0:0,0:0:0:0:
401,100,95792,6,0,P|309:113|255:105,1,127.5,6|12,0:0|0:0,0:0:0:0:
201,65,96635,1,2,0:0:0:0:
146,129,96972,2,0,P|82:125|20:138,1,127.5,12|8,0:0|0:0,0:0:0:0:
10,222,97814,2,0,P|8:268|22:314,1,85,8|8,0:0|0:0,0:0:0:0:
92,346,98488,5,2,0:0:0:0:
128,270,98826,2,0,L|234:277,2,85,8|8|8,0:0|0:0|0:0,0:0:0:0:
91,193,99837,1,6,0:0:0:0:
260,198,100511,2,0,L|340:190,1,42.5,8|8,0:0|0:0,0:0:0:0:
256,192,101017,12,0,105146,0:0:0:0:
