osu file format v14

[General]
AudioFilename: audio.mp3
AudioLeadIn: 0
PreviewTime: 57281
Countdown: 0
SampleSet: Soft
StackLeniency: 0.3
Mode: 0
LetterboxInBreaks: 0
WidescreenStoryboard: 0

[Editor]
Bookmarks: 1410,22983,101775
DistanceSpacing: 1.2
BeatDivisor: 4
GridSize: 16
TimelineZoom: 1

[Metadata]
Title:Crying Heart
TitleUnicode:クライングハート
Artist:Iris December Uncry (Hanazono Mei), Noel the Nextseason (Ameba Tsukasa)
ArtistUnicode:アイリス・ディセンバー・アンクライ(花園めい)、ノエル・ザ・ネクストシーズン(雨場つかさ)
Creator:Asuka_-
Version:Mochi's Hard
Source:ノラと皇女と野良猫ハート2 -Nora, Princess, and Crying Cat.-
Tags:eroge to oujo noraneko noratoto Yasaija 714 Sekaii Sekai-nyan Momochikun
BeatmapID:1443628
BeatmapSetID:681010

[Difficulty]
HPDrainRate:5
CircleSize:4
OverallDifficulty:6
ApproachRate:7.5
SliderMultiplier:1.4
SliderTickRate:1

[Events]
//Background and Video events
0,0,"bg(1366x768).jpg",0,0
//Break Periods
//Storyboard Layer 0 (Background)
//Storyboard Layer 1 (Fail)
//Storyboard Layer 2 (Pass)
//Storyboard Layer 3 (Foreground)
//Storyboard Sound Samples

[TimingPoints]
62,337.078651685393,4,2,0,50,1,0
1410,-125,4,2,0,50,0,0
5286,-200,4,2,0,50,0,0
5370,-200,4,2,1,50,0,0
5960,-100,4,2,1,50,0,0
6803,-100,4,2,1,60,0,0
12196,-100,4,2,1,50,0,0
33769,-117.647058823529,4,2,1,45,0,0
43039,-111.111111111111,4,2,1,45,0,0
44556,-100,4,2,1,60,0,0
58039,-100,4,2,1,65,0,1
90399,-100,4,2,1,55,0,0
101101,-100,4,2,1,20,0,0
105146,-100,4,2,1,5,0,0

[Colours]
Combo1 : 255,255,128
Combo2 : 128,255,255
Combo3 : 255,128,192
Combo4 : 255,128,64

[HitObjects]
211,247,1410,6,0,P|186:291|185:360,1,112,2|0,0:0|0:0,0:0:0:0:
329,351,1915,2,0,P|327:295|301:247,2,112,2|2|2,0:0|0:0|0:0,0:0:0:0:
255,127,3264,1,2,0:0:0:0:
193,174,3432,2,0,P|161:184|126:185,1,56,2|2,0:0|0:0,0:0:0:0:
319,174,3769,2,0,P|351:184|386:185,1,56,2|0,0:0|0:0,0:0:0:0:
466,133,4106,6,0,L|438:260,1,112,2|2,0:0|0:0,0:0:0:0:
375,299,4612,1,2,0:0:0:0:
375,299,4949,1,2,0:0:0:0:
375,299,5286,6,0,P|318:290|241:322,1,140,2|8,0:0|0:0,0:0:0:0:
215,344,6045,5,8,0:0:0:0:
215,344,6129,2,0,P|197:305|199:271,1,70,8|2,0:0|0:0,0:0:0:0:
236,204,6466,1,8,0:0:0:0:
298,146,6635,1,2,0:0:0:0:
236,204,6803,6,0,P|181:189|154:182,1,70,6|8,0:0|0:0,0:0:0:0:
84,186,7140,1,8,0:0:0:0:
81,77,7309,2,0,P|148:94|216:113,1,140,6|8,0:0|0:0,0:0:0:0:
298,146,7814,1,8,0:0:0:0:
256,32,7983,1,4,0:0:0:0:
256,32,8657,5,2,0:0:0:0:
216,113,8826,2,0,P|182:155|179:217,2,105,8|2|2,0:0|0:0|0:0,0:0:0:0:
320,71,9500,6,0,P|328:117|334:149,1,70,4|2,0:0|0:0,0:0:0:0:
454,158,9837,2,0,P|448:192|442:227,1,70,2|2,0:0|0:0,0:0:0:0:
306,248,10174,2,0,P|314:294|320:326,1,70,2|8,0:0|0:0,0:0:0:0:
412,324,10511,5,8,0:0:0:0:
442,227,10679,1,8,0:0:0:0:
332,139,10848,1,12,0:0:0:0:
153,55,11691,1,2,0:0:0:0:
133,63,11775,1,0,0:0:0:0:
113,71,11859,1,4,0:0:0:0:
264,143,12196,6,0,P|326:149|406:109,2,140,4|8|2,0:0|0:0|0:0,0:0:0:0:
191,186,13039,2,0,L|173:268,1,70,2|8,0:0|0:0,0:0:0:0:
102,347,13376,6,0,L|71:210,1,140,2|0,0:0|0:0,0:0:0:0:
24,140,13882,2,0,P|17:105|25:67,1,70,8|0,0:0|0:0,0:0:0:0:
118,107,14219,2,0,L|191:90,1,70,2|0,0:0|0:0,0:0:0:0:
264,121,14556,1,8,0:0:0:0:
410,23,14893,6,0,B|435:63|435:63|407:174,1,140,2|8,0:0|0:0,0:0:0:0:
349,208,15399,1,0,0:0:0:0:
279,254,15567,2,0,L|208:272,2,70,2|2|8,0:0|0:0|0:0,0:0:0:0:
375,309,16073,6,0,L|442:291,1,70,2|0,0:0|0:0,0:0:0:0:
506,236,16410,1,0,0:0:0:0:
435,191,16578,2,0,P|415:129|448:60,1,140,8|2,0:0|0:0,0:0:0:0:
369,24,17084,1,2,0:0:0:0:
283,37,17253,2,0,L|210:53,1,70,8|0,0:0|0:0,0:0:0:0:
142,158,17590,6,0,P|198:167|274:107,1,140,2|8,0:0|0:0,0:0:0:0:
283,37,18095,2,0,L|254:176,1,140,0|2,0:0|0:0,0:0:0:0:
273,256,18601,1,8,0:0:0:0:
114,295,18769,6,0,L|142:157,1,140,2|0,0:0|0:0,0:0:0:0:
204,98,19275,2,0,P|212:60|198:14,1,70,8|0,0:0|0:0,0:0:0:0:
284,136,19612,2,0,P|276:174|290:220,1,70,2|2,0:0|0:0,0:0:0:0:
378,271,19949,2,0,L|299:289,1,70,8|0,0:0|0:0,0:0:0:0:
240,334,20286,6,0,P|191:307|106:318,1,140,2|8,0:0|0:0,0:0:0:0:
39,269,20792,1,0,0:0:0:0:
79,195,20960,2,0,P|89:156|96:112,1,70,2|0,0:0|0:0,0:0:0:0:
46,56,21297,1,8,0:0:0:0:
46,56,21635,5,4,0:0:0:0:
126,80,21803,1,0,0:0:0:0:
192,28,21972,1,8,0:0:0:0:
309,58,22140,2,0,P|258:105|244:189,1,140,6|8,0:0|0:0,0:0:0:0:
328,219,22646,1,8,0:0:0:0:
242,172,22814,1,8,0:0:0:0:
382,144,22983,5,6,0:0:0:0:
382,144,23320,2,0,L|369:240,1,70,8|0,0:0|0:0,0:0:0:0:
344,292,23657,2,0,P|287:302|206:272,1,140,2|8,0:0|0:0,0:0:0:0:
162,206,24163,6,0,P|105:196|24:226,1,140,2|0,0:0|0:0,0:0:0:0:
86,348,24668,2,0,P|100:314|97:275,1,70,8|0,0:0|0:0,0:0:0:0:
162,206,25005,2,0,P|148:172|148:131,1,70,2|0,0:0|0:0,0:0:0:0:
205,75,25342,6,0,L|350:43,2,140,8|2|8,0:0|0:0|0:0,0:0:0:0:
205,75,26354,1,2,0:0:0:0:
248,146,26522,2,0,L|233:222,1,70,2|8,0:0|0:0,0:0:0:0:
285,286,26859,6,0,P|350:264|423:276,1,140,2|0,0:0|0:0,0:0:0:0:
496,238,27365,2,0,L|512:310,2,70,8|0|2,0:0|0:0|0:0,0:0:0:0:
440,175,27870,1,0,0:0:0:0:
386,109,28039,2,0,P|349:110|306:131,1,70,8|0,0:0|0:0,0:0:0:0:
214,226,28376,6,0,P|264:237|348:192,1,140,2|8,0:0|0:0,0:0:0:0:
434,65,28882,2,0,P|366:73|318:122,1,140,0|2,0:0|0:0,0:0:0:0:
341,200,29387,1,8,0:0:0:0:
437,165,29556,6,0,B|464:265|464:265|457:300,1,140,2|2,0:0|0:0,0:0:0:0:
391,353,30061,2,0,L|308:335,1,70,8|0,0:0|0:0,0:0:0:0:
343,245,30399,2,0,L|274:259,1,70,0|2,0:0|0:0,0:0:0:0:
207,310,30736,1,8,0:0:0:0:
125,289,30904,1,2,0:0:0:0:
67,227,31073,6,0,P|43:163|78:90,1,140,4|8,0:0|0:0,0:0:0:0:
142,61,31578,1,0,0:0:0:0:
206,124,31747,2,0,P|242:116|283:107,1,70,2|2,0:0|0:0,0:0:0:0:
214,218,32084,2,0,P|177:225|137:235,1,70,8|0,0:0|0:0,0:0:0:0:
288,273,32421,5,4,0:0:0:0:
214,218,32590,1,8,0:0:0:0:
158,315,32758,1,8,0:0:0:0:
58,278,32927,2,0,P|13:242|18:163,1,140,6|8,0:0|0:0,0:0:0:0:
126,139,33432,2,0,L|138:212,1,70,8|8,0:0|0:0,0:0:0:0:
212,266,33769,6,0,B|251:253|285:265|285:265|312:254|354:252,1,119.000002269745,6|0,0:0|0:0,0:0:0:0:
406,283,34275,1,0,0:0:0:0:
462,221,34444,2,0,P|488:171|477:101,1,119.000002269745,8|0,0:0|0:0,0:0:0:0:
370,155,34949,2,0,P|358:97|382:43,1,119.000002269745,2|2,0:0|0:0,0:0:0:0:
382,43,35455,2,0,L|259:72,2,119.000002269745,0|8|0,0:0|0:0|0:0,0:0:0:0:
196,35,36466,6,0,L|180:108,1,59.5000011348725,2|0,0:0|0:0,0:0:0:0:
113,139,36803,2,0,L|149:210,1,59.5000011348725,0|2,0:0|0:0,0:0:0:0:
189,259,37140,2,0,P|140:231|59:242,1,119.000002269745,8|2,0:0|0:0,0:0:0:0:
143,314,37646,2,0,L|273:283,1,119.000002269745,2|2,0:0|0:0,0:0:0:0:
323,234,38151,1,2,0:0:0:0:
329,363,38320,2,0,P|276:341|260:275,1,119.000002269745,2|2,0:0|0:0,0:0:0:0:
323,234,38826,2,0,L|345:175,2,59.5000011348725,0|0|2,0:0|0:0|0:0,0:0:0:0:
144,257,39500,5,0,0:0:0:0:
197,193,39668,1,2,0:0:0:0:
214,111,39837,2,0,P|198:82|172:64,1,59.5000011348725,8|0,0:0|0:0,0:0:0:0:
105,23,40174,1,0,0:0:0:0:
195,44,40342,2,0,L|313:22,1,119.000002269745,2|2,0:0|0:0,0:0:0:0:
390,99,40848,2,0,L|273:120,2,119.000002269745,2|8|0,0:0|0:0|0:0,0:0:0:0:
466,149,41691,5,0,0:0:0:0:
466,149,41859,2,0,P|442:213|453:284,1,119.000002269745,0|2,0:0|0:0,0:0:0:0:
290,342,42533,2,0,P|250:353|217:366,1,59.5000011348725,8|0,0:0|0:0,0:0:0:0:
152,332,42870,1,0,0:0:0:0:
202,247,43039,6,0,P|228:177|215:112,1,125.999996154785,6|8,0:0|0:0,0:0:0:0:
158,65,43545,1,8,0:0:0:0:
75,96,43713,1,8,0:0:0:0:
25,168,43882,2,0,L|10:212,2,31.4999990386963,8|8|8,0:0|0:0|0:0,0:0:0:0:
75,96,44219,1,12,0:0:0:0:
167,36,44388,5,8,0:0:0:0:
189,27,44472,1,8,0:0:0:0:
213,23,44556,2,0,P|283:33|341:76,1,140,6|8,0:0|0:0,0:0:0:0:
364,152,45061,1,0,0:0:0:0:
292,197,45230,2,0,P|282:237|290:277,1,70,2|2,0:0|0:0,0:0:0:0:
342,326,45567,1,8,0:0:0:0:
229,360,45736,6,0,B|176:375|136:349|136:349|90:377,1,140,2|0,0:0|0:0,0:0:0:0:
44,316,46241,2,0,P|68:256|40:171,1,140,8|2,0:0|0:0,0:0:0:0:
87,105,46747,1,0,0:0:0:0:
87,105,46915,2,0,L|170:131,1,70,8|0,0:0|0:0,0:0:0:0:
238,59,47253,6,0,P|302:70|379:29,1,140,4|8,0:0|0:0,0:0:0:0:
411,120,47758,2,0,P|394:158|395:199,1,70,0|2,0:0|0:0,0:0:0:0:
475,288,48095,2,0,P|492:250|491:209,1,70,0|8,0:0|0:0,0:0:0:0:
326,137,48432,6,0,P|326:214|369:272,1,140,4|2,0:0|0:0,0:0:0:0:
483,179,48938,2,0,P|483:102|440:44,1,140,8|2,0:0|0:0,0:0:0:0:
372,16,49444,1,0,0:0:0:0:
295,49,49612,1,8,0:0:0:0:
247,118,49781,6,0,B|203:144|152:109|106:131,1,140,4|2,0:0|0:0,0:0:0:0:
44,181,50286,2,0,L|21:257,1,70,8|0,0:0|0:0,0:0:0:0:
38,330,50623,2,0,P|95:339|164:283,1,140,2|8,0:0|0:0,0:0:0:0:
218,178,51129,6,0,P|276:152|349:165,1,140,4|2,0:0|0:0,0:0:0:0:
412,220,51635,2,0,P|449:210|484:201,1,70,8|0,0:0|0:0,0:0:0:0:
505,91,51972,2,0,P|472:99|436:107,1,70,0|2,0:0|0:0,0:0:0:0:
349,165,52309,2,0,P|334:131|341:83,1,70,8|0,0:0|0:0,0:0:0:0:
256,32,52646,6,0,P|186:22|113:70,1,140,4|8,0:0|0:0,0:0:0:0:
70,142,53151,2,0,P|140:152|213:104,1,140,0|2,0:0|0:0,0:0:0:0:
256,32,53657,1,8,0:0:0:0:
312,120,53826,6,0,P|373:152|442:142,1,140,4|2,0:0|0:0,0:0:0:0:
505,217,54331,2,0,L|490:303,1,70,8|0,0:0|0:0,0:0:0:0:
388,345,54668,2,0,L|375:276,1,70,2|0,0:0|0:0,0:0:0:0:
316,216,55005,1,8,0:0:0:0:
236,245,55174,6,0,P|170:255|92:220,1,140,4|8,0:0|0:0,0:0:0:0:
63,155,55679,1,8,0:0:0:0:
150,70,55848,2,0,P|230:51|298:37,1,140,4|8,0:0|0:0,0:0:0:0:
361,77,56354,1,8,0:0:0:0:
272,130,56522,6,0,P|226:179|225:265,1,140,6|8,0:0|0:0,0:0:0:0:
262,321,57028,1,8,0:0:0:0:
333,278,57196,1,8,0:0:0:0:
416,292,57365,1,2,0:0:0:0:
507,312,57533,1,2,0:0:0:0:
507,312,57618,1,2,0:0:0:0:
507,312,57702,2,0,L|488:226,1,70,12|2,0:0|0:0,0:0:0:0:
459,122,58039,6,0,B|371:136|371:136|353:162|345:191,1,140,6|8,0:0|0:0,0:0:0:0:
287,240,58545,1,0,0:0:0:0:
172,209,58713,2,0,P|128:172|130:85,1,140,2|8,0:0|0:0,0:0:0:0:
200,130,59219,1,0,0:0:0:0:
165,17,59387,6,0,P|105:17|32:85,1,140,2|8,0:0|0:0,0:0:0:0:
113,181,59893,2,0,P|175:219|259:218,1,140,2|2,0:0|0:0,0:0:0:0:
304,140,60399,2,0,P|276:180|270:219,1,70,8|0,0:0|0:0,0:0:0:0:
305,300,60736,5,2,0:0:0:0:
305,300,61073,2,0,P|341:311|374:315,1,70,8|0,0:0|0:0,0:0:0:0:
428,251,61410,2,0,L|412:174,1,70,2|0,0:0|0:0,0:0:0:0:
376,107,61747,1,8,0:0:0:0:
298,30,61915,6,0,P|234:19|163:51,1,140,4|2,0:0|0:0,0:0:0:0:
96,95,62421,2,0,P|82:137|84:175,1,70,8|0,0:0|0:0,0:0:0:0:
198,214,62758,2,0,P|212:172|210:134,1,70,2|0,0:0|0:0,0:0:0:0:
95,246,63095,1,8,0:0:0:0:
120,326,63264,1,0,0:0:0:0:
198,358,63432,6,0,B|251:330|301:343|301:343|335:318,1,140,6|8,0:0|0:0,0:0:0:0:
307,241,63938,2,0,P|287:177|317:101,1,140,0|2,0:0|0:0,0:0:0:0:
390,133,64444,1,8,0:0:0:0:
253,181,64612,6,0,P|182:209|93:188,1,140,4|0,0:0|0:0,0:0:0:0:
67,127,65118,2,0,P|107:113|143:115,1,70,8|0,0:0|0:0,0:0:0:0:
171,246,65455,2,0,P|141:227|119:200,1,70,2|0,0:0|0:0,0:0:0:0:
67,127,65792,1,8,0:0:0:0:
21,215,65960,1,0,0:0:0:0:
115,333,66129,6,0,B|140:239|140:239|115:192,1,140,4|8,0:0|0:0,0:0:0:0:
172,121,66635,2,0,L|188:45,1,70,4|0,0:0|0:0,0:0:0:0:
279,156,66972,2,0,L|293:224,1,70,2|8,0:0|0:0,0:0:0:0:
348,76,67309,6,0,P|424:55|505:36,1,140,4|2,0:0|0:0,0:0:0:0:
467,142,67814,2,0,P|433:155|392:179,1,70,8|4,0:0|0:0,0:0:0:0:
293,224,68151,2,0,L|301:275,3,35,8|8|8|8,0:0|0:0|0:0|0:0,0:0:0:0:
329,287,68488,2,0,L|321:338,3,35,8|8|8|8,0:0|0:0|0:0|0:0,0:0:0:0:
286,343,68826,6,0,P|217:338|157:283,1,140,6|8,0:0|0:0,0:0:0:0:
137,215,69331,1,0,0:0:0:0:
92,146,69500,2,0,P|149:189|226:178,1,140,2|8,0:0|0:0,0:0:0:0:
288,145,70005,1,0,0:0:0:0:
397,89,70174,6,0,B|383:186|383:186|346:225,1,140,2|8,0:0|0:0,0:0:0:0:
271,261,70679,2,0,P|311:249|339:249,1,70,2|0,0:0|0:0,0:0:0:0:
398,308,71017,2,0,P|438:320|466:320,2,70,2|8|0,0:0|0:0|0:0,0:0:0:0:
318,343,71522,5,2,0:0:0:0:
144,283,71859,2,0,P|151:248|162:209,1,70,8|0,0:0|0:0,0:0:0:0:
185,134,72196,2,0,P|244:113|333:132,1,140,2|8,0:0|0:0,0:0:0:0:
424,222,72702,6,0,P|355:234|289:212,1,140,4|0,0:0|0:0,0:0:0:0:
219,155,73208,2,0,P|199:194|198:237,1,70,8|0,0:0|0:0,0:0:0:0:
112,256,73545,2,0,P|135:292|172:315,1,70,0|8,0:0|0:0,0:0:0:0:
229,355,73882,2,0,L|297:338,1,70,4|2,0:0|0:0,0:0:0:0:
426,375,74219,6,0,P|366:341|297:338,1,140,4|8,0:0|0:0,0:0:0:0:
227,265,74724,2,0,P|296:261|356:227,1,140,0|2,0:0|0:0,0:0:0:0:
406,158,75230,1,8,0:0:0:0:
333,47,75399,6,0,B|312:90|330:130|330:130|303:153|266:141,1,140,4|0,0:0|0:0,0:0:0:0:
195,109,75904,2,0,P|141:77|64:89,2,140,8|2|8,0:0|0:0|0:0,0:0:0:0:
320,240,76915,6,0,L|388:263,1,70,4|0,0:0|0:0,0:0:0:0:
192,240,77253,2,0,L|124:263,1,70,8|2,0:0|0:0,0:0:0:0:
312,316,77590,2,0,P|342:349|351:379,1,70,8|2,0:0|0:0,0:0:0:0:
199,316,77927,2,0,P|169:349|160:379,1,70,8|0,0:0|0:0,0:0:0:0:
256,240,78264,6,0,L|256:96,1,140,4|8,0:0|0:0,0:0:0:0:
189,48,78769,2,0,P|253:64|331:46,1,140,4|8,0:0|0:0,0:0:0:0:
351,41,79191,1,8,0:0:0:0:
378,38,79275,2,0,L|401:89,3,35,8|8|8|8,0:0|0:0|0:0|0:0,0:0:0:0:
410,99,79612,6,0,P|453:154|463:238,1,140,6|8,0:0|0:0,0:0:0:0:
407,283,80118,1,0,0:0:0:0:
328,254,80286,2,0,P|270:243|189:282,1,140,2|8,0:0|0:0,0:0:0:0:
140,335,80792,6,0,L|170:194,1,140,2|2,0:0|0:0,0:0:0:0:
224,135,81297,1,8,0:0:0:0:
91,93,81466,2,0,L|61:229,1,140,2|2,0:0|0:0,0:0:0:0:
16,301,81972,1,8,0:0:0:0:
176,351,82309,6,0,P|235:316|318:309,1,140,4|8,0:0|0:0,0:0:0:0:
374,260,82814,1,0,0:0:0:0:
304,212,82983,2,0,P|293:177|303:137,1,70,2|2,0:0|0:0,0:0:0:0:
325,55,83320,1,8,0:0:0:0:
387,115,83488,6,0,L|253:154,1,140,4|2,0:0|0:0,0:0:0:0:
185,101,83994,1,8,0:0:0:0:
291,234,84163,2,0,P|241:241|165:180,1,140,4|8,0:0|0:0,0:0:0:0:
185,101,84668,1,8,0:0:0:0:
252,154,84837,1,0,0:0:0:0:
136,271,85005,6,0,P|98:230|109:145,1,140,6|8,0:0|0:0,0:0:0:0:
141,74,85511,1,0,0:0:0:0:
141,74,85679,2,0,P|208:87|303:97,1,140,2|8,0:0|0:0,0:0:0:0:
367,251,86354,6,0,P|299:237|208:226,2,140,2|8|0,0:0|0:0|0:0,0:0:0:0:
439,293,87196,1,0,0:0:0:0:
486,223,87365,2,0,P|476:182|465:149,1,70,8|0,0:0|0:0,0:0:0:0:
375,84,87702,6,0,P|364:117|356:151,1,70,4|0,0:0|0:0,0:0:0:0:
267,95,88039,2,0,P|258:60|248:27,1,70,8|2,0:0|0:0,0:0:0:0:
200,160,88376,2,0,P|233:170|267:178,1,70,8|0,0:0|0:0,0:0:0:0:
404,233,88713,2,0,P|369:241|336:251,1,70,8|0,0:0|0:0,0:0:0:0:
221,280,89050,6,0,B|253:239|232:190|232:190|198:158,1,140,6|8,0:0|0:0,0:0:0:0:
117,144,89556,1,8,0:0:0:0:
256,48,89893,1,2,0:0:0:0:
272,34,89977,1,0,0:0:0:0:
288,20,90061,1,4,0:0:0:0:
375,37,90230,1,0,0:0:0:0:
401,121,90399,6,0,B|425:198|425:198|409:232|418:265,1,140,6|8,0:0|0:0,0:0:0:0:
349,306,90904,2,0,P|282:289|187:278,1,140,2|2,0:0|0:0,0:0:0:0:
132,250,91410,1,8,0:0:0:0:
193,193,91578,6,0,P|226:142|209:54,1,140,2|0,0:0|0:0,0:0:0:0:
216,66,92084,2,0,P|263:89|310:88,1,70,8|2,0:0|0:0,0:0:0:0:
361,68,92421,1,2,0:0:0:0:
420,128,92590,1,2,0:0:0:0:
361,68,92758,1,8,0:0:0:0:
325,237,93095,6,0,P|261:229|185:267,1,140,2|8,0:0|0:0,0:0:0:0:
112,280,93601,2,0,P|100:319|102:363,1,70
55,216,93938,2,0,P|66:182|67:148,1,70,2|8,0:0|0:0,0:0:0:0:
122,84,94275,6,0,P|184:113|253:105,1,140,4|0,0:0|0:0,0:0:0:0:
325,62,94781,1,8,0:0:0:0:
385,147,94949,1,8,0:0:0:0:
385,147,95033,1,8,0:0:0:0:
385,147,95118,2,0,L|373:220,1,70,8|2,0:0|0:0,0:0:0:0:
245,200,95455,2,0,L|257:273,1,70,8|2,0:0|0:0,0:0:0:0:
209,338,95792,6,0,P|175:345|128:346,1,70,6|2,0:0|0:0,0:0:0:0:
64,309,96129,1,8,0:0:0:0:
127,229,96297,2,0,P|115:155|104:90,1,140,12|2,0:0|0:0,0:0:0:0:
28,53,96803,1,8,0:0:0:0:
180,9,96972,6,0,P|191:78|202:147,1,140,4|2,0:0|0:0,0:0:0:0:
220,229,97477,1,8,0:0:0:0:
302,212,97646,1,8,0:0:0:0:
374,253,97814,2,0,P|410:303|407:357,2,105,8|8|8,0:0|0:0|0:0,0:0:0:0:
290,293,98488,6,0,L|216:318,1,70,8|8,0:0|0:0,0:0:0:0:
259,192,98826,2,0,L|325:169,1,70,8|8,0:0|0:0,0:0:0:0:
438,192,99163,1,8,0:0:0:0:
386,122,99331,1,8,0:0:0:0:
500,63,99500,1,8,0:0:0:0:
417,48,99668,1,8,0:0:0:0:
509,146,99837,5,6,0:0:0:0:
256,32,100511,1,8,0:0:0:0:
171,72,100679,1,8,0:0:0:0:
321,273,101017,1,4,0:0:0:0:
256,192,101101,12,0,105146,0:0:0:0:
