osu file format v14

[General]
AudioFilename: audio.mp3
AudioLeadIn: 0
PreviewTime: 56948
Countdown: 0
SampleSet: Soft
StackLeniency: 0.7
Mode: 2
LetterboxInBreaks: 0
WidescreenStoryboard: 1

[Editor]
DistanceSpacing: 0.8
BeatDivisor: 4
GridSize: 8
TimelineZoom: 1.9

[Metadata]
Title:Crying Heart
TitleUnicode:クライングハート
Artist:Iris December Uncry (CV: Hanazono Mei), Noel the Nextseason (CV: Ameba Tsukasa)
ArtistUnicode:アイリス・ディセンバー・アンクライ (CV: 花園めい)、ノエル・ザ・ネクストシーズン (CV: 雨場つかさ)
Creator:bigh
Version:Salad
Source:ノラと皇女と野良猫ハート2 -Nora, Princess, and Crying Cat.-
Tags:japanese pop jpop j-pop video game opening op eroge visual novel vn Nora to Oujo to Noraneko Heart 2 two noratoto2 ノラとと2 The Princess, the Stray Cat, and Matters of the Heart 2 HARUKAZE rew0825 -luminate kukkai [_-kukkai-_] bighzonda
BeatmapID:3828580
BeatmapSetID:1862049

[Difficulty]
HPDrainRate:3
CircleSize:3
OverallDifficulty:7
ApproachRate:7
SliderMultiplier:1.45
SliderTickRate:0.5

[Events]
//Background and Video events
0,0,"egg23.jpg",0,0
//Break Periods
//Storyboard Layer 0 (Background)
//Storyboard Layer 1 (Fail)
//Storyboard Layer 2 (Pass)
//Storyboard Layer 3 (Foreground)
//Storyboard Layer 4 (Overlay)
//Storyboard Sound Samples

[TimingPoints]
488,337.078651685393,4,2,1,70,1,0
993,337.078651685393,4,2,1,70,1,0
6386,-100,4,2,1,80,0,0
33352,-100,4,2,1,65,0,0
42622,-100,4,2,1,70,0,0
44139,-100,4,2,1,80,0,0
56105,-100,4,2,1,85,0,0
57622,337.078651685393,4,2,1,70,1,0
57622,-100,4,2,1,90,0,1
89981,-100,4,2,1,80,0,0
100768,-100,4,2,1,70,0,0
101442,-100,4,2,1,65,0,0
102116,-100,4,2,1,60,0,0
102791,-100,4,2,1,55,0,0
103465,-100,4,2,1,50,0,0
104139,-100,4,2,1,45,0,0
104813,-100,4,2,1,40,0,0

[Colours]
Combo1 : 180,11,204
Combo2 : 255,255,15
Combo3 : 255,81,168

[HitObjects]
169,164,488,6,0,L|74:168,2,72.5,0|0|0,0:0|0:0|0:0,0:0:0:0:
352,273,992,6,0,P|398:254|338:120,1,217.5,2|0,0:0|0:0,0:0:0:0:
220,114,1835,1,0,0:0:0:0:
364,306,2172,6,0,L|405:10,1,290,2|2,0:0|0:0,0:0:0:0:
330,18,3014,1,0,0:0:0:0:
257,19,3183,1,0,0:0:0:0:
330,18,3351,1,0,0:0:0:0:
183,217,3688,6,0,P|113:198|166:89,1,217.5,2|0,0:0|0:0,0:0:0:0:
301,78,4531,1,0,0:0:0:0:
154,300,4868,2,0,L|114:13,1,290,2|8,0:0|0:0,0:0:0:0:
187,10,5711,1,8,0:1:0:0:
260,24,5879,1,8,0:3:0:0:
333,28,6048,1,8,0:0:0:0:
372,25,6217,1,8,0:0:0:0:
194,202,6385,6,0,P|138:196|171:120,1,145,6|8,0:0|0:0,0:0:0:0:
223,68,6891,2,0,L|60:65,1,145,12|8,0:1|0:0,0:0:0:0:
150,66,7396,1,8,0:1:0:0:
224,232,7565,6,0,P|325:223|356:49,1,290,12|8,0:0|0:0,0:0:0:0:
292,56,8408,1,8,0:1:0:0:
184,50,8660,1,8,0:3:0:0:
95,43,8913,1,8,0:1:0:0:
277,194,9082,6,0,L|438:146,1,145,12|8,0:0|0:0,0:0:0:0:
434,85,9587,1,8,0:0:0:0:
397,38,9756,1,8,0:0:0:0:
343,37,9924,1,8,0:0:0:0:
269,44,10093,1,8,0:0:0:0:
179,60,10261,1,8,0:0:0:0:
361,266,10430,6,0,B|414:257|414:257|464:255|517:223|517:223|435:189|435:189|399:122|399:122|362:115,1,362.5,12|8,0:0|0:0,0:0:0:0:
438,106,11441,1,12,0:0:0:0:
162,211,11778,6,0,P|91:178|142:131,1,145,10|8,0:0|0:1,0:0:0:0:
259,228,12452,2,0,L|271:57,1,145,8|8,0:0|0:1,0:0:0:0:
193,230,12958,6,0,P|148:173|231:53,1,217.5,2|8,0:0|0:1,0:0:0:0:
356,56,13801,2,0,L|177:46,1,145,10|8,0:0|0:1,0:0:0:0:
357,229,14475,5,10,0:0:0:0:
357,229,14812,2,0,L|116:216,1,217.5,8|2,0:1|0:0,0:0:0:0:
139,217,15486,1,8,0:1:0:0:
139,217,15655,6,0,L|370:204,1,217.5,2|8,0:0|0:1,0:0:0:0:
211,159,16497,1,8,0:0:0:0:
66,121,16835,1,8,0:1:0:0:
339,259,17172,6,0,P|419:243|390:128,1,217.5,10|2,0:0|0:0,0:0:0:0:
254,120,18014,1,2,0:0:0:0:
181,119,18183,1,8,0:1:0:0:
142,152,18351,6,0,L|374:169,1,217.5,2|8,0:0|0:1,0:0:0:0:
370,169,19026,2,0,L|382:10,1,145,2|2,0:0|0:0,0:0:0:0:
308,19,19531,1,8,0:1:0:0:
161,253,19868,6,0,P|115:196|183:165,1,145,8|8,0:0|0:1,0:0:0:0:
306,128,20542,2,0,P|253:70|175:70,1,145,8|8,0:0|0:1,0:0:0:0:
444,216,21217,5,10,0:0:0:0:
298,217,21554,1,8,0:1:0:0:
226,209,21722,2,0,L|74:193,1,145,10|8,0:0|0:0,0:0:0:0:
9,174,22228,1,8,0:1:0:0:
81,193,22396,1,8,0:1:0:0:
237,226,22565,6,0,L|399:212,2,145,12|8|10,0:0|0:1|0:0,0:0:0:0:
92,229,23576,1,8,0:1:0:0:
74,167,23745,6,0,L|306:143,1,217.5,2|8,0:0|0:1,0:0:0:0:
435,209,24587,2,0,P|399:159|309:143,1,145,8|8,0:0|0:1,0:0:0:0:
176,241,25261,5,10,0:0:0:0:
176,241,25598,2,0,L|417:228,1,217.5,8|2,0:1|0:0,0:0:0:0:
394,229,26272,1,8,0:1:0:0:
394,229,26441,6,0,L|163:216,1,217.5,10|8,0:0|0:1,0:0:0:0:
319,148,27284,1,8,0:0:0:0:
464,118,27621,1,8,0:1:0:0:
189,254,27958,6,0,P|146:218|234:119,1,217.5,10|2,0:0|0:0,0:0:0:0:
371,125,28801,1,2,0:0:0:0:
443,125,28969,1,8,0:1:0:0:
479,132,29138,6,0,B|429:76|429:76|272:68,1,217.5,10|8,0:0|0:1,0:0:0:0:
275,64,29812,2,0,L|264:208,1,145,2|10,0:0|0:0,0:0:0:0:
337,220,30318,1,8,0:1:0:0:
265,217,30486,1,2,0:0:0:0:
84,244,30655,6,0,P|48:209|120:142,1,145,6|8,0:0|0:1,0:0:0:0:
232,120,31329,2,0,L|79:97,1,145,10|8,0:0|0:1,0:0:0:0:
361,213,32003,6,0,L|449:196,2,72.5,4|2|8,0:0|0:0|0:1,0:0:0:0:
288,225,32509,2,0,P|230:202|241:113,1,145,4|8,0:0|0:1,0:0:0:0:
274,104,33014,1,8,0:3:0:0:
347,104,33183,1,4,0:3:0:0:
167,241,33351,6,0,L|19:223,1,145,4|8,0:0|0:0,0:0:0:0:
168,161,34026,6,0,L|391:149,2,217.5,8|2|8,0:1|0:0|0:0,0:0:0:0:
23,156,35374,1,8,0:1:0:0:
168,112,35711,1,10,0:0:0:0:
312,86,36048,6,0,P|376:101|307:197,1,217.5,8|0,0:0|0:0,0:0:0:0:
252,203,36722,1,8,0:1:0:0:
108,202,37059,1,8,0:0:0:0:
108,202,37228,6,0,P|225:178|266:75,1,217.5,2|8,0:0|0:0,0:0:0:0:
121,259,38070,2,0,L|109:101,1,145,8|8,0:1|0:0,0:0:0:0:
255,62,38745,6,0,L|418:54,1,145,10|0,0:0|0:0,0:0:0:0:
326,59,39250,1,8,0:0:0:0:
254,63,39419,1,8,0:1:0:0:
109,68,39756,1,8,0:0:0:0:
180,69,39924,6,0,L|431:64,1,217.5,2|8,0:0|0:0,0:0:0:0:
253,52,40767,1,8,0:1:0:0:
253,52,41104,1,10,0:0:0:0:
253,52,41273,1,8,0:0:0:0:
328,147,41441,6,0,L|491:143,1,145,8|8,0:0|0:0,0:0:0:0:
328,146,42115,1,8,0:1:0:0:
254,144,42284,1,0,0:0:0:0:
217,77,42452,1,10,0:0:0:0:
399,223,42621,6,0,P|433:204|403:109,1,145,4|8,0:0|0:1,0:0:0:0:
343,99,43127,1,8,0:1:0:0:
271,90,43295,1,8,0:0:0:0:
198,77,43464,1,8,0:1:0:0:
271,90,43632,1,8,0:0:0:0:
343,99,43801,1,8,0:1:0:0:
67,260,44138,6,0,P|63:188|83:105,1,145,12|8,0:0|0:1,0:0:0:0:
224,91,44812,2,0,L|393:84,1,145,8|8,0:0|0:1,0:0:0:0:
297,183,45318,6,0,L|73:161,1,217.5,10|8,0:0|0:1,0:0:0:0:
153,137,45992,1,0,0:0:0:0:
225,125,46160,2,0,P|221:77|136:28,1,145,8|8,0:0|0:1,0:0:0:0:
408,288,46835,6,0,L|415:115,1,145,14|8,0:0|0:1,0:0:0:0:
270,97,47509,2,0,L|113:89,1,145,8|8,0:0|0:1,0:0:0:0:
197,166,48014,6,0,L|359:162,1,145,6|8,0:0|0:0,0:0:0:0:
269,164,48520,1,8,0:1:0:0:
197,168,48688,1,8,0:0:0:0:
142,122,48857,2,0,B|94:65|94:65|143:122,1,145,10|8,0:0|0:1,0:0:0:0:
322,116,49363,6,0,B|462:105|462:105|412:109|360:80,1,217.5,6|8,0:0|0:1,0:0:0:0:
313,78,50037,1,8,0:0:0:0:
242,72,50205,2,0,L|415:56,1,145,10|8,0:0|0:1,0:0:0:0:
314,189,50711,6,0,B|174:178|174:178|224:182|276:153,1,217.5,6|8,0:0|0:1,0:0:0:0:
322,100,51385,2,0,B|345:79|395:74|395:74|257:80,1,217.5,2|8,0:0|0:1,0:0:0:0:
220,81,52059,1,2,0:0:0:0:
401,229,52228,6,0,P|432:206|372:115,1,145,6|8,0:0|0:1,0:0:0:0:
333,169,52733,2,0,P|302:146|362:55,1,145,10|10,0:0|0:0,0:0:0:0:
402,51,53239,1,8,0:1:0:0:
329,58,53408,6,0,L|153:56,1,145,6|8,0:0|0:0,0:0:0:0:
112,52,53913,1,8,0:1:0:0:
257,221,54250,2,0,L|295:64,1,145,10|8,0:0|0:1,0:0:0:0:
109,190,54756,6,0,P|55:161|41:69,1,145,12|8,0:0|0:0,0:0:0:0:
108,58,55261,1,8,0:1:0:0:
35,83,55430,1,6,0:0:0:0:
34,156,55599,1,8,3:2:0:0:
78,198,55767,1,0,3:2:0:0:
151,202,55936,1,8,3:1:0:0:
332,207,56104,6,0,P|355:158|289:95,1,145,6|14,0:0|0:0,0:0:0:0:
213,115,56610,1,8,0:1:0:0:
301,95,56778,1,4,0:0:0:0:
332,36,57115,1,8,0:0:0:0:
259,33,57284,2,0,L|166:35,1,72.5,8|0,0:1|0:0,0:0:0:0:
368,225,57621,6,0,L|381:64,1,145,12|8,0:0|0:1,0:0:0:0:
220,220,58295,2,0,L|207:59,1,145,10|8,0:0|0:1,0:0:0:0:
288,80,58801,1,8,0:0:0:0:
368,82,58969,6,0,L|514:67,1,145,10|8,0:0|0:1,0:0:0:0:
432,77,59475,1,2,0:0:0:0:
281,83,59812,1,2,0:0:0:0:
201,88,59981,1,8,0:1:0:0:
471,272,60318,6,0,P|510:219|446:150,1,145,10|8,0:0|0:1,0:0:0:0:
396,142,60823,1,8,0:0:0:0:
316,134,60992,2,0,L|144:126,1,145,10|8,0:0|0:1,0:0:0:0:
251,95,61497,5,2,0:0:0:0:
411,88,61835,1,8,0:0:0:0:
389,49,62003,2,0,L|216:45,1,145,8|0,0:1|0:0,0:0:0:0:
221,82,62509,1,8,0:0:0:0:
302,87,62677,1,8,0:1:0:0:
41,195,63014,6,0,P|30:135|102:64,1,145,6|8,0:0|0:1,0:0:0:0:
160,279,63520,2,0,P|171:219|99:148,1,145,10|2,0:0|0:0,0:0:0:0:
42,78,64026,1,8,0:1:0:0:
123,70,64194,6,0,L|295:64,1,145,10|8,0:0|0:0,0:0:0:0:
348,64,64700,1,8,0:1:0:0:
81,228,65037,2,0,L|73:67,1,145,10|8,0:0|0:1,0:0:0:0:
147,73,65542,1,8,0:3:0:0:
330,232,65711,6,0,P|387:212|385:119,1,145,4|8,0:0|0:1,0:0:0:0:
318,107,66217,2,0,L|485:97,1,145,10|10,0:0|0:0,0:0:0:0:
384,101,66722,1,8,0:1:0:0:
202,241,66891,6,0,P|141:202|154:120,1,145,10|10,0:0|0:0,0:0:0:0:
222,107,67396,1,8,0:1:0:0:
405,198,67565,1,14,0:0:0:0:
444,136,67733,1,8,0:1:0:0:
404,73,67902,1,8,0:0:0:0:
324,63,68070,1,8,0:1:0:0:
405,59,68239,1,8,0:3:0:0:
222,250,68408,6,0,L|209:89,1,145,14|8,0:0|0:1,0:0:0:0:
370,245,69082,2,0,L|383:84,1,145,10|8,0:0|0:1,0:0:0:0:
302,105,69588,1,8,0:0:0:0:
222,107,69756,6,0,L|76:92,1,145,10|8,0:0|0:1,0:0:0:0:
158,102,70262,1,10,0:0:0:0:
309,108,70599,1,10,0:0:0:0:
389,113,70768,1,8,0:1:0:0:
126,284,71104,6,0,L|110:135,1,145,10|8,0:0|0:1,0:0:0:0:
191,128,71610,1,8,0:0:0:0:
110,139,71778,2,0,P|110:87|198:41,1,145,10|8,0:0|0:1,0:0:0:0:
364,36,72284,6,0,P|430:72|345:161,1,217.5,14|8,0:0|0:1,0:0:0:0:
286,165,72958,1,4,0:0:0:0:
206,163,73127,1,8,0:0:0:0:
322,114,73464,1,8,0:1:0:0:
286,165,73632,1,0,0:0:0:0:
104,221,73801,6,0,L|94:59,1,145,12|8,0:0|0:1,0:0:0:0:
174,66,74306,2,0,L|341:59,1,145,10|10,0:0|0:0,0:0:0:0:
61,222,74981,6,0,B|48:186|48:186|60:155|60:155|69:185|69:185|195:183,1,217.5,4|8,0:0|0:1,0:0:0:0:
345,96,75823,2,0,L|172:82,1,145,8|8,0:0|0:1,0:0:0:0:
464,253,76497,6,0,L|449:96,1,145,14|8,0:1|0:1,0:0:0:0:
305,205,77172,2,0,L|290:48,1,145,8|8,0:1|0:1,0:0:0:0:
30,215,77846,5,12,0:1:0:0:
43,151,78014,1,10,0:0:0:0:
97,100,78183,1,8,0:1:0:0:
177,81,78351,2,0,L|33:66,1,145,12|8,0:0|0:1,0:0:0:0:
32,65,78857,1,8,0:0:0:0:
106,106,79026,1,4,0:3:0:0:
287,263,79194,6,0,L|439:253,1,145,14|8,0:0|0:1,0:0:0:0:
512,210,79700,1,8,0:0:0:0:
432,163,79868,2,0,L|260:148,1,145,10|8,0:0|0:1,0:0:0:0:
206,144,80374,6,0,L|193:-11,1,145,10|10,0:0|0:0,0:0:0:0:
353,217,81048,2,0,L|366:62,1,145,10|0,0:0|0:0,0:0:0:0:
286,62,81554,1,8,0:1:0:0:
127,182,81891,6,0,L|120:33,1,145,10|8,0:0|0:1,0:0:0:0:
200,31,82396,1,8,0:0:0:0:
280,31,82565,2,0,L|287:180,1,145,10|8,0:0|0:1,0:0:0:0:
104,219,83070,6,0,P|57:188|111:106,1,145,12|8,0:0|0:0,0:0:0:0:
160,101,83576,1,8,0:1:0:0:
243,97,83745,1,12,0:0:0:0:
388,97,84082,1,8,0:0:0:0:
467,77,84250,1,8,0:1:0:0:
431,38,84419,1,2,0:0:0:0:
249,38,84587,6,0,L|105:55,1,145,12|8,0:0|0:1,0:0:0:0:
250,131,85261,2,0,L|394:148,1,145,8|8,0:0|0:1,0:0:0:0:
246,249,85936,6,0,L|235:92,1,145,10|8,0:0|0:1,0:0:0:0:
89,213,86610,2,0,L|78:56,1,145,10|8,0:0|0:1,0:0:0:0:
357,210,87284,5,14,0:0:0:0:
502,142,87621,1,8,0:1:0:0:
357,67,87958,1,8,0:1:0:0:
206,112,88295,1,8,0:1:0:0:
170,193,88463,1,8,0:0:0:0:
352,225,88632,6,0,P|416:217|416:128,1,145,14|8,0:0|0:1,0:0:0:0:
350,129,89138,1,8,0:0:0:0:
206,112,89475,1,8,0:0:0:0:
250,57,89643,1,12,0:1:0:0:
331,57,89812,1,10,0:0:0:0:
147,275,89981,6,0,P|101:256|87:152,1,145,6|8,0:0|0:1,0:0:0:0:
132,123,90486,1,10,0:0:0:0:
279,116,90824,1,10,0:0:0:0:
135,308,91161,6,0,L|104:84,1,217.5,2|8,0:0|0:1,0:0:0:0:
95,20,91835,1,0,0:0:0:0:
169,20,92003,1,10,0:0:0:0:
242,21,92172,1,10,0:0:0:0:
169,20,92340,1,8,0:1:0:0:
315,241,92677,6,0,P|361:222|375:118,1,145,10|8,0:0|0:1,0:0:0:0:
330,89,93184,1,2,0:0:0:0:
184,78,93520,1,2,0:0:0:0:
437,328,93857,6,0,L|469:106,1,217.5,10|8,0:0|0:1,0:0:0:0:
477,40,94531,1,2,0:0:0:0:
404,13,94700,1,10,0:0:0:0:
295,92,95037,1,12,0:1:0:0:
369,97,95206,1,8,0:0:0:0:
188,230,95374,6,0,L|41:213,1,145,12|8,0:0|0:1,0:0:0:0:
117,152,95879,2,0,L|264:135,1,145,14|8,0:0|0:0,0:0:0:0:
333,125,96385,1,8,0:1:0:0:
150,247,96554,6,0,P|131:202|178:104,1,145,14|0,0:0|0:0,0:0:0:0:
235,91,97059,1,8,0:1:0:0:
162,76,97228,1,8,0:0:0:0:
90,59,97396,1,10,0:0:0:0:
53,57,97565,1,8,0:0:0:0:
90,59,97733,1,12,0:1:0:0:
343,286,98070,5,12,0:0:0:0:
417,169,98407,1,8,0:0:0:0:
398,100,98577,1,8,0:0:0:0:
346,52,98744,1,8,0:0:0:0:
275,38,98914,1,8,0:0:0:0:
208,63,99081,1,8,0:0:0:0:
165,119,99251,1,8,0:0:0:0:
348,151,99419,6,0,B|469:164|469:164|347:164|345:283,1,290,14|8,0:0|0:1,0:0:0:0:
420,272,100261,1,8,0:1:0:0:
142,250,100599,5,12,0:0:0:0:
256,192,100936,12,0,104812,0:0:0:0:
