osu file format v14

[General]
AudioFilename: audio.mp3
AudioLeadIn: 0
PreviewTime: 202606
Countdown: 0
SampleSet: Soft
StackLeniency: 0.5
Mode: 0
LetterboxInBreaks: 0
WidescreenStoryboard: 0

[Editor]
Bookmarks: 11819,57662,90021,100808,146650,179010,203280,210695,246257,250471
DistanceSpacing: 0.6
BeatDivisor: 4
GridSize: 8
TimelineZoom: 1.6

[Metadata]
Title:Crying Heart
TitleUnicode:クライングハート
Artist:Iris December Uncry (CV: Hanazono Mei), Noel the Nextseason (CV: Ameba Tsukasa)
ArtistUnicode:アイリス・ディセンバー・アンクライ (CV: 花園めい)、ノエル・ザ・ネクストシーズン (CV: 雨場つかさ)
Creator:Primonix
Version:Asa's Insane
Source:ノラと皇女と野良猫ハート2 -Nora, Princess, and Crying Cat.-
Tags:japanese pop jpop j-pop video game nora to oujo to noraneko heart 2 noratoto2 ノラとと2 The Princess, the Stray Cat, and Matters of the Heart 2 HARUKAZE opening eroge visual novel Satellite Kazato_Asa Shizuku- Kazato Asa Shikibe_Mayu Shikibe Mayu
BeatmapID:2787180
BeatmapSetID:1345858

[Difficulty]
HPDrainRate:6
CircleSize:4
OverallDifficulty:8
ApproachRate:9
SliderMultiplier:1.5
SliderTickRate:1

[Events]
//Background and Video events
0,0,"EV_011_06_1G.jpg",0,0
//Break Periods
2,203435,210050
//Storyboard Layer 0 (Background)
//Storyboard Layer 1 (Fail)
//Storyboard Layer 2 (Pass)
//Storyboard Layer 3 (Foreground)
//Storyboard Layer 4 (Overlay)
//Storyboard Sound Samples

[TimingPoints]
988,337.078651685393,4,2,24,50,1,0
988,-100,4,2,24,50,0,0
6381,-100,4,2,24,70,0,0
7561,-76.9230769230769,4,2,24,70,0,0
8403,-90.9090909090909,4,2,24,60,0,0
11774,-111.111111111111,4,2,24,60,0,0
31999,-100,4,2,24,60,0,0
33347,-111.111111111111,4,2,24,60,0,0
42617,-83.3333333333333,4,2,24,60,0,0
43122,-100,4,2,24,60,0,0
44134,-100,4,2,24,70,0,0
54752,-76.9230769230769,4,2,24,70,0,0
55426,-90.9090909090909,4,2,24,70,0,0
56100,-66.6666666666667,4,2,24,70,0,0
57280,-125,4,2,24,70,0,0
57617,-83.3333333333333,4,2,24,80,0,0
89976,-100,4,2,24,70,0,0
99414,-142.857142857143,4,2,24,70,0,0
100763,-111.111111111111,4,2,24,60,0,0
131605,-83.3333333333333,4,2,24,60,0,0
132111,-100,4,2,24,60,0,0
133122,-100,4,2,24,70,0,0
145089,-66.6666666666667,4,2,24,70,0,0
146268,-125,4,2,24,70,0,0
146605,-83.3333333333333,4,2,24,70,0,0
178965,-83.3333333333333,4,2,24,80,0,1
201718,-83.3333333333333,4,2,24,60,0,0
210650,-100,4,2,24,60,0,0
211325,-83.3333333333333,4,2,24,80,0,0
235594,-100,4,2,24,70,0,0
245032,-125,4,2,24,70,0,0
246212,-125,4,2,24,70,0,0
250426,-125,4,2,24,5,0,0

[Colours]
Combo1 : 239,203,135
Combo2 : 153,234,149
Combo3 : 119,202,219
Combo4 : 227,149,125

[HitObjects]
432,320,482,5,2,0:0:0:0:
448,240,651,1,2,0:0:0:0:
368,224,819,1,2,0:0:0:0:
352,304,988,6,0,B|256:296|312:328|204:320,1,150,2|2,0:0|0:0,0:0:0:0:
128,368,1493,2,0,P|92:357|54:357,1,75,2|0,0:0|0:0,0:0:0:0:
63,263,1830,2,0,P|98:273|136:273,1,75,2|0,0:0|0:0,0:0:0:0:
160,136,2167,6,0,P|96:152|13:165,1,150,2|0,0:0|0:0,0:0:0:0:
13,164,2841,5,2,0:0:0:0:
88,144,3010,1,2,0:0:0:0:
152,176,3179,1,2,0:0:0:0:
223,160,3347,2,0,P|230:123|232:85,1,75,2|0,0:0|0:0,0:0:0:0:
232,85,3600,1,2,0:0:0:0:
232,85,3684,1,2,0:0:0:0:
432,224,4021,5,2,0:0:0:0:
488,148,4190,2,0,P|450:148|414:138,1,75,2|0,0:0|0:0,0:0:0:0:
375,299,4527,2,0,P|412:298|448:308,1,75,2|0,0:0|0:0,0:0:0:0:
302,202,4864,2,0,P|228:217|155:233,1,150,2|0,0:0|0:0,0:0:0:0:
155,233,5538,5,10,0:1:0:0:
165,206,5622,1,10,0:1:0:0:
162,175,5707,1,10,0:2:0:0:
101,118,5875,1,8,0:1:0:0:
235,134,6044,2,0,P|271:127|308:119,1,75,8|8,0:0|0:1,0:0:0:0:
445,216,6381,6,0,P|477:198|504:172,1,75,12|8,0:1|0:1,0:0:0:0:
504,172,6718,1,8,0:0:0:0:
378,351,6886,6,0,P|352:280|346:206,1,150,14|10,0:1|0:1,0:0:0:0:
346,206,7392,1,10,0:2:0:0:
453,303,7561,6,0,B|351:293|394:374|275:359,1,194.999991073609,12|0,0:1|0:0,0:0:0:0:
96,304,8235,1,10,0:1:0:0:
96,304,8319,1,8,0:1:0:0:
96,304,8403,2,0,B|112:248|111:181,2,123.75000377655,10|8|4,0:0|0:3|0:3,0:0:0:0:
32,360,9077,5,12,0:1:0:0:
16,280,9246,1,8,0:0:0:0:
160,248,9414,1,8,0:0:0:0:
176,328,9583,1,8,0:0:0:0:
80,216,9752,5,8,0:0:0:0:
104,80,9920,1,8,0:0:0:0:
272,104,10089,1,8,0:0:0:0:
248,240,10257,1,8,0:0:0:0:
176,160,10426,5,12,0:1:0:0:
176,160,11268,2,0,L|170:119,1,41.2500012588501,8|8,0:1|0:1,0:0:0:0:
56,152,11437,2,0,B|88:184|94:223,1,82.5000025177003,12|0,0:0|0:0,0:0:0:0:
176,328,11774,6,0,B|104:336|48:296,2,134.999995880127,12|8|10,0:1|0:0|0:1,0:0:0:0:
255,272,12617,2,0,P|289:278|322:284,1,67.4999979400635,8|8,0:1|0:0,0:0:0:0:
415,343,12954,6,0,P|349:359|285:380,1,134.999995880127,10|8,0:1|0:1,0:0:0:0:
286,381,13459,1,10,0:0:0:0:
181,248,13628,5,8,0:1:0:0:
181,248,13712,1,8,0:1:0:0:
181,248,13796,2,0,P|184:214|189:181,1,67.4999979400635,10|8,0:1|0:1,0:0:0:0:
100,67,14134,2,0,P|103:100|108:133,1,67.4999979400635,10|0,0:0|0:0,0:0:0:0:
8,240,14471,6,0,B|40:224|72:224,1,67.4999979400635,10|0,0:1|0:0,0:0:0:0:
192,104,14808,2,0,B|248:152|317:136,1,134.999995880127,10|8,0:0|0:1,0:0:0:0:
424,168,15313,2,0,L|435:101,1,67.4999979400635,10|8,0:1|0:0,0:0:0:0:
512,287,15650,6,0,P|445:296|380:315,1,134.999995880127,10|8,0:1|0:1,0:0:0:0:
312,272,16156,1,8,0:0:0:0:
192,368,16325,5,8,0:1:0:0:
192,368,16409,1,8,0:1:0:0:
192,368,16493,2,0,B|160:360|125:360,1,67.4999979400635,10|8,0:1|0:1,0:0:0:0:
312,272,16830,2,0,B|280:280|245:279,1,67.4999979400635,10|8,0:0|0:1,0:0:0:0:
440,368,17167,6,0,P|445:300|456:234,1,134.999995880127,10|8,0:1|0:0,0:0:0:0:
356,144,17673,2,0,B|370:174|374:208,1,67.4999979400635,2|8,0:0|0:1,0:0:0:0:
200,88,18010,2,0,B|181:115|153:136,1,67.4999979400635,10|8,0:1|0:0,0:0:0:0:
224,288,18347,6,0,B|265:233|265:161,1,134.999995880127,10|8,0:1|0:1,0:0:0:0:
200,88,18853,1,8,0:0:0:0:
32,168,19021,5,2,0:0:0:0:
32,168,19105,1,2,0:0:0:0:
32,168,19190,1,8,0:1:0:0:
16,72,19358,1,10,0:1:0:0:
112,56,19527,1,8,0:0:0:0:
128,152,19695,1,8,0:1:0:0:
296,200,19864,6,0,B|296:127|264:71,2,134.999995880127,10|10|10,0:1|0:0|0:1,0:0:0:0:
208,224,20707,1,8,0:1:0:0:
344,280,20875,2,0,L|410:266,1,67.4999979400635,10|0,0:0|0:0,0:0:0:0:
272,368,21212,6,0,B|256:336|256:302,1,67.4999979400635,14|2,0:1|0:0,0:0:0:0:
296,200,21549,1,8,0:0:0:0:
160,304,21718,6,0,B|120:280|62:280,1,101.249996910095,12|0,0:1|0:0,0:0:0:0:
62,280,22055,1,8,0:0:0:0:
48,200,22223,1,8,0:3:0:0:
32,120,22392,1,8,0:3:0:0:
144,32,22561,6,0,B|70:54|14:14,2,134.999995880127,12|10|2,0:1|0:0|0:0,0:0:0:0:
216,88,23403,2,0,L|282:75,1,67.4999979400635,8|8,0:1|0:0,0:0:0:0:
400,176,23740,6,0,B|336:200|272:160,1,134.999995880127,10|8,0:1|0:1,0:0:0:0:
200,208,24246,1,8,0:0:0:0:
272,320,24414,5,8,0:1:0:0:
272,320,24499,1,8,0:1:0:0:
272,320,24583,2,0,P|277:286|279:252,1,67.4999979400635,10|8,0:1|0:1,0:0:0:0:
144,352,24920,2,0,P|127:322|114:291,1,67.4999979400635,10|0,0:0|0:0,0:0:0:0:
335,376,25257,6,0,P|400:356|449:311,1,134.999995880127,10|8,0:1|0:0,0:0:0:0:
351,215,25763,1,2,0:0:0:0:
351,215,25847,1,2,0:0:0:0:
351,215,25931,2,0,P|341:184|336:150,1,67.4999979400635,8|10,0:1|0:1,0:0:0:0:
420,163,26268,1,10,0:0:0:0:
255,205,26437,6,0,P|189:193|135:153,1,134.999995880127,10|8,0:1|0:1,0:0:0:0:
135,153,26943,1,8,0:0:0:0:
104,64,27111,1,8,0:1:0:0:
104,64,27195,1,8,0:1:0:0:
104,64,27280,2,0,P|70:59|37:55,1,67.4999979400635,2|8,0:0|0:1,0:0:0:0:
216,104,27617,2,0,B|224:72|223:37,1,67.4999979400635,10|0,0:0|0:0,0:0:0:0:
16,232,27954,6,0,P|82:233|138:269,1,134.999995880127,10|8,0:1|0:0,0:0:0:0:
168,368,28459,2,0,B|150:368|134:373,2,33.7499989700318,2|2|8,0:0|0:0|0:1,0:0:0:0:
240,312,28796,2,0,B|248:280|247:245,1,67.4999979400635,2|8,0:0|0:0,0:0:0:0:
192,64,29134,6,0,B|137:91|60:83,1,134.999995880127,10|8,0:1|0:1,0:0:0:0:
208,176,29639,2,0,B|180:162|142:166,1,67.4999979400635,8|2,0:0|0:0,0:0:0:0:
142,166,29892,1,2,0:0:0:0:
142,166,29976,1,10,0:1:0:0:
288,133,30145,1,8,0:1:0:0:
321,278,30313,1,8,0:0:0:0:
176,311,30482,1,2,0:0:0:0:
352,200,30650,6,0,L|487:214,2,134.999995880127,14|8|2,0:1|0:0|0:0,0:0:0:0:
321,278,31493,1,8,0:1:0:0:
240,232,31662,2,0,B|206:231|174:247,1,67.4999979400635,10|0,0:0|0:0,0:0:0:0:
0,232,31999,6,0,L|19:342,1,112.5,14|0,0:1|0:0,0:0:0:0:
20,355,32336,1,8,0:0:0:0:
104,184,32504,2,0,B|115:130|95:82|40:64,1,150,14|8,0:1|0:0,0:0:0:0:
40,64,33010,2,0,B|72:88|111:81,1,75,8|4,0:3|0:3,0:0:0:0:
256,16,33347,6,0,B|272:98|237:63|251:149,1,134.999995880127,12|2,0:1|0:0,0:0:0:0:
256,320,33853,1,8,0:1:0:0:
424,240,34021,6,0,B|357:217|291:240,1,134.999995880127,10|8,0:0|0:1,0:0:0:0:
174,369,34527,2,0,P|140:363|109:350,1,67.4999979400635,2|8,0:0|0:1,0:0:0:0:
109,350,34864,1,8,0:0:0:0:
256,320,35032,2,0,B|240:251|221:189,2,134.999995880127,10|10|10,0:1|0:0|0:1,0:0:0:0:
256,320,35875,1,8,0:1:0:0:
359,255,36044,6,0,P|326:251|293:244,1,67.4999979400635,10|0,0:1|0:0,0:0:0:0:
453,357,36381,2,0,P|419:360|386:367,1,67.4999979400635,2|8,0:1|0:1,0:0:0:0:
504,256,36718,2,0,B|524:186|486:125,1,134.999995880127,10|10,0:0|0:1,0:0:0:0:
412,168,37223,2,0,L|344:159,1,67.4999979400635,10|8,0:0|0:1,0:0:0:0:
304,48,37561,5,8,0:0:0:0:
223,65,37729,1,2,0:0:0:0:
142,83,37898,1,8,0:1:0:0:
8,24,38066,6,0,B|40:80|27:154,1,134.999995880127,10|8,0:0|0:1,0:0:0:0:
27,154,38572,1,8,0:0:0:0:
69,248,38740,6,0,B|40:233|4:238,1,67.4999979400635,10|0,0:1|0:0,0:0:0:0:
104,336,39077,1,2,0:0:0:0:
104,336,39246,1,8,0:1:0:0:
192,232,39414,2,0,B|252:280|235:351,1,134.999995880127,10|8,0:0|0:1,0:0:0:0:
235,351,39920,6,0,L|367:327,1,134.999995880127,2|8,0:0|0:1,0:0:0:0:
367,327,40426,1,10,0:1:0:0:
496,208,40763,6,0,P|462:208|429:201,1,67.4999979400635,10|8,0:0|0:1,0:0:0:0:
345,180,41100,2,0,L|358:246,1,67.4999979400635,10|8,0:0|0:1,0:0:0:0:
256,152,41437,6,0,B|211:95|135:107,1,134.999995880127,12|2,0:1|0:2,0:0:0:0:
136,107,41943,1,8,0:1:0:0:
48,336,42111,5,8,0:2:0:0:
32,256,42280,1,2,0:0:0:0:
112,240,42448,1,8,0:1:0:0:
128,320,42617,2,0,B|240:304|184:360|301:344,1,179.999994506836,12|8,0:0|0:0,0:0:0:0:
431,367,43122,6,0,L|419:292,1,75,8|8,0:0|0:1,0:0:0:0:
425,283,43375,1,0,3:0:0:0:
421,272,43459,1,8,0:0:0:0:
423,261,43544,1,0,3:0:0:0:
419,250,43628,1,8,3:1:0:0:
424,240,43712,1,0,3:0:0:0:
419,229,43796,2,0,B|424:195|426:154,1,75,12|0,0:0|0:0,0:0:0:0:
328,72,44134,6,0,B|406:65|462:10,2,150,12|10|10,0:1|0:0|0:1,0:0:0:0:
208,48,44976,2,0,B|202:87|208:122,1,75,8|8,0:1|0:0,0:0:0:0:
142,224,45313,6,0,B|64:248|3:193,1,150,10|8,0:1|0:1,0:0:0:0:
72,56,45819,2,0,B|88:89|88:129,1,75,8|8,0:0|0:1,0:0:0:0:
88,128,46072,1,8,0:1:0:0:
88,128,46156,2,0,L|161:114,1,75,10|8,0:1|0:1,0:0:0:0:
336,176,46493,2,0,L|263:190,1,75,10|8,0:0|0:1,0:0:0:0:
352,16,46830,6,0,B|408:64|480:92,1,150,12|8,0:1|0:0,0:0:0:0:
480,92,47504,2,0,B|464:128|471:165,1,75,10|8,0:1|0:1,0:0:0:0:
496,240,47841,1,8,0:0:0:0:
431,367,48010,6,0,B|367:327|286:341,1,150,14|10,0:1|0:1,0:0:0:0:
128,288,48516,2,0,L|54:301,1,75,8|2,0:0|0:0,0:0:0:0:
54,301,48768,1,2,0:0:0:0:
54,301,48853,1,10,0:1:0:0:
201,334,49021,2,0,B|219:300|210:260,1,75,8|8,0:1|0:0,0:0:0:0:
93,151,49358,6,0,B|68:231|128:288,1,150,12|8,0:1|0:1,0:0:0:0:
280,216,49864,2,0,L|354:227,1,75,8|2,0:0|0:0,0:0:0:0:
354,227,50117,1,2,0:0:0:0:
354,227,50201,1,10,0:1:0:0:
415,168,50370,1,8,0:1:0:0:
496,184,50538,1,8,0:0:0:0:
384,88,50707,6,0,B|292:102|331:51|239:66,1,150,14|10,0:1|0:1,0:0:0:0:
48,160,51212,2,0,P|85:159|121:170,1,75,8|2,0:0|0:0,0:0:0:0:
121,170,51465,1,2,0:0:0:0:
121,170,51549,1,8,0:1:0:0:
208,152,51718,1,2,0:0:0:0:
256,224,51886,2,0,L|241:297,1,75,10|2,0:0|0:0,0:0:0:0:
176,376,52223,6,0,B|240:328|317:343,1,150,12|8,0:1|0:0,0:0:0:0:
432,240,52729,2,0,B|395:238|358:224,1,75,2|8,0:0|0:1,0:0:0:0:
416,376,53066,2,0,B|436:344|465:320,1,75,10|8,0:1|0:0,0:0:0:0:
312,296,53403,6,0,B|304:216|250:162,1,150,12|8,0:1|0:1,0:0:0:0:
296,56,53909,2,0,P|333:50|368:38,1,75,10|2,0:0|0:0,0:0:0:0:
368,38,54162,1,2,0:0:0:0:
368,38,54246,2,0,L|355:111,1,75,10|8,0:1|0:1,0:0:0:0:
392,192,54583,1,8,0:0:0:0:
250,162,54752,6,0,L|106:189,1,146.249993305207,12|0,0:1|0:0,0:0:0:0:
92,194,55089,1,8,0:0:0:0:
120,72,55257,1,8,0:0:0:0:
320,208,55426,6,0,B|344:168|325:128,1,82.5000025177003,12|8,0:1|0:1,0:0:0:0:
328,117,55679,1,8,0:1:0:0:
331,105,55763,1,8,0:0:0:0:
326,93,55847,1,8,0:0:0:0:
330,81,55931,1,8,0:3:0:0:
504,272,56100,6,0,P|421:272|354:322,1,168.750006437302,12|0,0:0|0:0,0:0:0:0:
347,331,56437,2,0,P|319:325|294:312,1,56.2500021457673,14|0,0:0|0:0,0:0:0:0:
223,207,56605,2,0,P|231:233|233:261,1,56.2500021457673,14|0,0:0|0:0,0:0:0:0:
178,377,56774,2,0,P|196:356|220:340,1,56.2500021457673,14|0,0:0|0:0,0:0:0:0:
96,280,57111,5,8,0:1:0:0:
96,280,57195,1,8,0:1:0:0:
96,280,57280,2,0,L|7:265,1,90,12|0,0:0|0:0,0:0:0:0:
7,265,57617,6,0,B|106:253|157:176,1,179.999994506836,12|8,0:1|0:0,0:0:0:0:
184,96,58122,1,2,0:0:0:0:
320,208,58291,2,0,B|360:192|408:192,1,89.9999972534181,10|8,0:1|0:1,0:0:0:0:
408,192,58544,1,8,0:1:0:0:
408,192,58628,1,8,0:0:0:0:
488,256,58796,1,2,0:0:0:0:
304,304,58965,6,0,B|280:208|270:127,1,179.999994506836,10|10,0:1|0:0,0:0:0:0:
352,48,59471,2,0,B|392:72|438:65,1,89.9999972534181,2|8,0:0|0:1,0:0:0:0:
320,208,59808,1,10,0:1:0:0:
320,208,59976,2,0,B|280:184|233:190,1,89.9999972534181,8|2,0:0|0:0,0:0:0:0:
24,144,60313,6,0,L|53:321,1,179.999994506836,10|8,0:1|0:0,0:0:0:0:
192,368,60819,1,2,0:0:0:0:
192,368,60987,2,0,B|208:328|190:279,1,89.9999972534181,10|8,0:1|0:1,0:0:0:0:
240,128,61325,5,8,0:0:0:0:
128,216,61493,2,0,B|238:200|182:264|301:237,1,179.999994506836,10|10,0:1|0:1,0:0:0:0:
376,200,61999,1,10,0:0:0:0:
486,344,62167,6,0,B|422:368|363:311,1,134.999995880127,10|0,0:1|0:0,0:0:0:0:
363,311,62504,1,8,0:1:0:0:
468,224,62673,2,0,P|471:179|475:134,1,89.9999972534181,8|2,0:0|0:0,0:0:0:0:
336,16,63010,6,0,B|264:72|165:56,1,179.999994506836,12|8,0:1|0:0,0:0:0:0:
232,184,63516,2,0,B|224:134|252:98,1,89.9999972534181,2|8,0:0|0:1,0:0:0:0:
64,32,63853,2,0,B|92:68|84:117,1,89.9999972534181,10|8,0:1|0:0,0:0:0:0:
8,296,64190,6,0,B|25:235|100:212|156:245,1,179.999994506836,12|8,0:1|0:1,0:0:0:0:
321,360,64696,1,8,0:0:0:0:
321,360,65032,2,0,P|364:351|402:327,1,89.9999972534181,2|8,0:0|0:1,0:0:0:0:
248,296,65370,2,0,P|246:251|260:209,1,89.9999972534181,8|8,0:0|0:0,0:0:0:0:
265,201,65622,1,8,0:0:0:0:
270,193,65707,6,0,L|137:217,1,134.999995880127,12|0,0:1|0:0,0:0:0:0:
128,221,66044,1,8,0:0:0:0:
96,72,66212,1,10,0:1:0:0:
96,72,66550,2,0,B|50:90|44:140,1,89.9999972534181,10|8,0:1|0:0,0:0:0:0:
270,193,66886,6,0,L|403:213,1,134.999995880127,14|0,0:1|0:0,0:0:0:0:
416,216,67223,2,0,B|439:175|418:129,1,89.9999972534181,10|8,0:1|0:0,0:0:0:0:
232,282,67561,2,0,B|188:265|174:217,1,89.9999972534181,14|0,0:1|0:0,0:0:0:0:
104,112,67898,6,0,L|59:119,1,44.999998626709,8|8,0:1|0:1,0:0:0:0:
203,3,68066,1,8,0:0:0:0:
218,12,68150,1,4,0:3:0:0:
235,8,68235,1,4,0:3:0:0:
250,17,68319,1,4,0:3:0:0:
267,13,68403,6,0,B|254:103|269:192,1,179.999994506836,14|8,0:1|0:0,0:0:0:0:
288,272,68909,1,2,0:0:0:0:
175,351,69077,2,0,B|135:335|87:343,1,89.9999972534181,10|8,0:1|0:1,0:0:0:0:
87,344,69330,1,8,0:1:0:0:
87,344,69414,1,8,0:0:0:0:
200,264,69583,1,2,0:0:0:0:
375,367,69752,6,0,B|431:343|455:279|415:215,1,179.999994506836,10|10,0:1|0:0,0:0:0:0:
264,120,70257,2,0,B|229:144|176:135,1,89.9999972534181,2|8,0:0|0:1,0:0:0:0:
200,264,70594,2,0,B|234:239|287:248,1,89.9999972534181,10|8,0:1|0:0,0:0:0:0:
118,215,70931,1,8,0:1:0:0:
141,36,71100,6,0,L|118:214,1,179.999994506836,10|8,0:1|0:0,0:0:0:0:
48,384,71605,1,8,0:1:0:0:
48,384,71690,1,8,0:1:0:0:
48,384,71774,1,10,0:1:0:0:
24,296,71943,1,8,0:1:0:0:
120,272,72111,1,8,0:0:0:0:
264,384,72280,6,0,B|296:320|268:252,1,134.999995880127,12|0,0:1|0:0,0:0:0:0:
255,240,72617,1,10,0:1:0:0:
376,264,72785,1,10,0:0:0:0:
248,136,72954,6,0,L|115:162,1,134.999995880127,10|0,0:1|0:0,0:0:0:0:
98,168,73291,1,8,0:1:0:0:
168,16,73459,2,0,B|189:58|171:102,1,89.9999972534181,10|0,0:0|0:0,0:0:0:0:
336,184,73796,6,0,B|400:168|469:168,1,134.999995880127,12|0,0:1|0:0,0:0:0:0:
487,173,74134,1,10,0:0:0:0:
360,288,74302,2,0,B|311:288|271:272,1,89.9999972534181,2|8,0:1|0:1,0:0:0:0:
112,192,74639,2,0,B|152:176|200:176,1,89.9999972534181,10|8,0:1|0:0,0:0:0:0:
178,374,74976,6,0,B|96:320|8:328,1,179.999994506836,12|8,0:1|0:1,0:0:0:0:
271,272,75482,2,0,P|276:227|291:185,1,89.9999972534181,10|8,0:0|0:1,0:0:0:0:
291,185,75735,1,8,0:1:0:0:
291,185,75819,6,0,B|331:206|378:198,1,89.9999972534181,10|8,0:1|0:1,0:0:0:0:
504,104,76156,2,0,B|456:96|416:117,1,89.9999972534181,10|8,0:0|0:1,0:0:0:0:
424,124,76409,1,8,0:1:0:0:
424,124,76493,2,0,L|435:34,1,89.9999972534181,14|8,0:0|0:1,0:0:0:0:
291,185,76830,5,10,0:0:0:0:
248,56,76999,1,8,0:1:0:0:
208,232,77167,5,10,0:0:0:0:
106,141,77336,1,8,0:1:0:0:
159,314,77504,5,10,0:0:0:0:
25,286,77673,1,8,0:1:0:0:
176,320,77841,6,0,B|224:328|264:307,1,89.9999972534181,14|2,0:0|0:0,0:0:0:0:
320,144,78179,1,8,0:1:0:0:
472,296,78347,6,0,B|400:304|344:262,1,134.999995880127,12|0,0:0|0:0,0:0:0:0:
344,262,78684,2,0,L|336:218,1,44.999998626709,8|8,0:0|0:0,0:0:0:0:
208,128,78853,5,8,0:3:0:0:
190,126,78937,1,8,0:3:0:0:
175,136,79021,1,4,0:3:0:0:
157,134,79105,1,4,0:3:0:0:
143,144,79189,1,12,0:1:0:0:
143,144,79527,6,0,B|167:103|152:57,1,89.9999972534181,8|2,0:0|0:0,0:0:0:0:
0,218,79864,2,0,B|75:211|119:268,1,134.999995880127,10|0,0:1|0:0,0:0:0:0:
130,281,80201,1,8,0:0:0:0:
234,383,80370,6,0,P|276:369|321:368,1,89.9999972534181,2|8,0:0|0:1,0:0:0:0:
283,181,80707,2,0,P|240:194|195:195,1,89.9999972534181,10|8,0:1|0:0,0:0:0:0:
344,266,81044,2,0,B|417:251|399:291|476:277,1,134.999995880127,10|0,0:1|0:0,0:0:0:0:
475,277,81381,1,8,0:1:0:0:
424,184,81549,2,0,B|430:138|437:94,1,89.9999972534181,8|8,0:0|0:1,0:0:0:0:
288,0,81886,6,0,B|230:81|129:61,1,179.999994506836,10|8,0:1|0:0,0:0:0:0:
102,229,82392,1,2,0:0:0:0:
35,175,82561,2,0,B|69:137|118:146,1,89.9999972534181,10|8,0:1|0:1,0:0:0:0:
102,229,82898,1,8,0:0:0:0:
130,61,83066,6,0,B|232:76|256:172,1,179.999994506836,12|10,0:1|0:1,0:0:0:0:
292,333,83572,1,10,0:0:0:0:
336,200,83740,6,0,B|258:197|228:265,1,134.999995880127,12|0,0:1|0:0,0:0:0:0:
228,265,84077,1,8,0:1:0:0:
151,368,84246,2,0,P|107:368|65:351,1,89.9999972534181,8|8,0:0|0:0,0:0:0:0:
65,351,84499,1,8,0:0:0:0:
65,351,84583,6,0,B|40:248|112:288|88:179,1,179.999994506836,14|8,0:1|0:0,0:0:0:0:
264,152,85089,1,2,0:0:0:0:
208,16,85257,2,0,B|233:119|161:79|184:187,1,179.999994506836,10|8,0:1|0:0,0:0:0:0:
335,304,85763,5,8,0:1:0:0:
335,304,85847,1,8,0:1:0:0:
335,304,85931,2,0,B|364:272|415:268,1,89.9999972534181,10|0,0:1|0:0,0:0:0:0:
264,152,86268,2,0,B|276:193|254:239,1,89.9999972534181,10|0,0:0|0:0,0:0:0:0:
429,166,86605,2,0,B|386:156|358:113,1,89.9999972534181,2|8,0:0|0:1,0:0:0:0:
292,326,86943,2,0,B|246:273|171:283,1,134.999995880127,10|0,0:0|0:0,0:0:0:0:
155,294,87280,5,12,0:0:0:0:
24,248,87448,1,8,0:1:0:0:
21,233,87532,1,8,0:1:0:0:
18,218,87617,1,10,0:0:0:0:
112,104,87785,2,0,L|104:152,2,44.999998626709,8|8|10,0:1|0:1|0:0,0:0:0:0:
161,264,88122,1,8,0:1:0:0:
158,279,88206,1,8,0:1:0:0:
155,294,88291,1,10,0:0:0:0:
264,152,88459,5,8,0:0:0:0:
261,137,88543,1,8,0:0:0:0:
258,122,88628,2,0,B|312:128|345:107,1,89.9999972534181,12|8,0:0|0:1,0:0:0:0:
246,38,88965,1,8,0:1:0:0:
192,208,89134,6,0,B|241:258|317:235,1,134.999995880127,10|0,0:0|0:0,0:0:0:0:
337,216,89471,2,0,L|381:222,1,44.999998626709,8|8,0:1|0:1,0:0:0:0:
432,328,89639,1,10,0:0:0:0:
401,319,89723,1,8,0:1:0:0:
370,325,89808,1,10,0:1:0:0:
344,342,89892,1,8,0:1:0:0:
329,369,89976,6,0,P|273:362|217:354,1,112.5,14|0,0:1|0:0,0:0:0:0:
202,353,90313,1,10,0:0:0:0:
72,240,90482,2,0,B|41:259|0:262,1,75,2|8,0:1|0:1,0:0:0:0:
120,368,90819,2,0,B|119:331|136:295,1,75,10|8,0:1|0:0,0:0:0:0:
16,176,91156,6,0,B|88:216|161:196,1,150,10|8,0:1|0:1,0:0:0:0:
320,152,91662,2,0,L|328:77,1,75,8|2,0:0|0:0,0:0:0:0:
328,77,91914,1,2,0:0:0:0:
328,77,91999,1,10,0:1:0:0:
272,0,92167,1,8,0:1:0:0:
176,104,92336,2,0,B|216:104|247:84,1,75,10|0,0:0|0:0,0:0:0:0:
392,240,92673,6,0,B|328:201|248:201,1,150,10|10,0:1|0:0,0:0:0:0:
104,248,93179,2,0,L|29:235,1,75,2|8,0:0|0:1,0:0:0:0:
129,107,93516,2,0,L|155:177,1,75,10|8,0:1|0:0,0:0:0:0:
111,384,93853,6,0,P|174:343|248:341,1,150,14|8,0:1|0:1,0:0:0:0:
312,234,94358,2,0,P|275:226|241:211,1,75,8|2,0:0|0:0,0:0:0:0:
241,211,94611,1,2,0:0:0:0:
241,211,94695,1,10,0:1:0:0:
400,184,94864,1,8,0:1:0:0:
440,344,95032,2,0,P|474:329|510:321,1,75,8|8,0:0|0:0,0:0:0:0:
510,321,95285,1,8,0:0:0:0:
510,321,95370,6,0,L|360:308,1,150,12|8,0:1|0:0,0:0:0:0:
256,184,95875,2,0,B|208:216|152:226,1,112.5,14|0,0:1|0:0,0:0:0:0:
152,226,96212,2,0,L|160:151,1,75,10|8,0:1|0:0,0:0:0:0:
0,304,96549,6,0,P|72:322|136:361,1,150,14|8,0:1|0:1,0:0:0:0:
246,371,97055,2,0,P|282:365|317:352,1,75,10|8,0:0|0:1,0:0:0:0:
317,352,97308,1,8,0:1:0:0:
317,352,97392,6,0,L|353:360,1,37.5,10|8,0:1|0:0,0:0:0:0:
287,259,97561,2,0,L|301:224,1,37.5,8|10,0:1|0:1,0:0:0:0:
443,260,97729,2,0,P|406:266|370:278,1,75,12|8,0:0|0:0,0:0:0:0:
371,278,97982,1,8,0:0:0:0:
371,278,98066,1,12,0:1:0:0:
162,248,98403,5,8,0:0:0:0:
300,224,98572,1,8,0:0:0:0:
281,114,98740,1,8,0:0:0:0:
142,136,98909,1,8,0:0:0:0:
211,314,99077,5,8,0:0:0:0:
221,180,99246,1,8,0:0:0:0:
231,46,99414,2,0,B|320:64|379:12,1,157.499995193482,12|8,0:1|0:1,0:0:0:0:
376,160,100089,5,8,0:0:0:0:
494,94,100257,2,0,L|479:197,1,104.999996795654,12|8,0:1|0:0,0:0:0:0:
483,202,100679,1,8,0:0:0:0:
487,206,100763,6,0,B|475:237|483:272,1,67.4999979400635,12|0,0:1|0:0,0:0:0:0:
390,379,101100,2,0,B|398:344|386:313,1,67.4999979400635,8|0,0:0|0:0,0:0:0:0:
385,312,101437,2,0,L|318:324,1,67.4999979400635,10|8,0:1|0:1,0:0:0:0:
184,352,101774,5,8,0:0:0:0:
213,195,101943,2,0,B|247:231|243:288,1,101.249996910095,10|0,0:1|0:0,0:0:0:0:
243,288,102280,1,8,0:1:0:0:
101,326,102448,2,0,L|34:316,1,67.4999979400635,10|8,0:0|0:1,0:0:0:0:
35,317,102701,1,8,0:1:0:0:
35,317,102785,2,0,L|25:250,1,67.4999979400635,10|8,0:1|0:1,0:0:0:0:
144,204,103122,2,0,L|153:137,1,67.4999979400635,10|0,0:0|0:0,0:0:0:0:
56,14,103459,6,0,P|34:78|42:144,2,134.999995880127,10|10|8,0:1|0:0|0:1,0:0:0:0:
215,69,104302,2,0,B|250:66|278:47,1,67.4999979400635,10|8,0:1|0:0,0:0:0:0:
420,178,104639,6,0,B|368:118|298:142,1,134.999995880127,10|8,0:1|0:1,0:0:0:0:
248,208,105145,1,8,0:0:0:0:
88,160,105313,5,8,0:1:0:0:
88,160,105398,1,8,0:1:0:0:
88,160,105482,2,0,B|84:129|75:93,1,67.4999979400635,10|8,0:1|0:1,0:0:0:0:
160,216,105819,2,0,B|151:251|147:282,1,67.4999979400635,10|8,0:0|0:1,0:0:0:0:
86,347,106156,6,0,L|219:327,1,134.999995880127,10|8,0:1|0:0,0:0:0:0:
326,255,106662,2,0,P|292:252|262:237,1,67.4999979400635,2|8,0:0|0:1,0:0:0:0:
432,336,106999,2,0,P|398:338|368:353,1,67.4999979400635,10|8,0:1|0:0,0:0:0:0:
494,261,107336,6,0,P|510:195|505:128,1,134.999995880127,10|8,0:1|0:1,0:0:0:0:
464,64,107841,1,8,0:0:0:0:
360,144,108010,2,0,P|326:137|293:131,1,67.4999979400635,2|8,0:0|0:1,0:0:0:0:
176,40,108347,5,8,0:1:0:0:
100,57,108516,1,10,0:0:0:0:
24,74,108684,1,8,0:1:0:0:
176,40,108853,5,10,0:1:0:0:
176,40,109190,2,0,P|208:47|242:50,1,67.4999979400635,10|0,0:0|0:0,0:0:0:0:
224,198,109527,2,0,P|191:190|157:187,1,67.4999979400635,10|8,0:1|0:1,0:0:0:0:
293,130,109864,6,0,P|326:126|358:115,1,67.4999979400635,10|8,0:0|0:1,0:0:0:0:
358,115,110117,1,8,0:1:0:0:
358,115,110201,1,14,0:1:0:0:
456,151,110370,2,0,P|465:119|468:86,1,67.4999979400635,10|8,0:1|0:0,0:0:0:0:
386,224,110707,6,0,L|403:323,1,101.249996910095,12|0,0:1|0:0,0:0:0:0:
407,336,111044,1,8,0:0:0:0:
320,384,111212,2,0,B|295:361|257:365,1,67.4999979400635,8|8,0:3|0:3,0:0:0:0:
257,365,111465,1,8,0:3:0:0:
257,365,111549,1,12,0:1:0:0:
64,248,111886,6,0,L|71:180,1,67.4999979400635,10|0,0:0|0:0,0:0:0:0:
165,294,112223,2,0,P|229:275|295:258,1,134.999995880127,10|8,0:1|0:0,0:0:0:0:
239,183,112729,6,0,P|228:151|224:117,1,67.4999979400635,10|0,0:1|0:0,0:0:0:0:
225,118,113066,1,8,0:1:0:0:
376,144,113235,2,0,P|392:114|401:82,1,67.4999979400635,8|8,0:0|0:1,0:0:0:0:
401,82,113487,1,8,0:1:0:0:
401,82,113572,2,0,P|430:98|462:107,1,67.4999979400635,10|8,0:1|0:1,0:0:0:0:
488,280,113909,2,0,P|458:263|426:254,1,67.4999979400635,10|0,0:0|0:0,0:0:0:0:
224,207,114246,6,0,L|357:188,2,134.999995880127,10|8|8,0:1|0:0|0:1,0:0:0:0:
224,207,115089,2,0,B|235:175|235:175|225:142,1,67.4999979400635,10|10,0:1|0:0,0:0:0:0:
33,129,115426,6,0,B|79:186|153:173,1,134.999995880127,10|8,0:1|0:1,0:0:0:0:
280,27,115931,2,0,L|346:39,1,67.4999979400635,8|8,0:0|0:1,0:0:0:0:
346,39,116184,1,8,0:1:0:0:
346,39,116268,2,0,P|366:65|376:97,1,67.4999979400635,10|8,0:1|0:1,0:0:0:0:
225,142,116605,2,0,P|214:110|216:76,1,67.4999979400635,10|0,0:0|0:0,0:0:0:0:
480,63,116943,6,0,P|478:130|440:185,1,134.999995880127,14|8,0:1|0:0,0:0:0:0:
384,267,117448,2,0,B|419:261|449:278,1,67.4999979400635,2|8,0:0|0:1,0:0:0:0:
285,201,117785,2,0,B|320:207|350:189,1,67.4999979400635,10|8,0:1|0:0,0:0:0:0:
283,336,118122,6,0,B|210:354|163:293,1,134.999995880127,10|8,0:1|0:1,0:0:0:0:
80,200,118628,2,0,L|13:213,1,67.4999979400635,8|2,0:0|0:0,0:0:0:0:
13,213,118881,1,2,0:0:0:0:
13,213,118965,1,10,0:1:0:0:
152,248,119134,1,8,0:1:0:0:
120,60,119302,2,0,B|105:95|115:126,1,67.4999979400635,8|2,0:0|0:0,0:0:0:0:
285,201,119639,6,0,L|384:179,1,101.249996910095,14|0,0:1|0:0,0:0:0:0:
397,177,119976,2,0,P|395:143|402:110,1,67.4999979400635,8|0,0:0|0:0,0:0:0:0:
357,269,120313,2,0,P|362:302|366:335,1,67.4999979400635,10|8,0:1|0:1,0:0:0:0:
216,280,120650,2,0,P|183:270|150:263,1,67.4999979400635,10|0,0:0|0:0,0:0:0:0:
24,168,120987,5,14,0:1:0:0:
4,44,121156,1,0,0:0:0:0:
128,24,121324,1,8,0:0:0:0:
148,148,121493,1,14,0:1:0:0:
148,148,121830,5,8,0:0:0:0:
227,128,121999,1,8,0:3:0:0:
307,108,122167,1,4,0:3:0:0:
424,168,122336,5,12,0:1:0:0:
424,168,122673,2,0,B|442:140|432:103,1,67.4999979400635,2|8,0:0|0:1,0:0:0:0:
373,251,123010,2,0,B|425:198|497:224,1,134.999995880127,10|8,0:0|0:1,0:0:0:0:
440,334,123516,1,8,0:0:0:0:
364,376,123684,6,0,B|328:373|298:362,1,67.4999979400635,10|8,0:1|0:0,0:0:0:0:
203,319,124021,2,0,B|213:348|216:384,1,67.4999979400635,10|0,0:1|0:0,0:0:0:0:
288,273,124358,6,0,P|299:224|298:174,1,101.249996910095,10|0,0:0|0:0,0:0:0:0:
298,174,124695,2,0,P|290:141|282:108,1,67.4999979400635,10|8,0:1|0:1,0:0:0:0:
328,10,125032,6,0,P|393:26|459:39,1,134.999995880127,10|2,0:1|0:1,0:0:0:0:
459,39,125707,1,10,0:0:0:0:
387,60,125875,1,8,0:1:0:0:
343,122,126044,1,10,0:1:0:0:
224,51,126212,6,0,P|157:43|97:12,1,134.999995880127,10|8,0:0|0:0,0:0:0:0:
97,12,126718,2,0,P|106:44|113:77,1,67.4999979400635,2|8,0:0|0:1,0:0:0:0:
77,223,127055,6,0,B|41:226|12:241,1,67.4999979400635,10|0,0:0|0:0,0:0:0:0:
157,153,127392,2,0,B|185:168|221:171,1,67.4999979400635,8|8,0:1|0:0,0:0:0:0:
230,367,127729,6,0,B|222:293|169:251,1,134.999995880127,10|2,0:1|0:0,0:0:0:0:
107,305,128235,1,8,0:1:0:0:
296,232,128403,2,0,P|361:247|427:262,1,134.999995880127,10|8,0:0|0:1,0:0:0:0:
502,69,128909,6,0,B|431:75|392:139,1,134.999995880127,10|8,0:1|0:1,0:0:0:0:
392,138,129414,2,0,P|397:105|392:72,1,67.4999979400635,10|0,0:1|0:0,0:0:0:0:
296,232,129752,6,0,B|213:242|250:194|167:208,1,134.999995880127,10|2,0:0|0:0,0:0:0:0:
168,207,130257,1,8,0:1:0:0:
88,160,130426,6,0,B|129:215|116:288,2,134.999995880127,12|2|8,0:1|0:2|0:2,0:0:0:0:
243,100,131268,5,2,0:0:0:0:
228,25,131437,1,8,0:1:0:0:
258,175,131605,6,0,B|336:155|283:118|368:104,1,134.999995880127,12|0,0:0|0:0,0:0:0:0:
383,108,131943,1,8,0:0:0:0:
480,191,132111,6,0,P|475:229|470:266,1,75,8|8,0:0|0:1,0:0:0:0:
477,275,132364,1,0,3:0:0:0:
472,285,132448,1,8,0:0:0:0:
476,295,132532,1,0,3:0:0:0:
473,306,132617,1,8,3:1:0:0:
480,314,132701,1,0,3:0:0:0:
475,324,132785,2,0,P|444:304|407:307,1,75,12|0,0:0|0:0,0:0:0:0:
250,219,133122,6,0,P|286:212|323:205,1,75,12|0,0:1|0:0,0:0:0:0:
151,351,133459,2,0,P|220:381|294:383,1,150,10|10,0:0|0:1,0:0:0:0:
165,246,133965,1,8,0:1:0:0:
84,270,134134,1,8,0:0:0:0:
240,293,134302,6,0,B|297:237|263:154,1,150,10|8,0:1|0:1,0:0:0:0:
144,56,134808,2,0,L|69:44,1,75,8|8,0:0|0:1,0:0:0:0:
70,44,135061,1,8,0:1:0:0:
70,44,135145,2,0,P|70:81|80:117,1,75,10|8,0:1|0:1,0:0:0:0:
216,80,135482,2,0,P|215:42|205:6,1,75,10|8,0:0|0:1,0:0:0:0:
323,204,135819,6,0,B|379:148|461:170,1,150,12|8,0:1|0:0,0:0:0:0:
461,170,136493,6,0,B|440:136|442:98,1,75,10|8,0:1|0:1,0:0:0:0:
408,245,136830,1,8,0:0:0:0:
323,204,136999,6,0,L|174:228,1,150,14|10,0:1|0:1,0:0:0:0:
40,128,137504,2,0,B|23:97|38:55,1,75,8|2,0:0|0:0,0:0:0:0:
38,55,137757,1,2,0:0:0:0:
38,55,137841,1,10,0:1:0:0:
111,174,138010,2,0,B|92:204|48:211,1,75,8|8,0:1|0:0,0:0:0:0:
160,96,138347,6,0,L|309:120,1,150,12|8,0:1|0:1,0:0:0:0:
387,245,138853,2,0,P|421:230|458:229,1,75,8|2,0:0|0:0,0:0:0:0:
458,229,139105,1,2,0:0:0:0:
457,229,139190,1,10,0:1:0:0:
440,147,139358,1,8,0:1:0:0:
504,80,139527,1,8,0:0:0:0:
387,245,139695,6,0,L|238:221,1,150,14|10,0:1|0:1,0:0:0:0:
160,291,140201,2,0,P|174:325|177:362,1,75,8|2,0:0|0:0,0:0:0:0:
176,362,140454,1,2,0:0:0:0:
176,362,140538,1,8,0:1:0:0:
48,293,140707,5,2,0:0:0:0:
59,214,140875,1,10,0:0:0:0:
70,135,141044,1,2,0:0:0:0:
0,56,141212,6,0,B|64:54|102:14,1,112.5,12|0,0:1|0:0,0:0:0:0:
101,15,141549,1,8,0:0:0:0:
256,136,141718,2,0,P|289:121|326:113,1,75,2|8,0:0|0:1,0:0:0:0:
200,8,142055,2,0,P|196:44|184:79,1,75,10|8,0:1|0:0,0:0:0:0:
376,192,142392,6,0,P|376:117|394:44,1,150,12|8,0:1|0:1,0:0:0:0:
512,240,142898,2,0,P|474:239|440:254,1,75,10|8,0:0|0:1,0:0:0:0:
440,253,143150,1,8,0:1:0:0:
440,253,143235,1,10,0:2:0:0:
392,328,143403,1,8,0:1:0:0:
264,200,143572,5,8,0:0:0:0:
224,384,143740,1,12,0:1:0:0:
224,384,144077,5,8,0:0:0:0:
203,346,144162,1,8,0:0:0:0:
152,335,144246,1,8,0:0:0:0:
144,248,144414,5,8,0:3:0:0:
109,247,144499,1,8,0:3:0:0:
81,278,144583,1,8,0:3:0:0:
62,177,144752,1,4,0:3:0:0:
43,76,144920,1,4,0:3:0:0:
234,81,145089,6,0,B|330:95|393:43,1,168.750006437302,12|0,0:0|0:0,0:0:0:0:
393,43,145426,1,14,0:0:0:0:
448,187,145594,1,14,0:0:0:0:
295,163,145763,1,14,0:0:0:0:
295,163,146100,5,8,0:1:0:0:
298,173,146184,1,8,0:1:0:0:
301,183,146268,2,0,L|288:273,1,90,12|0,0:0|0:0,0:0:0:0:
288,272,146605,6,0,B|193:296|127:215,1,179.999994506836,12|8,0:1|0:0,0:0:0:0:
104,128,147110,1,2,0:0:0:0:
295,163,147280,6,0,B|345:163|382:143,1,89.9999972534181,10|8,0:1|0:1,0:0:0:0:
381,143,147532,1,8,0:1:0:0:
381,143,147617,1,8,0:0:0:0:
472,184,147785,1,2,0:0:0:0:
256,264,147954,6,0,B|248:168|219:88,1,179.999994506836,10|10,0:1|0:0,0:0:0:0:
144,248,148459,2,0,B|136:200|122:160,1,89.9999972534181,2|8,0:0|0:1,0:0:0:0:
219,88,148796,5,10,0:1:0:0:
78,10,148965,2,0,B|64:49|56:97,1,89.9999972534181,8|2,0:0|0:0,0:0:0:0:
22,284,149302,6,0,B|124:260|185:332,1,179.999994506836,10|8,0:1|0:0,0:0:0:0:
363,365,149808,1,2,0:0:0:0:
359,356,149892,1,2,0:0:0:0:
355,347,149976,2,0,L|368:258,1,89.9999972534181,10|8,0:1|0:1,0:0:0:0:
280,96,150313,1,8,0:0:0:0:
428,155,150482,6,0,B|319:147|369:200|256:192,1,179.999994506836,10|10,0:1|0:1,0:0:0:0:
144,160,150987,1,10,0:0:0:0:
56,293,151156,6,0,P|109:331|175:322,1,134.999995880127,10|0,0:1|0:0,0:0:0:0:
184,317,151493,1,8,0:1:0:0:
144,160,151662,2,0,B|119:198|128:247,1,89.9999972534181,8|2,0:0|0:0,0:0:0:0:
272,384,151999,6,0,B|322:325|393:343,1,134.999995880127,12|0,0:1|0:0,0:0:0:0:
408,352,152336,1,8,0:0:0:0:
448,248,152504,2,0,B|488:275|493:322,1,89.9999972534181,2|8,0:0|0:1,0:0:0:0:
347,245,152841,2,0,P|351:200|360:156,1,89.9999972534181,10|8,0:1|0:0,0:0:0:0:
230,14,153179,6,0,P|248:102|256:192,1,179.999994506836,12|8,0:1|0:1,0:0:0:0:
120,288,153684,2,0,P|78:271|33:265,1,89.9999972534181,8|8,0:0|0:1,0:0:0:0:
33,265,153937,1,8,0:1:0:0:
33,265,154021,1,10,0:1:0:0:
152,248,154190,1,8,0:1:0:0:
216,336,154358,2,0,P|260:329|302:313,1,89.9999972534181,8|2,0:0|0:1,0:0:0:0:
448,192,154695,6,0,P|471:254|475:322,1,134.999995880127,12|0,0:1|0:0,0:0:0:0:
469,339,155032,1,8,0:0:0:0:
301,313,155201,2,0,P|344:297|388:290,1,89.9999972534181,10|0,0:1|0:0,0:0:0:0:
330,75,155538,2,0,P|367:100|409:117,1,89.9999972534181,10|8,0:1|0:0,0:0:0:0:
236,175,155875,6,0,B|158:167|182:207|106:201,1,134.999995880127,14|0,0:1|0:0,0:0:0:0:
107,202,156212,2,0,B|112:152|86:115,1,89.9999972534181,10|8,0:1|0:0,0:0:0:0:
16,360,156549,6,0,B|36:296|115:274|162:313,1,179.999994506836,14|8,0:1|0:1,0:0:0:0:
200,328,156971,1,8,0:1:0:0:
240,328,157055,1,8,0:0:0:0:
280,312,157139,1,4,0:3:0:0:
304,280,157223,1,4,0:3:0:0:
312,240,157308,1,4,0:3:0:0:
304,200,157392,1,14,0:1:0:0:
304,200,157729,6,0,B|254:208|219:177,1,89.9999972534181,8|2,0:0|0:0,0:0:0:0:
272,16,158066,2,0,L|283:105,1,89.9999972534181,10|8,0:1|0:1,0:0:0:0:
283,105,158319,1,8,0:1:0:0:
283,105,158403,1,8,0:0:0:0:
384,144,158572,1,2,0:0:0:0:
219,178,158740,6,0,B|147:114|50:136,1,179.999994506836,10|10,0:1|0:0,0:0:0:0:
131,295,159246,2,0,B|86:294|47:323,1,89.9999972534181,2|8,0:0|0:1,0:0:0:0:
47,323,159583,1,10,0:1:0:0:
205,359,159752,6,0,B|233:321|220:274,1,89.9999972534181,8|8,0:0|0:1,0:0:0:0:
219,273,160004,1,8,0:1:0:0:
219,273,160089,2,0,B|323:251|275:315|392:288,1,179.999994506836,10|8,0:1|0:0,0:0:0:0:
510,142,160594,5,8,0:1:0:0:
510,142,160679,1,8,0:1:0:0:
510,142,160763,1,10,0:1:0:0:
426,169,160931,1,8,0:1:0:0:
360,109,161100,1,8,0:0:0:0:
192,32,161268,6,0,L|59:56,1,134.999995880127,12|0,0:1|0:0,0:0:0:0:
45,58,161605,1,10,0:1:0:0:
32,160,161774,1,10,0:0:0:0:
256,112,161943,6,0,L|231:244,1,134.999995880127,10|0,0:1|0:0,0:0:0:0:
230,259,162280,1,8,0:1:0:0:
248,384,162448,2,0,B|276:348|329:355,1,89.9999972534181,8|8,0:0|0:1,0:0:0:0:
328,354,162701,1,8,0:1:0:0:
328,354,162785,6,0,B|230:373|160:312,1,179.999994506836,12|10,0:1|0:0,0:0:0:0:
120,141,163291,2,0,L|31:159,1,89.9999972534181,2|8,0:1|0:1,0:0:0:0:
256,112,163628,2,0,L|344:93,1,89.9999972534181,10|8,0:1|0:0,0:0:0:0:
251,338,163965,6,0,B|187:314|172:234|203:186,1,179.999994506836,12|8,0:1|0:1,0:0:0:0:
403,170,164471,2,0,B|455:171|486:141,1,89.9999972534181,10|8,0:0|0:1,0:0:0:0:
485,141,164723,1,8,0:1:0:0:
485,141,164808,2,0,B|497:188|470:226,1,89.9999972534181,10|8,0:1|0:1,0:0:0:0:
371,74,165145,2,0,B|323:86|304:129,1,89.9999972534181,10|8,0:0|0:1,0:0:0:0:
192,256,165482,5,14,0:0:0:0:
160,112,165650,1,8,0:1:0:0:
196,278,165819,5,10,0:0:0:0:
154,88,165987,1,8,0:1:0:0:
32,200,166156,5,10,0:0:0:0:
45,196,166240,1,8,0:1:0:0:
56,203,166325,1,8,0:1:0:0:
69,200,166409,1,8,0:1:0:0:
80,208,166493,2,0,L|168:193,1,89.9999972534181,10|8,0:0|0:1,0:0:0:0:
168,193,166746,1,8,0:1:0:0:
168,193,166830,5,14,0:0:0:0:
212,38,166999,2,0,B|173:15|173:15|129:26,1,89.9999972534181,2|8,0:0|0:1,0:0:0:0:
256,224,167336,6,0,L|433:192,1,179.999994506836,12|8,0:0|0:0,0:0:0:0:
472,200,167757,1,8,0:0:0:0:
499,229,167841,1,8,0:3:0:0:
498,277,167926,1,8,0:3:0:0:
476,314,168010,1,4,0:3:0:0:
434,323,168094,1,4,0:3:0:0:
396,308,168179,1,12,0:1:0:0:
396,308,168516,6,0,P|352:313|314:335,1,89.9999972534181,8|2,0:0|0:0,0:0:0:0:
224,216,168853,2,0,P|182:294|176:384,1,179.999994506836,10|8,0:1|0:0,0:0:0:0:
144,287,169358,2,0,P|99:288|54:279,1,89.9999972534181,2|8,0:0|0:1,0:0:0:0:
232,208,169695,2,0,P|276:208|321:199,1,89.9999972534181,10|8,0:1|0:0,0:0:0:0:
152,16,170032,6,0,P|128:72|136:144,1,134.999995880127,10|0,0:1|0:0,0:0:0:0:
144,160,170370,1,8,0:1:0:0:
296,88,170538,2,0,B|344:88|381:110,1,89.9999972534181,8|8,0:0|0:1,0:0:0:0:
480,264,170875,1,10,0:1:0:0:
480,264,171212,5,8,0:0:0:0:
376,280,171381,1,2,0:0:0:0:
328,368,171549,2,0,P|261:355|194:346,1,134.999995880127,10|0,0:1|0:0,0:0:0:0:
194,346,171886,1,8,0:0:0:0:
0,240,172055,6,0,P|73:190|161:196,1,179.999994506836,12|10,0:1|0:1,0:0:0:0:
256,256,172561,1,10,0:0:0:0:
368,112,172729,2,0,P|301:116|251:159,1,134.999995880127,12|0,0:1|0:0,0:0:0:0:
246,172,173066,1,8,0:1:0:0:
152,24,173235,2,0,P|107:24|64:11,1,89.9999972534181,8|8,0:0|0:0,0:0:0:0:
64,11,173487,1,8,0:0:0:0:
64,11,173572,6,0,B|95:119|28:71|61:185,1,179.999994506836,14|8,0:1|0:0,0:0:0:0:
102,348,174077,1,2,0:0:0:0:
216,280,174246,2,0,B|182:246|133:250,1,89.9999972534181,10|8,0:1|0:1,0:0:0:0:
134,250,174499,1,8,0:1:0:0:
134,250,174583,1,8,0:0:0:0:
248,264,174752,1,8,0:1:0:0:
317,192,174920,6,0,P|332:149|330:105,1,89.9999972534181,10|0,0:1|0:0,0:0:0:0:
221,174,175257,2,0,P|219:129|234:87,1,89.9999972534181,10|0,0:0|0:0,0:0:0:0:
357,272,175594,6,0,P|391:243|412:203,1,89.9999972534181,2|8,0:0|0:1,0:0:0:0:
195,8,175931,2,0,P|160:36|139:76,1,89.9999972534181,10|8,0:0|0:1,0:0:0:0:
134,88,176184,1,8,0:1:0:0:
131,101,176268,6,0,L|42:87,1,89.9999972534181,12|8,0:0|0:1,0:0:0:0:
42,87,176521,1,8,0:1:0:0:
42,87,176605,1,10,0:0:0:0:
80,224,176774,2,0,P|85:202|84:179,2,44.999998626709,8|8|10,0:1|0:1|0:0,0:0:0:0:
233,87,177111,5,8,0:1:0:0:
250,90,177195,1,8,0:1:0:0:
268,94,177280,1,10,0:0:0:0:
384,184,177448,1,8,0:0:0:0:
401,181,177532,1,8,0:0:0:0:
419,177,177617,2,0,L|405:265,1,89.9999972534181,12|8,0:0|0:1,0:0:0:0:
391,353,177954,5,8,0:1:0:0:
352,104,178122,1,10,0:0:0:0:
352,104,178459,6,0,L|307:97,1,44.999998626709,8|0,0:0|0:0,0:0:0:0:
200,16,178628,2,0,B|120:32|173:63|89:85,1,134.999995880127,10|0,0:0|0:0,0:0:0:0:
3,57,178965,6,0,B|38:77|89:85|89:85|65:127|59:169,1,179.999994506836,14|10,0:1|0:0,0:0:0:0:
105,293,179471,1,8,0:1:0:0:
102,301,179555,1,8,0:1:0:0:
100,309,179639,2,0,B|65:282|14:290,1,89.9999972534181,10|8,0:1|0:1,0:0:0:0:
151,380,179976,1,8,0:0:0:0:
153,216,180145,6,0,B|231:226|259:290,1,134.999995880127,10|0,0:1|0:0,0:0:0:0:
258,289,180482,2,0,L|270:199,1,89.9999972534181,10|8,0:1|0:0,0:0:0:0:
424,0,180819,6,0,P|450:85|453:175,1,179.999994506836,10|8,0:1|0:1,0:0:0:0:
256,128,181325,2,0,B|304:124|340:98,1,89.9999972534181,8|8,0:0|0:1,0:0:0:0:
340,99,181577,1,8,0:1:0:0:
340,99,181662,2,0,B|336:143|356:187,1,89.9999972534181,10|0,0:1|0:0,0:0:0:0:
496,368,181999,6,2,B|384:296|361:392|237:323,1,269.999991760254,10|8,0:2|0:1,0:1:0:0:
100,220,182673,2,0,P|62:243|17:246,1,89.9999972534181,8|2,0:0|0:0,0:0:0:0:
17,247,182926,1,2,0:0:0:0:
17,247,183010,2,0,P|13:291|27:333,1,89.9999972534181,10|8,0:1|0:1,0:0:0:0:
144,304,183347,1,8,0:0:0:0:
31,157,183516,6,0,B|132:171|194:103,1,179.999994506836,10|8,0:1|0:1,0:0:0:0:
336,240,184021,2,0,L|425:227,1,89.9999972534181,8|8,0:0|0:0,0:0:0:0:
426,227,184274,1,8,0:0:0:0:
426,227,184358,6,0,P|461:145|447:57,1,179.999994506836,12|8,0:1|0:0,0:0:0:0:
360,80,184864,1,10,0:1:0:0:
224,16,185032,5,2,0:0:0:0:
256,144,185201,1,10,0:1:0:0:
128,176,185370,1,8,0:0:0:0:
96,48,185538,1,2,0:0:0:0:
120,186,185707,5,10,0:1:0:0:
266,150,185875,1,10,0:1:0:0:
230,4,186044,1,8,0:0:0:0:
84,40,186213,1,2,0:0:0:0:
176,96,186381,5,10,0:1:0:0:
252,236,186549,2,0,B|277:196|265:149,1,89.9999972534181,8|8,0:1|0:0,0:0:0:0:
154,360,186886,5,8,0:1:0:0:
154,360,186971,1,8,0:1:0:0:
154,360,187055,2,0,P|101:318|35:313,1,134.999995880127,10|0,0:1|0:0,0:0:0:0:
35,313,187392,2,0,L|124:299,1,89.9999972534181,10|0,0:0|0:0,0:0:0:0:
356,271,187729,6,0,L|346:329,1,44.999998626709,10|0,0:1|0:0,0:0:0:0:
256,368,187898,2,0,L|271:279,1,89.9999972534181,8|8,0:1|0:0,0:0:0:0:
152,224,188235,6,0,B|93:262|21:238|5:177,1,179.999994506836,14|8,0:1|0:1,0:0:0:0:
256,120,188740,2,0,P|299:106|343:98,1,89.9999972534181,8|2,0:0|0:0,0:0:0:0:
392,304,189077,2,0,P|348:317|304:325,1,89.9999972534181,10|8,0:1|0:1,0:0:0:0:
112,204,189414,5,8,0:0:0:0:
68,202,189499,1,8,0:0:0:0:
36,231,189583,1,8,0:0:0:0:
27,276,189667,1,8,0:0:0:0:
44,318,189752,6,14,B|92:361|208:365|264:308|184:261|243:91|410:116|487:248|430:374|273:372|223:317|183:192|256:120,1,719.999978027344,14|8,0:1|0:1,0:1:0:0:
192,32,191268,5,2,0:0:0:0:
112,48,191437,1,8,0:0:0:0:
32,64,191605,1,2,0:0:0:0:
68,212,191774,6,0,P|79:169|83:124,1,89.9999972534181,10|2,0:1|0:0,0:0:0:0:
256,144,192111,2,0,P|244:187|240:232,1,89.9999972534181,10|2,0:0|0:0,0:0:0:0:
246,244,192364,1,2,0:0:0:0:
251,256,192448,6,0,B|321:187|416:224,1,179.999994506836,10|8,0:1|0:0,0:0:0:0:
288,368,192954,1,2,0:0:0:0:
275,364,193038,1,2,0:0:0:0:
262,360,193122,2,0,L|173:374,1,89.9999972534181,8|2,0:1|0:0,0:0:0:0:
96,176,193459,1,8,0:0:0:0:
0,256,193628,6,0,B|64:325|165:287,1,179.999994506836,10|10,0:1|0:1,0:0:0:0:
309,225,194134,1,8,0:0:0:0:
241,62,194302,6,0,L|223:195,1,134.999995880127,10|0,0:1|0:0,0:0:0:0:
221,210,194639,1,8,0:1:0:0:
376,296,194808,2,0,B|406:258|396:210,1,89.9999972534181,10|0,0:0|0:0,0:0:0:0:
384,24,195145,5,12,0:1:0:0:
472,8,195313,1,8,0:1:0:0:
376,112,195482,1,10,0:0:0:0:
496,136,195650,1,8,0:1:0:0:
336,192,195819,1,2,0:0:0:0:
456,264,195987,1,8,0:1:0:0:
256,256,196156,1,8,0:0:0:0:
344,368,196325,6,0,B|240:344|272:392|166:370,1,179.999994506836,12|8,0:1|0:1,0:0:0:0:
112,256,196830,2,0,L|24:276,1,89.9999972534181,8|8,0:0|0:1,0:0:0:0:
24,276,197083,1,8,0:1:0:0:
24,276,197167,2,0,P|2:237|1:192,1,89.9999972534181,10|8,0:1|0:1,0:0:0:0:
168,144,197504,2,0,P|189:182|190:227,1,89.9999972534181,8|8,0:0|0:1,0:0:0:0:
344,368,197841,6,0,L|476:343,1,134.999995880127,14|0,0:1|0:0,0:0:0:0:
490,340,198179,2,0,B|516:301|500:253,1,89.9999972534181,10|0,0:0|0:0,0:0:0:0:
440,168,198516,2,0,L|448:123,2,44.999998626709,8|8|8,0:1|0:1|0:1,0:0:0:0:
464,48,198853,1,8,0:0:0:0:
500,253,199021,6,0,P|424:207|337:223,1,179.999994506836,12|10,0:1|0:1,0:0:0:0:
216,336,199527,2,0,L|127:322,1,89.9999972534181,8|8,0:0|0:1,0:0:0:0:
116,312,199780,1,0,3:0:0:0:
117,298,199864,1,8,0:0:0:0:
109,286,199948,1,0,3:0:0:0:
112,273,200032,1,8,3:1:0:0:
105,261,200117,1,0,3:0:0:0:
108,248,200201,1,12,0:0:0:0:
74,57,200370,5,8,0:1:0:0:
74,57,200454,1,8,0:0:0:0:
74,57,200539,1,10,0:0:0:0:
24,184,200707,1,8,0:1:0:0:
160,163,200875,1,10,0:0:0:0:
364,244,201044,5,8,0:1:0:0:
364,244,201128,1,8,0:1:0:0:
364,244,201212,2,0,L|336:209,1,44.999998626709,10|0,0:0|0:0,0:0:0:0:
334,27,201381,2,0,L|317:69,1,44.999998626709,8|0,0:1|0:0,0:0:0:0:
160,163,201549,2,0,L|204:157,1,44.999998626709,8|0,0:1|0:0,0:0:0:0:
286,145,201718,5,14,0:1:0:0:
256,192,201802,12,2,203235,0:0:0:0:
336,26,210650,6,0,L|342:62,1,37.5,8|0,0:3|0:0,0:0:0:0:
448,160,210819,1,8,0:1:0:0:
446,171,210903,1,8,0:1:0:0:
444,182,210987,2,0,B|383:175|346:224,1,112.5,12|0,0:0|0:0,0:0:0:0:
345,224,211325,6,0,L|211:203,1,134.999995880127,14|0,0:1|0:0,0:0:0:0:
198,201,211662,1,8,0:0:0:0:
168,56,211830,1,10,0:1:0:0:
307,300,212167,1,10,0:1:0:0:
51,184,212504,1,10,0:1:0:0:
326,128,212841,1,10,0:1:0:0:
136,335,213178,1,10,0:1:0:0:
136,335,213516,6,0,L|91:326,1,44.999998626709,10|8,0:1|0:1,0:0:0:0:
51,184,213684,1,8,0:0:0:0:
88,160,213768,1,8,0:0:0:0:
133,160,213853,1,8,0:0:0:0:
173,184,213937,1,8,0:0:0:0:
192,224,214021,6,0,B|291:232|359:171,1,179.999994506836,14|8,0:1|0:0,0:0:0:0:
400,96,214527,1,2,0:0:0:0:
488,240,214695,2,0,B|472:280|472:328,1,89.9999972534181,10|8,0:1|0:1,0:0:0:0:
471,328,214948,1,8,0:1:0:0:
471,328,215032,1,8,0:0:0:0:
392,384,215201,1,2,0:0:0:0:
224,336,215370,6,0,B|288:272|392:296,1,179.999994506836,10|10,0:1|0:0,0:0:0:0:
256,144,215875,2,0,B|296:160|344:160,1,89.9999972534181,2|8,0:0|0:1,0:0:0:0:
168,216,216212,5,10,0:1:0:0:
144,96,216381,1,8,0:0:0:0:
24,120,216549,1,8,0:1:0:0:
48,240,216718,1,10,0:1:0:0:
48,240,217055,6,0,B|86:266|94:314,1,89.9999972534181,8|8,0:0|0:1,0:0:0:0:
101,321,217308,1,8,0:1:0:0:
101,321,217392,2,0,L|189:305,1,89.9999972534181,10|8,0:1|0:1,0:0:0:0:
376,272,217729,1,8,0:0:0:0:
264,384,217898,6,0,P|251:297|305:227,1,179.999994506836,12|10,0:1|0:1,0:0:0:0:
144,56,218403,1,10,0:0:0:0:
216,0,218572,2,0,P|269:69|257:156,1,179.999994506836,10|8,0:1|0:1,0:0:0:0:
261,160,218993,1,8,0:1:0:0:
265,164,219077,2,0,L|176:150,1,89.9999972534181,14|0,0:0|0:0,0:0:0:0:
16,288,219414,6,0,P|79:266|146:265,1,134.999995880127,12|0,0:1|0:0,0:0:0:0:
146,265,219752,1,10,0:0:0:0:
320,359,219920,2,0,P|333:317|337:272,1,89.9999972534181,2|8,0:1|0:1,0:0:0:0:
193,62,220257,2,0,P|179:104|175:149,1,89.9999972534181,10|8,0:1|0:0,0:0:0:0:
423,279,220594,6,0,P|353:225|265:222,1,179.999994506836,12|8,0:1|0:1,0:0:0:0:
0,161,221100,2,0,B|42:161|87:140,1,89.9999972534181,10|8,0:0|0:1,0:0:0:0:
87,140,221353,1,8,0:1:0:0:
87,140,221437,2,0,L|74:229,1,89.9999972534181,10|8,0:1|0:1,0:0:0:0:
184,376,221774,2,0,L|196:286,1,89.9999972534181,10|8,0:0|0:1,0:0:0:0:
216,64,222111,5,14,0:0:0:0:
344,40,222280,1,8,0:1:0:0:
360,168,222448,5,10,0:0:0:0:
208,152,222617,1,8,0:1:0:0:
195,286,222785,5,10,0:0:0:0:
376,256,222953,1,8,0:1:0:0:
392,368,223122,6,0,P|349:354|304:351,1,89.9999972534181,10|8,0:0|0:1,0:0:0:0:
304,351,223375,1,8,0:1:0:0:
304,351,223459,1,14,0:0:0:0:
136,216,223628,2,0,P|92:225|51:245,1,89.9999972534181,10|8,0:1|0:1,0:0:0:0:
215,63,223965,6,0,P|277:91|343:97,1,134.999995880127,12|0,0:0|0:0,0:0:0:0:
356,92,224302,2,0,L|400:100,1,44.999998626709,8|8,0:0|0:0,0:0:0:0:
481,184,224471,5,8,0:3:0:0:
489,209,224555,1,8,0:3:0:0:
481,234,224639,1,4,0:3:0:0:
490,259,224723,1,4,0:3:0:0:
480,284,224808,1,12,0:1:0:0:
480,284,225145,6,0,B|432:288|409:333,1,89.9999972534181,8|2,0:0|0:0,0:0:0:0:
256,384,225482,2,0,B|208:336|216:259,1,134.999995880127,10|0,0:1|0:0,0:0:0:0:
224,248,225819,1,8,0:0:0:0:
104,120,225987,6,0,B|64:144|16:137,1,89.9999972534181,2|8,0:0|0:1,0:0:0:0:
48,304,226325,2,0,B|88:280|135:286,1,89.9999972534181,10|8,0:1|0:0,0:0:0:0:
232,64,226662,6,0,B|302:127|400:100,1,179.999994506836,10|8,0:1|0:1,0:0:0:0:
400,100,227167,2,0,L|387:192,1,89.9999972534181,8|8,0:0|0:1,0:0:0:0:
464,344,227504,1,10,0:1:0:0:
464,344,227841,5,8,0:0:0:0:
384,304,228010,1,2,0:0:0:0:
384,304,228094,1,2,0:0:0:0:
384,304,228179,2,0,L|288:320,1,89.9999972534181,10|8,0:1|0:1,0:0:0:0:
120,344,228516,5,8,0:0:0:0:
200,376,228684,2,0,B|270:360|288:280|241:236,1,179.999994506836,12|10,0:1|0:1,0:0:0:0:
112,192,229190,2,0,L|98:103,1,89.9999972534181,10|12,0:0|0:1,0:0:0:0:
98,103,229443,1,8,0:1:0:0:
98,103,229527,6,0,L|142:108,1,44.999998626709,8|8,0:0|0:1,0:0:0:0:
208,24,229695,2,0,L|252:18,1,44.999998626709,8|8,0:1|0:1,0:0:0:0:
368,208,229864,5,8,0:0:0:0:
441,68,230032,1,8,0:0:0:0:
441,68,230117,1,8,0:0:0:0:
441,68,230201,2,0,B|337:100|367:207,1,179.999994506836,14|8,0:1|0:0,0:0:0:0:
464,288,230707,1,2,0:0:0:0:
352,368,230875,6,0,P|307:360|262:359,1,89.9999972534181,10|8,0:1|0:1,0:0:0:0:
262,359,231128,1,8,0:1:0:0:
262,359,231212,2,0,L|274:269,1,89.9999972534181,8|8,0:0|0:1,0:0:0:0:
136,88,231549,6,0,B|96:112|49:104,1,89.9999972534181,10|0,0:1|0:0,0:0:0:0:
224,200,231886,2,0,B|264:176|310:183,1,89.9999972534181,10|0,0:0|0:0,0:0:0:0:
148,0,232223,6,0,L|135:89,1,89.9999972534181,2|8,0:0|0:1,0:0:0:0:
211,289,232561,2,0,L|223:199,1,89.9999972534181,10|0,0:0|0:0,0:0:0:0:
96,240,232898,6,0,B|64:216|9:222,1,89.9999972534181,12|8,0:0|0:1,0:0:0:0:
10,223,233150,1,8,0:1:0:0:
10,223,233235,1,10,0:0:0:0:
104,376,233403,1,8,0:1:0:0:
136,368,233487,1,8,0:1:0:0:
168,360,233572,1,10,0:0:0:0:
304,264,233740,2,0,L|352:272,2,44.999998626709,8|8|10,0:1|0:1|0:0,0:0:0:0:
224,120,234077,5,8,0:0:0:0:
232,88,234161,1,8,0:0:0:0:
240,55,234246,2,0,P|174:72|107:73,1,134.999995880127,12|0,0:0|0:0,0:0:0:0:
107,73,234583,1,8,0:1:0:0:
312,168,234752,2,0,P|355:157|399:156,1,89.9999972534181,10|0,0:0|0:0,0:0:0:0:
204,266,235089,5,8,0:1:0:0:
207,279,235173,1,8,0:1:0:0:
211,289,235257,2,0,L|122:275,1,90,10|10,0:0|0:1,0:0:0:0:
122,275,235594,6,0,P|185:312|219:378,1,150,14|10,0:1|0:0,0:0:0:0:
368,312,236100,2,0,P|403:301|435:281,1,75,2|8,0:1|0:1,0:0:0:0:
268,212,236437,2,0,P|279:176|300:145,1,75,10|8,0:1|0:0,0:0:0:0:
505,258,236774,6,0,P|430:254|364:220,1,150,10|8,0:1|0:1,0:0:0:0:
228,172,237280,2,0,L|154:186,1,75,8|2,0:0|0:0,0:0:0:0:
154,186,237532,1,2,0:0:0:0:
154,186,237617,1,10,0:1:0:0:
268,212,237785,1,8,0:1:0:0:
328,120,237954,2,0,L|315:46,1,75,10|0,0:0|0:0,0:0:0:0:
208,272,238291,6,0,P|222:326|230:382,1,112.5,10|0,0:1|0:0,0:0:0:0:
230,382,238628,1,10,0:0:0:0:
338,280,238796,2,0,P|327:317|322:354,1,75,2|8,0:0|0:1,0:0:0:0:
120,304,239134,2,0,P|130:267|135:230,1,75,10|8,0:1|0:0,0:0:0:0:
15,63,239471,6,0,P|90:63|159:35,1,150,14|8,0:1|0:1,0:0:0:0:
264,159,239976,2,0,P|226:160|191:147,1,75,8|2,0:0|0:0,0:0:0:0:
191,147,240229,1,2,0:0:0:0:
191,147,240313,1,10,0:1:0:0:
328,104,240482,1,8,0:1:0:0:
400,216,240650,2,0,P|434:203|472:203,1,75,12|2,0:2|0:0,0:0:0:0:
344,352,240987,5,12,0:1:0:0:
318,217,241156,1,8,0:1:0:0:
183,243,241325,1,8,0:0:0:0:
209,377,241493,1,14,0:1:0:0:
209,377,241830,5,10,0:1:0:0:
158,195,241998,1,8,0:0:0:0:
338,242,242167,2,0,B|424:232|455:161,1,150,14|8,0:1|0:1,0:0:0:0:
368,64,242673,6,0,L|294:77,1,75,10|8,0:0|0:1,0:0:0:0:
294,77,242926,1,8,0:1:0:0:
294,77,243010,2,0,L|256:71,1,37.5,10|8,0:1|0:0,0:0:0:0:
160,32,243179,1,8,0:1:0:0:
160,32,243263,2,0,L|168:72,1,37.5,10|12,0:1|0:0,0:0:0:0:
112,128,243431,1,8,0:1:0:0:
112,128,243516,2,0,L|120:168,1,37.5,10|8,0:1|0:1,0:0:0:0:
40,232,243684,5,12,0:1:0:0:
25,325,243853,1,8,0:1:0:0:
162,350,244021,1,8,0:0:0:0:
176,256,244190,1,8,0:0:0:0:
40,232,244358,5,8,0:0:0:0:
18,93,244527,1,8,0:0:0:0:
236,56,244695,1,8,0:0:0:0:
257,194,244864,1,8,0:0:0:0:
176,256,245032,6,0,B|200:288|236:284|256:272|256:272|276:284|312:288|336:256,1,180,12|8,0:1|0:1,0:0:0:0:
160,172,245707,1,8,0:0:0:0:
352,172,245875,1,8,0:0:0:0:
100,109,246212,6,0,B|73:65|119:0|119:0|187:24|189:93|189:93|210:65|256:52|301:65|322:93|322:93|324:24|392:0|392:0|438:65|407:116|407:116|486:187|461:311|398:311|397:366|397:366|390:335|390:335|382:300|341:282|314:320|321:348|321:348|328:378|328:378|311:356|311:356|255:374|172:374|100:359|42:271|79:174,1,1500,14|0,0:1|0:0,0:0:0:0:
