osu file format v14

[General]
AudioFilename: audio.mp3
AudioLeadIn: 0
PreviewTime: 56941
Countdown: 0
SampleSet: Soft
StackLeniency: 0.7
Mode: 3
LetterboxInBreaks: 0
SpecialStyle: 0
WidescreenStoryboard: 1

[Editor]
DistanceSpacing: 0.3
BeatDivisor: 4
GridSize: 8
TimelineZoom: 1.7

[Metadata]
Title:Crying Heart
TitleUnicode:クライングハート
Artist:Iris December Uncry (CV: Hanazono Mei), Noel the Nextseason (CV: Ameba Tsukasa)
ArtistUnicode:アイリス・ディセンバー・アンクライ (CV: 花園めい)、ノエル・ザ・ネクストシーズン (CV: 雨場つかさ)
Creator:Muse Dash
Version:Crying Memory
Source:ノラと皇女と野良猫ハート2 -Nora, Princess, and Crying Cat.-
Tags:Drum-Hitnormal dudehacker Nora to Oujo to Noraneko Heart 2 noratoto Harukaze galgame visual novel op opening short version japanese eroge video game pop jpop j-pop
BeatmapID:2342548
BeatmapSetID:1113841

[Difficulty]
HPDrainRate:8
CircleSize:4
OverallDifficulty:8
ApproachRate:5
SliderMultiplier:1.4
SliderTickRate:1

[Events]
//Background and Video events
0,0,"EV_011_47_2A.jpg",0,0
//Break Periods
//Storyboard Layer 0 (Background)
//Storyboard Layer 1 (Fail)
//Storyboard Layer 2 (Pass)
//Storyboard Layer 3 (Foreground)
//Storyboard Layer 4 (Overlay)
//Storyboard Sound Samples

[TimingPoints]
986,337.078651685393,4,2,1,70,1,0
33345,-111.111111111111,4,2,1,70,0,0
42615,-100,4,2,1,70,0,0
57615,-100,4,2,1,70,0,1
68064,-100,4,2,1,70,0,0
68401,-100,4,2,1,70,0,1
79188,-100,4,2,1,70,0,0
79525,-100,4,2,1,70,0,1
89974,-100,4,2,1,70,0,0

[HitObjects]
64,192,480,5,0,0:0:0:0:
192,192,648,1,0,0:0:0:0:
448,192,817,1,0,0:0:0:0:
320,192,929,1,0,0:0:0:0:
64,192,986,1,0,0:0:0:0:
192,192,986,1,0,0:0:0:0:
448,192,1323,1,0,0:0:0:0:
192,192,1491,1,0,0:0:0:0:
64,192,1828,1,0,0:0:0:0:
320,192,1828,1,0,0:0:0:0:
192,192,2109,1,0,0:0:0:0:
320,192,2165,1,0,0:0:0:0:
448,192,2165,1,0,0:0:0:0:
448,192,2839,1,0,0:0:0:0:
448,192,3008,1,0,0:0:0:0:
320,192,3177,1,0,0:0:0:0:
64,192,3345,1,0,0:0:0:0:
192,192,3345,1,0,0:0:0:0:
64,192,3598,1,0,0:0:0:0:
320,192,3682,1,0,0:0:0:0:
448,192,3682,1,0,0:0:0:0:
192,192,4019,1,0,0:0:0:0:
320,192,4188,1,0,0:0:0:0:
64,192,4525,1,0,0:0:0:0:
448,192,4525,1,0,0:0:0:0:
192,192,4834,1,0,0:0:0:0:
320,192,4862,1,0,0:0:0:0:
448,192,4862,1,0,0:0:0:0:
192,192,5536,1,8,0:0:0:0:
320,192,5620,1,8,0:0:0:0:
64,192,5705,1,8,0:0:0:0:
448,192,5705,1,0,0:0:0:0:
320,192,5873,1,0,0:0:0:70:Tom1.wav
192,192,6042,1,0,0:0:0:70:Tom2.wav
64,192,6210,1,0,0:0:0:70:Tom3.wav
320,192,6379,1,2,0:0:0:0:
448,192,6379,1,0,0:0:0:0:
64,192,6547,1,8,0:0:0:0:
192,192,6547,1,0,0:0:0:0:
192,192,6716,1,8,0:0:0:0:
320,192,6716,1,0,0:0:0:0:
64,192,6884,1,2,0:0:0:0:
320,192,6884,1,4,0:0:0:0:
448,192,6884,1,0,0:0:0:0:
64,192,7221,1,8,0:0:0:0:
320,192,7221,1,0,0:0:0:0:
192,192,7390,1,8,0:0:0:0:
320,192,7390,1,0,0:0:0:0:
64,192,7559,1,2,0:0:0:0:
192,192,7559,1,4,0:0:0:0:
448,192,7559,1,0,0:0:0:0:
320,192,8233,1,8,0:0:0:0:
448,192,8233,1,0,0:0:0:0:
320,192,8401,1,8,0:0:0:0:
448,192,8401,1,0,0:0:0:0:
64,192,8654,1,0,0:0:0:70:Tom1.wav
192,192,8907,1,0,0:0:0:70:Tom2.wav
320,192,9075,1,2,0:0:0:0:
448,192,9075,1,4,0:0:0:0:
64,192,9244,1,8,0:0:0:30:
192,192,9244,1,0,0:0:0:0:
64,192,9412,1,8,0:0:0:30:
192,192,9412,1,0,0:0:0:0:
320,192,9581,1,8,0:0:0:50:
448,192,9581,1,0,0:0:0:0:
320,192,9750,1,8,0:0:0:50:
448,192,9750,1,0,0:0:0:0:
64,192,9918,1,8,0:0:0:0:
192,192,9918,1,0,0:0:0:0:
64,192,10087,1,8,0:0:0:0:
192,192,10087,1,0,0:0:0:0:
320,192,10255,1,8,0:0:0:0:
448,192,10255,1,0,0:0:0:0:
64,192,10424,1,8,0:0:0:0:
192,192,10424,1,4,0:0:0:0:
448,192,10424,128,0,11266:0:0:0:0:
192,192,11266,1,2,0:0:0:0:
320,192,11351,1,2,0:0:0:0:
64,192,11435,1,4,0:0:0:0:
192,192,11435,1,8,0:0:0:0:
448,192,11435,1,0,0:0:0:0:
192,192,11772,1,2,0:0:0:0:
320,192,11772,1,0,0:0:0:0:
192,192,12109,1,8,0:0:0:0:
448,192,12109,1,0,0:0:0:0:
320,192,12446,1,2,0:0:0:0:
448,192,12446,1,0,0:0:0:0:
320,192,12615,1,2,0:0:0:0:
64,192,12783,1,8,0:0:0:0:
192,192,12783,1,0,0:0:0:0:
320,192,12952,1,2,0:0:0:0:
448,192,12952,1,0,0:0:0:0:
64,192,13120,1,0,0:0:0:0:
320,192,13289,1,2,0:0:0:0:
192,192,13457,1,8,0:0:0:0:
448,192,13457,1,0,0:0:0:0:
64,192,13626,1,0,0:0:0:0:
192,192,13794,1,2,0:0:0:0:
320,192,13794,1,0,0:0:0:0:
192,192,13963,1,2,0:0:0:0:
64,192,14132,1,8,0:0:0:0:
448,192,14132,1,0,0:0:0:0:
320,192,14300,1,0,0:0:0:0:
64,192,14469,1,2,0:0:0:0:
192,192,14469,1,0,0:0:0:0:
448,192,14637,1,0,0:0:0:0:
192,192,14806,1,8,0:0:0:0:
320,192,14806,1,0,0:0:0:0:
64,192,14974,1,0,0:0:0:0:
192,192,15059,1,0,0:0:0:0:
320,192,15143,1,2,0:0:0:0:
320,192,15311,1,2,0:0:0:0:
448,192,15311,1,0,0:0:0:0:
64,192,15480,1,8,0:0:0:0:
192,192,15480,1,0,0:0:0:0:
320,192,15648,1,2,0:0:0:0:
448,192,15648,1,0,0:0:0:0:
64,192,15817,1,0,0:0:0:0:
192,192,15985,1,2,0:0:0:0:
64,192,16154,1,8,0:0:0:0:
320,192,16154,1,0,0:0:0:0:
448,192,16323,1,0,0:0:0:0:
320,192,16407,1,0,0:0:0:0:
64,192,16491,1,2,0:0:0:0:
192,192,16491,1,0,0:0:0:0:
64,192,16660,1,2,0:0:0:0:
192,192,16828,1,8,0:0:0:0:
320,192,16828,1,0,0:0:0:0:
448,192,16997,1,0,0:0:0:0:
64,192,17165,1,2,0:0:0:0:
320,192,17165,1,0,0:0:0:0:
192,192,17334,1,0,0:0:0:0:
64,192,17502,1,8,0:0:0:0:
448,192,17502,1,0,0:0:0:0:
320,192,17671,1,0,0:0:0:0:
64,192,17839,1,2,0:0:0:0:
64,192,18008,1,2,0:0:0:0:
192,192,18008,1,0,0:0:0:0:
320,192,18177,1,8,0:0:0:0:
448,192,18177,1,0,0:0:0:0:
64,192,18345,1,2,0:0:0:0:
192,192,18345,1,0,0:0:0:0:
448,192,18514,1,0,0:0:0:0:
320,192,18682,1,2,0:0:0:0:
192,192,18851,1,8,0:0:0:0:
448,192,18851,1,0,0:0:0:0:
64,192,19019,1,0,0:0:0:0:
448,192,19188,1,2,0:0:0:0:
320,192,19356,1,2,0:0:0:0:
448,192,19356,1,0,0:0:0:0:
64,192,19525,1,8,0:0:0:0:
192,192,19525,1,0,0:0:0:0:
320,192,19693,1,0,0:0:0:0:
64,192,19862,1,2,0:0:0:0:
448,192,19862,1,0,0:0:0:0:
64,192,20199,1,8,0:0:0:0:
320,192,20199,1,0,0:0:0:0:
192,192,20536,1,2,0:0:0:0:
448,192,20536,1,0,0:0:0:0:
192,192,20705,1,2,0:0:0:0:
64,192,20873,1,8,0:0:0:0:
448,192,20873,1,0,0:0:0:0:
320,192,21042,1,0,0:0:0:0:
64,192,21210,1,2,0:0:0:0:
192,192,21210,1,4,0:0:0:0:
448,192,21210,1,0,0:0:0:0:
320,192,21379,1,0,0:0:0:0:
64,192,21547,1,8,0:0:0:0:
192,192,21547,1,0,0:0:0:0:
64,192,21716,1,2,0:0:0:0:
320,192,21716,1,4,0:0:0:0:
448,192,21716,1,0,0:0:0:0:
64,192,22053,1,8,0:0:0:0:
192,192,22053,1,0,0:0:0:0:
192,192,22221,1,8,0:0:0:0:
320,192,22221,1,0,0:0:0:0:
320,192,22390,1,8,0:0:0:0:
448,192,22390,1,0,0:0:0:0:
64,192,22559,1,4,0:0:0:0:
192,192,22559,1,2,0:0:0:0:
448,192,22559,1,0,0:0:0:0:
192,192,22896,1,8,0:0:0:0:
320,192,22896,1,0,0:0:0:0:
64,192,23233,1,2,0:0:0:0:
192,192,23233,1,0,0:0:0:0:
192,192,23401,1,2,0:0:0:0:
320,192,23570,1,8,0:0:0:0:
448,192,23570,1,0,0:0:0:0:
64,192,23738,1,2,0:0:0:0:
192,192,23738,1,0,0:0:0:0:
448,192,23907,1,0,0:0:0:0:
192,192,24075,1,2,0:0:0:0:
64,192,24244,1,8,0:0:0:0:
320,192,24244,1,0,0:0:0:0:
448,192,24412,1,0,0:0:0:0:
192,192,24581,1,2,0:0:0:0:
320,192,24581,1,0,0:0:0:0:
320,192,24750,1,2,0:0:0:0:
64,192,24918,1,8,0:0:0:0:
448,192,24918,1,0,0:0:0:0:
192,192,25087,1,0,0:0:0:0:
320,192,25255,1,2,0:0:0:0:
448,192,25255,1,0,0:0:0:0:
64,192,25424,1,0,0:0:0:0:
192,192,25592,1,8,0:0:0:0:
320,192,25592,1,0,0:0:0:0:
448,192,25761,1,0,0:0:0:0:
320,192,25845,1,0,0:0:0:0:
192,192,25929,1,2,0:0:0:0:
64,192,26098,1,2,0:0:0:0:
192,192,26098,1,0,0:0:0:0:
320,192,26266,1,8,0:0:0:0:
448,192,26266,1,0,0:0:0:0:
64,192,26435,1,2,0:0:0:0:
192,192,26435,1,0,0:0:0:0:
448,192,26603,1,0,0:0:0:0:
320,192,26772,1,2,0:0:0:0:
192,192,26941,1,8,0:0:0:0:
448,192,26941,1,0,0:0:0:0:
64,192,27109,1,0,0:0:0:0:
192,192,27193,1,0,0:0:0:0:
320,192,27278,1,2,0:0:0:0:
448,192,27278,1,0,0:0:0:0:
448,192,27446,1,2,0:0:0:0:
192,192,27615,1,8,0:0:0:0:
320,192,27615,1,0,0:0:0:0:
64,192,27783,1,0,0:0:0:0:
192,192,27952,1,2,0:0:0:0:
448,192,27952,1,0,0:0:0:0:
320,192,28120,1,0,0:0:0:0:
64,192,28289,1,8,0:0:0:0:
448,192,28289,1,0,0:0:0:0:
192,192,28457,1,0,0:0:0:0:
448,192,28626,1,2,0:0:0:0:
320,192,28794,1,2,0:0:0:0:
448,192,28794,1,0,0:0:0:0:
64,192,28963,1,8,0:0:0:0:
192,192,28963,1,0,0:0:0:0:
320,192,29132,1,2,0:0:0:0:
448,192,29132,1,0,0:0:0:0:
64,192,29300,1,0,0:0:0:0:
192,192,29469,1,2,0:0:0:0:
64,192,29637,1,8,0:0:0:0:
320,192,29637,1,0,0:0:0:0:
448,192,29806,1,0,0:0:0:0:
64,192,29974,1,2,0:0:0:0:
64,192,30143,1,2,0:0:0:0:
192,192,30143,1,0,0:0:0:0:
320,192,30311,1,8,0:0:0:0:
448,192,30311,1,0,0:0:0:0:
192,192,30480,1,0,0:0:0:0:
64,192,30648,1,2,0:0:0:0:
320,192,30648,1,4,0:0:0:0:
448,192,30648,1,0,0:0:0:0:
192,192,30985,1,8,0:0:0:0:
448,192,30985,1,0,0:0:0:0:
64,192,31323,1,2,0:0:0:0:
320,192,31323,1,0,0:0:0:0:
320,192,31491,1,2,0:0:0:0:
64,192,31660,1,8,0:0:0:0:
192,192,31660,1,0,0:0:0:0:
320,192,31828,1,0,0:0:0:0:
64,192,31997,1,4,0:0:0:0:
192,192,31997,1,2,0:0:0:0:
448,192,31997,1,0,0:0:0:0:
64,192,32165,1,0,0:0:0:70:Tom2.wav
320,192,32165,1,0,0:0:0:0:
320,192,32334,1,0,0:0:0:70:Tom3.wav
448,192,32334,1,0,0:0:0:0:
64,192,32502,1,4,0:0:0:0:
192,192,32502,1,2,0:0:0:0:
448,192,32502,1,0,0:0:0:0:
320,192,32839,1,8,0:0:0:0:
448,192,32839,1,0,0:0:0:0:
192,192,33008,1,0,0:0:0:70:Tom2.wav
320,192,33008,1,0,0:0:0:0:
64,192,33177,1,0,0:0:0:70:Tom1.wav
192,192,33177,1,0,0:0:0:0:
64,192,33345,1,4,0:0:0:0:
320,192,33345,1,2,0:0:0:0:
448,192,33345,1,0,0:0:0:0:
320,192,33682,1,0,0:0:0:70:Tom2.wav
192,192,33851,1,2,0:0:0:0:
64,192,34019,1,8,0:0:0:0:
448,192,34019,1,0,0:0:0:0:
320,192,34356,1,0,0:0:0:0:
64,192,34525,1,2,0:0:0:0:
192,192,34525,1,0,0:0:0:0:
320,192,34693,1,0,0:0:0:0:
448,192,34693,1,0,0:0:0:0:
192,192,34862,1,2,0:0:0:0:
64,192,35030,1,0,0:0:0:0:
448,192,35199,1,2,0:0:0:0:
192,192,35368,1,8,0:0:0:0:
320,192,35368,1,0,0:0:0:0:
64,192,35705,1,0,0:0:0:0:
448,192,35873,1,2,0:0:0:0:
192,192,36042,1,2,0:0:0:0:
448,192,36042,1,0,0:0:0:0:
320,192,36379,1,0,0:0:0:0:
192,192,36547,1,2,0:0:0:0:
64,192,36716,1,8,0:0:0:0:
448,192,36716,1,0,0:0:0:0:
448,192,37053,1,0,0:0:0:0:
64,192,37221,1,2,0:0:0:0:
192,192,37221,1,0,0:0:0:0:
320,192,37390,1,0,0:0:0:0:
192,192,37559,1,2,0:0:0:0:
448,192,37559,1,0,0:0:0:0:
64,192,37727,1,0,0:0:0:0:
320,192,37896,1,2,0:0:0:0:
448,192,37896,1,0,0:0:0:0:
64,192,38064,1,8,0:0:0:0:
192,192,38064,1,0,0:0:0:0:
448,192,38401,1,0,0:0:0:0:
64,192,38738,1,2,0:0:0:0:
320,192,38738,1,0,0:0:0:0:
448,192,39075,1,0,0:0:0:0:
192,192,39244,1,2,0:0:0:0:
320,192,39244,1,0,0:0:0:0:
64,192,39412,1,8,0:0:0:0:
448,192,39412,1,0,0:0:0:0:
192,192,39750,1,0,0:0:0:0:
320,192,39918,1,2,0:0:0:0:
448,192,39918,1,0,0:0:0:0:
64,192,40087,1,0,0:0:0:0:
192,192,40087,1,0,0:0:0:0:
320,192,40255,1,2,0:0:0:0:
448,192,40424,1,0,0:0:0:0:
64,192,40592,1,2,0:0:0:0:
192,192,40761,1,8,0:0:0:0:
320,192,40761,1,0,0:0:0:0:
448,192,41098,1,0,0:0:0:0:
192,192,41266,1,2,0:0:0:0:
320,192,41266,1,0,0:0:0:0:
64,192,41435,1,2,0:0:0:0:
192,192,41435,1,0,0:0:0:0:
320,192,41772,1,0,0:0:0:0:
64,192,41941,1,2,0:0:0:0:
320,192,42109,1,8,0:0:0:0:
448,192,42109,1,0,0:0:0:0:
192,192,42278,1,0,0:0:0:0:
320,192,42446,1,0,0:0:0:0:
64,192,42615,1,2,0:0:0:0:
192,192,42615,1,4,0:0:0:0:
448,192,42615,1,0,0:0:0:0:
64,192,42952,1,8,0:0:0:0:
320,192,42952,1,0,0:0:0:0:
64,192,43120,1,8,0:0:0:0:
320,192,43120,1,0,0:0:0:0:
448,192,43289,1,2,0:0:0:0:
320,192,43373,1,2,0:0:0:0:
192,192,43457,1,8,0:0:0:0:
448,192,43542,1,8,0:0:0:0:
320,192,43626,1,2,0:0:0:0:
192,192,43710,1,2,0:0:0:0:
64,192,43794,1,8,0:0:0:0:
320,192,43794,1,4,0:0:0:0:
448,192,43794,1,0,0:0:0:0:
64,192,44132,1,4,0:0:0:0:
192,192,44132,1,2,0:0:0:0:
448,192,44132,1,0,0:0:0:0:
320,192,44300,1,0,0:0:0:0:
64,192,44469,1,8,0:0:0:0:
192,192,44469,1,0,0:0:0:0:
448,192,44637,1,0,0:0:0:0:
64,192,44806,1,2,0:0:0:0:
192,192,44806,1,0,0:0:0:0:
192,192,44974,1,2,0:0:0:0:
320,192,45143,1,8,0:0:0:0:
448,192,45143,1,0,0:0:0:0:
64,192,45311,1,2,0:0:0:0:
192,192,45311,1,0,0:0:0:0:
320,192,45480,1,0,0:0:0:0:
448,192,45648,1,2,0:0:0:0:
64,192,45817,1,8,0:0:0:0:
192,192,45817,1,0,0:0:0:0:
448,192,45985,1,0,0:0:0:0:
64,192,46154,1,2,0:0:0:0:
320,192,46154,1,0,0:0:0:0:
64,192,46323,1,2,0:0:0:0:
192,192,46491,1,8,0:0:0:0:
448,192,46491,1,0,0:0:0:0:
320,192,46660,1,0,0:0:0:0:
64,192,46828,1,2,0:0:0:0:
192,192,46828,1,4,0:0:0:0:
448,192,46828,1,0,0:0:0:0:
320,192,46997,1,0,0:0:0:0:
64,192,47165,1,8,0:0:0:0:
192,192,47165,1,0,0:0:0:0:
448,192,47334,1,0,0:0:0:0:
192,192,47502,1,2,0:0:0:0:
320,192,47502,1,0,0:0:0:0:
192,192,47671,1,2,0:0:0:0:
64,192,47839,1,8,0:0:0:0:
448,192,47839,1,0,0:0:0:0:
64,192,48008,1,2,0:0:0:0:
192,192,48008,1,4,0:0:0:0:
320,192,48008,1,0,0:0:0:0:
320,192,48345,1,2,0:0:0:0:
192,192,48514,1,8,0:0:0:0:
448,192,48514,1,0,0:0:0:0:
64,192,48682,1,0,0:0:0:0:
320,192,48851,1,2,0:0:0:0:
448,192,48851,1,0,0:0:0:0:
320,192,49019,1,2,0:0:0:0:
64,192,49188,1,8,0:0:0:0:
192,192,49188,1,0,0:0:0:0:
64,192,49356,1,2,0:0:0:0:
320,192,49356,1,4,0:0:0:0:
448,192,49356,1,0,0:0:0:0:
192,192,49693,1,2,0:0:0:0:
64,192,49862,1,8,0:0:0:0:
448,192,49862,1,0,0:0:0:0:
320,192,50030,1,0,0:0:0:0:
192,192,50199,1,2,0:0:0:0:
448,192,50199,1,0,0:0:0:0:
64,192,50368,1,0,0:0:0:0:
320,192,50536,1,8,0:0:0:0:
448,192,50536,1,0,0:0:0:0:
64,192,50705,1,2,0:0:0:0:
192,192,50705,1,4,0:0:0:0:
448,192,50705,1,0,0:0:0:0:
320,192,51042,1,2,0:0:0:0:
64,192,51210,1,8,0:0:0:0:
448,192,51210,1,0,0:0:0:0:
320,192,51379,1,0,0:0:0:0:
64,192,51547,1,2,0:0:0:0:
64,192,51716,1,2,0:0:0:0:
192,192,51716,1,0,0:0:0:0:
320,192,51884,1,8,0:0:0:0:
448,192,51884,1,0,0:0:0:0:
192,192,52053,1,0,0:0:0:0:
64,192,52221,1,2,0:0:0:0:
320,192,52221,1,4,0:0:0:0:
448,192,52221,1,0,0:0:0:0:
192,192,52559,1,8,0:0:0:0:
320,192,52559,1,0,0:0:0:0:
448,192,52727,1,0,0:0:0:0:
192,192,52896,1,2,0:0:0:0:
64,192,53064,1,2,0:0:0:0:
192,192,53064,1,0,0:0:0:0:
320,192,53233,1,8,0:0:0:0:
448,192,53233,1,0,0:0:0:0:
64,192,53401,1,2,0:0:0:0:
192,192,53401,1,4,0:0:0:0:
448,192,53401,1,0,0:0:0:0:
64,192,53738,1,2,0:0:0:0:
320,192,53907,1,8,0:0:0:0:
448,192,53907,1,0,0:0:0:0:
192,192,54075,1,0,0:0:0:0:
64,192,54244,1,2,0:0:0:0:
320,192,54244,1,0,0:0:0:0:
320,192,54412,1,2,0:0:0:0:
64,192,54581,1,8,0:0:0:0:
192,192,54581,1,0,0:0:0:0:
64,192,54750,1,2,0:0:0:0:
320,192,54750,1,4,0:0:0:0:
448,192,54750,1,0,0:0:0:0:
64,192,55087,1,8,0:0:0:0:
192,192,55087,1,0,0:0:0:0:
64,192,55255,1,8,0:0:0:0:
192,192,55255,1,0,0:0:0:0:
320,192,55424,1,2,0:0:0:0:
448,192,55424,1,4,0:0:0:0:
64,192,55592,1,8,0:0:0:0:
192,192,55677,1,8,0:0:0:0:
320,192,55761,1,8,0:0:0:0:
448,192,55845,1,8,0:0:0:0:
64,192,55929,1,8,0:0:0:0:
192,192,55929,1,0,0:0:0:0:
64,192,56098,1,2,0:0:0:0:
320,192,56098,1,4,0:0:0:0:
448,192,56098,1,0,0:0:0:0:
64,192,56435,1,2,0:0:0:0:
320,192,56435,1,4,0:0:0:0:
448,192,56435,1,0,0:0:0:0:
64,192,56603,1,2,0:0:0:0:
320,192,56603,1,4,0:0:0:0:
448,192,56603,1,0,0:0:0:0:
64,192,56772,1,2,0:0:0:0:
320,192,56772,1,4,0:0:0:0:
448,192,56772,1,0,0:0:0:0:
192,192,57109,1,2,0:0:0:0:
320,192,57193,1,2,0:0:0:0:
64,192,57278,1,8,0:0:0:0:
192,192,57278,1,4,0:0:0:0:
448,192,57278,1,0,0:0:0:0:
320,192,57446,1,0,0:0:0:0:
64,192,57615,1,2,0:0:0:0:
192,192,57615,1,4,0:0:0:0:
448,192,57615,1,0,0:0:0:0:
320,192,57952,1,8,0:0:0:0:
448,192,57952,1,0,0:0:0:0:
192,192,58120,1,0,0:0:0:0:
64,192,58289,1,2,0:0:0:0:
320,192,58289,1,0,0:0:0:0:
320,192,58457,1,2,0:0:0:0:
192,192,58626,1,8,0:0:0:0:
448,192,58626,1,0,0:0:0:0:
320,192,58794,1,0,0:0:0:0:
64,192,58963,1,2,0:0:0:0:
448,192,58963,1,0,0:0:0:0:
64,192,59132,1,2,0:0:0:0:
192,192,59300,1,8,0:0:0:0:
448,192,59300,1,0,0:0:0:0:
64,192,59469,1,2,0:0:0:0:
320,192,59469,1,0,0:0:0:0:
448,192,59637,1,0,0:0:0:0:
192,192,59806,1,2,0:0:0:0:
320,192,59806,1,0,0:0:0:0:
64,192,59974,1,8,0:0:0:0:
448,192,59974,1,0,0:0:0:0:
192,192,60143,1,0,0:0:0:0:
64,192,60311,1,2,0:0:0:0:
320,192,60311,1,0,0:0:0:0:
192,192,60480,1,0,0:0:0:0:
320,192,60648,1,8,0:0:0:0:
448,192,60648,1,0,0:0:0:0:
64,192,60817,1,0,0:0:0:0:
192,192,60985,1,2,0:0:0:0:
320,192,60985,1,0,0:0:0:0:
320,192,61154,1,2,0:0:0:0:
64,192,61323,1,8,0:0:0:0:
448,192,61323,1,0,0:0:0:0:
192,192,61491,1,2,0:0:0:0:
320,192,61491,1,0,0:0:0:0:
448,192,61660,1,0,0:0:0:0:
64,192,61828,1,2,0:0:0:0:
320,192,61828,1,0,0:0:0:0:
192,192,61997,1,8,0:0:0:0:
448,192,61997,1,0,0:0:0:0:
64,192,62165,1,0,0:0:0:0:
448,192,62334,1,2,0:0:0:0:
64,192,62502,1,2,0:0:0:0:
192,192,62671,1,8,0:0:0:0:
448,192,62671,1,0,0:0:0:0:
320,192,62839,1,0,0:0:0:0:
64,192,63008,1,2,0:0:0:0:
192,192,63008,1,4,0:0:0:0:
448,192,63008,1,0,0:0:0:0:
192,192,63345,1,8,0:0:0:0:
320,192,63345,1,0,0:0:0:0:
448,192,63514,1,0,0:0:0:0:
192,192,63682,1,2,0:0:0:0:
64,192,63851,1,2,0:0:0:0:
192,192,63851,1,0,0:0:0:0:
320,192,64019,1,8,0:0:0:0:
448,192,64019,1,0,0:0:0:0:
64,192,64188,1,2,0:0:0:0:
192,192,64188,1,0,0:0:0:0:
448,192,64356,1,0,0:0:0:0:
64,192,64525,1,2,0:0:0:0:
192,192,64693,1,8,0:0:0:0:
320,192,64693,1,0,0:0:0:0:
448,192,64862,1,0,0:0:0:0:
64,192,65030,1,2,0:0:0:0:
192,192,65030,1,0,0:0:0:0:
192,192,65199,1,2,0:0:0:0:
64,192,65368,1,8,0:0:0:0:
448,192,65368,1,0,0:0:0:0:
320,192,65536,1,0,0:0:0:0:
64,192,65705,1,2,0:0:0:0:
192,192,65705,1,4,0:0:0:0:
448,192,65705,1,0,0:0:0:0:
192,192,66042,1,8,0:0:0:0:
320,192,66042,1,0,0:0:0:0:
64,192,66210,1,2,0:0:0:0:
448,192,66210,1,0,0:0:0:0:
320,192,66547,1,2,0:0:0:0:
448,192,66547,1,0,0:0:0:0:
64,192,66716,1,8,0:0:0:0:
192,192,66716,1,0,0:0:0:0:
64,192,66884,1,2,0:0:0:0:
320,192,66884,1,4,0:0:0:0:
448,192,66884,1,0,0:0:0:0:
64,192,67221,1,2,0:0:0:0:
192,192,67221,1,0,0:0:0:0:
320,192,67390,1,8,0:0:0:0:
448,192,67390,1,0,0:0:0:0:
64,192,67559,1,2,0:0:0:0:
192,192,67559,1,4,0:0:0:0:
448,192,67559,1,0,0:0:0:0:
64,192,67896,1,2,0:0:0:0:
192,192,67980,1,2,0:0:0:0:
320,192,68064,1,8,0:0:0:0:
448,192,68148,1,8,0:0:0:0:
192,192,68233,1,0,0:0:0:70:Tom1.wav
320,192,68317,1,0,0:0:0:70:Tom2.wav
64,192,68401,1,2,0:0:0:0:
192,192,68401,1,4,0:0:0:0:
448,192,68401,1,0,0:0:0:0:
192,192,68738,1,8,0:0:0:0:
320,192,68738,1,0,0:0:0:0:
64,192,68907,1,0,0:0:0:0:
192,192,69075,1,2,0:0:0:0:
448,192,69075,1,0,0:0:0:0:
192,192,69244,1,2,0:0:0:0:
64,192,69412,1,8,0:0:0:0:
448,192,69412,1,0,0:0:0:0:
192,192,69581,1,0,0:0:0:0:
64,192,69750,1,2,0:0:0:0:
320,192,69750,1,0,0:0:0:0:
320,192,69918,1,2,0:0:0:0:
192,192,70087,1,8,0:0:0:0:
448,192,70087,1,0,0:0:0:0:
64,192,70255,1,2,0:0:0:0:
320,192,70255,1,0,0:0:0:0:
192,192,70424,1,0,0:0:0:0:
64,192,70592,1,2,0:0:0:0:
448,192,70592,1,0,0:0:0:0:
192,192,70761,1,8,0:0:0:0:
320,192,70761,1,0,0:0:0:0:
448,192,70929,1,0,0:0:0:0:
64,192,71098,1,2,0:0:0:0:
192,192,71098,1,0,0:0:0:0:
320,192,71266,1,0,0:0:0:0:
192,192,71435,1,8,0:0:0:0:
448,192,71435,1,0,0:0:0:0:
320,192,71603,1,0,0:0:0:0:
64,192,71772,1,2,0:0:0:0:
448,192,71772,1,0,0:0:0:0:
64,192,71941,1,2,0:0:0:0:
192,192,72109,1,8,0:0:0:0:
320,192,72109,1,0,0:0:0:0:
64,192,72278,1,2,0:0:0:0:
320,192,72278,1,4,0:0:0:0:
448,192,72278,1,0,0:0:0:0:
64,192,72615,1,2,0:0:0:0:
320,192,72615,1,0,0:0:0:0:
192,192,72783,1,8,0:0:0:0:
448,192,72783,1,0,0:0:0:0:
64,192,72952,1,2,0:0:0:0:
320,192,72952,1,0,0:0:0:0:
192,192,73120,1,0,0:0:0:0:
320,192,73289,1,2,0:0:0:0:
192,192,73373,1,2,0:0:0:0:
64,192,73457,1,8,0:0:0:0:
320,192,73457,1,4,0:0:0:0:
448,192,73457,1,0,0:0:0:0:
192,192,73626,1,0,0:0:0:0:
64,192,73794,1,2,0:0:0:0:
320,192,73794,1,4,0:0:0:0:
448,192,73794,1,0,0:0:0:0:
192,192,74132,1,8,0:0:0:0:
448,192,74132,1,0,0:0:0:0:
320,192,74300,1,0,0:0:0:0:
64,192,74469,1,2,0:0:0:0:
192,192,74469,1,0,0:0:0:0:
64,192,74637,1,2,0:0:0:0:
192,192,74637,1,0,0:0:0:0:
320,192,74806,1,8,0:0:0:0:
448,192,74806,1,0,0:0:0:0:
64,192,74974,1,2,0:0:0:0:
192,192,74974,1,4,0:0:0:0:
448,192,74974,1,0,0:0:0:0:
64,192,75311,1,2,0:0:0:0:
320,192,75480,1,8,0:0:0:0:
448,192,75480,1,0,0:0:0:0:
192,192,75648,1,0,0:0:0:0:
64,192,75817,1,2,0:0:0:0:
448,192,75817,1,0,0:0:0:0:
64,192,75985,1,2,0:0:0:0:
192,192,76154,1,8,0:0:0:0:
448,192,76154,1,0,0:0:0:0:
320,192,76323,1,0,0:0:0:0:
64,192,76491,1,8,0:0:0:0:
192,192,76491,1,4,0:0:0:0:
448,192,76491,1,0,0:0:0:0:
320,192,76660,1,2,0:0:0:0:
64,192,76828,1,8,0:0:0:0:
448,192,76828,1,0,0:0:0:0:
192,192,76997,1,2,0:0:0:0:
320,192,76997,1,0,0:0:0:0:
64,192,77165,1,8,0:0:0:0:
448,192,77165,1,0,0:0:0:0:
320,192,77334,1,2,0:0:0:0:
64,192,77502,1,8,0:0:0:0:
448,192,77502,1,0,0:0:0:0:
192,192,77671,1,2,0:0:0:0:
64,192,77839,1,4,0:0:0:0:
320,192,77839,1,8,0:0:0:0:
448,192,77839,1,0,0:0:0:0:
192,192,78008,1,2,0:0:0:0:
192,192,78177,1,2,0:0:0:0:
64,192,78345,1,8,0:0:0:0:
320,192,78345,1,4,0:0:0:0:
448,192,78345,1,0,0:0:0:0:
448,192,78682,1,8,0:0:0:0:
320,192,78766,1,8,0:0:0:0:
192,192,78851,1,0,0:0:0:70:Tom1.wav
64,192,78935,1,0,0:0:0:70:Tom1.wav
320,192,79019,1,0,0:0:0:70:Tom2.wav
192,192,79103,1,0,0:0:0:70:Tom3.wav
64,192,79188,1,2,0:0:0:0:
320,192,79188,1,4,0:0:0:0:
448,192,79188,1,0,0:0:0:0:
64,192,79525,1,8,0:0:0:0:
192,192,79525,1,0,0:0:0:0:
448,192,79693,1,0,0:0:0:0:
192,192,79862,1,2,0:0:0:0:
320,192,79862,1,0,0:0:0:0:
320,192,80030,1,2,0:0:0:0:
64,192,80199,1,8,0:0:0:0:
192,192,80199,1,0,0:0:0:0:
320,192,80368,1,2,0:0:0:0:
448,192,80368,1,0,0:0:0:0:
192,192,80536,1,0,0:0:0:0:
64,192,80705,1,2,0:0:0:0:
320,192,80705,1,0,0:0:0:0:
192,192,80873,1,8,0:0:0:0:
448,192,80873,1,0,0:0:0:0:
320,192,81042,1,0,0:0:0:0:
64,192,81210,1,2,0:0:0:0:
448,192,81210,1,0,0:0:0:0:
64,192,81379,1,2,0:0:0:0:
192,192,81547,1,8,0:0:0:0:
320,192,81547,1,0,0:0:0:0:
448,192,81716,1,0,0:0:0:0:
64,192,81884,1,2,0:0:0:0:
192,192,81884,1,0,0:0:0:0:
320,192,82053,1,0,0:0:0:0:
64,192,82221,1,8,0:0:0:0:
448,192,82221,1,0,0:0:0:0:
320,192,82390,1,0,0:0:0:0:
64,192,82559,1,2,0:0:0:0:
192,192,82559,1,0,0:0:0:0:
192,192,82727,1,2,0:0:0:0:
320,192,82896,1,8,0:0:0:0:
448,192,82896,1,0,0:0:0:0:
64,192,83064,1,2,0:0:0:0:
192,192,83064,1,4,0:0:0:0:
448,192,83064,1,0,0:0:0:0:
64,192,83401,1,2,0:0:0:0:
320,192,83401,1,0,0:0:0:0:
192,192,83570,1,8,0:0:0:0:
448,192,83570,1,0,0:0:0:0:
64,192,83738,1,2,0:0:0:0:
320,192,83738,1,4,0:0:0:0:
448,192,83738,1,0,0:0:0:0:
192,192,84075,1,2,0:0:0:0:
320,192,84160,1,2,0:0:0:0:
64,192,84244,1,8,0:0:0:0:
192,192,84244,1,4,0:0:0:0:
448,192,84244,1,0,0:0:0:0:
320,192,84412,1,0,0:0:0:0:
64,192,84581,1,2,0:0:0:0:
192,192,84581,1,4,0:0:0:0:
448,192,84581,1,0,0:0:0:0:
192,192,84918,1,8,0:0:0:0:
320,192,84918,1,0,0:0:0:0:
64,192,85087,1,0,0:0:0:0:
192,192,85255,1,2,0:0:0:0:
448,192,85255,1,0,0:0:0:0:
448,192,85424,1,2,0:0:0:0:
64,192,85592,1,8,0:0:0:0:
192,192,85592,1,0,0:0:0:0:
320,192,85761,1,0,0:0:0:0:
64,192,85929,1,2,0:0:0:0:
448,192,85929,1,0,0:0:0:0:
64,192,86098,1,2,0:0:0:0:
192,192,86266,1,8,0:0:0:0:
320,192,86266,1,0,0:0:0:0:
448,192,86435,1,2,0:0:0:0:
64,192,86603,1,0,0:0:0:0:
448,192,86772,1,2,0:0:0:0:
64,192,86941,1,8,0:0:0:0:
320,192,86941,1,0,0:0:0:0:
192,192,87109,1,0,0:0:0:0:
64,192,87278,1,8,0:0:0:0:
320,192,87278,1,4,0:0:0:0:
448,192,87278,1,0,0:0:0:0:
192,192,87446,1,2,0:0:0:0:
64,192,87530,1,2,0:0:0:0:
320,192,87615,1,8,0:0:0:0:
448,192,87615,1,0,0:0:0:0:
192,192,87783,1,2,0:0:0:0:
64,192,87868,1,2,0:0:0:0:
320,192,87952,1,8,0:0:0:0:
448,192,87952,1,0,0:0:0:0:
192,192,88120,1,2,0:0:0:0:
64,192,88205,1,2,0:0:0:0:
320,192,88289,1,8,0:0:0:0:
448,192,88289,1,0,0:0:0:0:
192,192,88457,1,2,0:0:0:0:
64,192,88542,1,2,0:0:0:0:
320,192,88626,1,8,0:0:0:0:
448,192,88626,1,0,0:0:0:0:
64,192,88963,1,8,0:0:0:0:
320,192,88963,1,0,0:0:0:0:
64,192,89132,1,8,0:0:0:0:
320,192,89132,1,0,0:0:0:0:
192,192,89469,1,2,0:0:0:0:
320,192,89553,1,2,0:0:0:0:
64,192,89637,1,8,0:0:0:0:
192,192,89637,1,4,0:0:0:0:
448,192,89637,1,0,0:0:0:0:
320,192,89806,1,0,0:0:0:0:
64,192,89974,1,2,0:0:0:0:
192,192,89974,1,4,0:0:0:0:
448,192,89974,1,0,0:0:0:0:
192,192,90311,1,8,0:0:0:0:
320,192,90311,1,0,0:0:0:0:
64,192,90480,1,0,0:0:0:0:
448,192,90648,1,2,0:0:0:0:
320,192,90817,1,2,0:0:0:0:
448,192,90817,1,0,0:0:0:0:
64,192,90985,1,8,0:0:0:0:
192,192,90985,1,0,0:0:0:0:
448,192,91154,1,2,0:0:0:0:
64,192,91323,1,0,0:0:0:0:
448,192,91491,1,2,0:0:0:0:
64,192,91660,1,8,0:0:0:0:
320,192,91660,1,0,0:0:0:0:
192,192,91828,1,0,0:0:0:0:
320,192,91997,1,2,0:0:0:0:
448,192,91997,1,0,0:0:0:0:
320,192,92165,1,2,0:0:0:0:
192,192,92334,1,8,0:0:0:0:
448,192,92334,1,0,0:0:0:0:
64,192,92671,1,2,0:0:0:0:
192,192,92671,1,0,0:0:0:0:
320,192,92839,1,0,0:0:0:0:
192,192,93008,1,8,0:0:0:0:
448,192,93008,1,0,0:0:0:0:
320,192,93177,1,0,0:0:0:0:
64,192,93345,1,2,0:0:0:0:
64,192,93514,1,2,0:0:0:0:
192,192,93514,1,0,0:0:0:0:
320,192,93682,1,8,0:0:0:0:
448,192,93682,1,0,0:0:0:0:
64,192,93851,1,2,0:0:0:0:
192,192,93851,1,4,0:0:0:0:
448,192,93851,1,0,0:0:0:0:
64,192,94188,1,2,0:0:0:0:
192,192,94356,1,8,0:0:0:0:
320,192,94356,1,0,0:0:0:0:
448,192,94525,1,0,0:0:0:0:
320,192,94609,1,0,0:0:0:0:
64,192,94693,1,2,0:0:0:0:
192,192,94693,1,0,0:0:0:0:
192,192,94862,1,2,0:0:0:0:
64,192,95030,1,8,0:0:0:0:
320,192,95030,1,4,0:0:0:0:
448,192,95030,1,0,0:0:0:0:
192,192,95199,1,0,0:0:0:0:
64,192,95368,1,2,0:0:0:0:
320,192,95368,1,4,0:0:0:0:
448,192,95368,1,0,0:0:0:0:
192,192,95536,1,2,0:0:0:0:
448,192,95536,1,0,0:0:0:0:
64,192,95705,1,8,0:0:0:0:
320,192,95705,1,0,0:0:0:0:
64,192,95873,1,2,0:0:0:0:
192,192,95873,1,4,0:0:0:0:
448,192,95873,1,0,0:0:0:0:
64,192,96210,1,2,0:0:0:0:
192,192,96210,1,0,0:0:0:0:
320,192,96379,1,8,0:0:0:0:
448,192,96379,1,0,0:0:0:0:
64,192,96547,1,2,0:0:0:0:
192,192,96547,1,4,0:0:0:0:
448,192,96547,1,0,0:0:0:0:
320,192,96884,1,2,0:0:0:0:
64,192,97053,1,8,0:0:0:0:
448,192,97053,1,0,0:0:0:0:
192,192,97221,1,2,0:0:0:0:
64,192,97306,1,2,0:0:0:0:
320,192,97390,1,8,0:0:0:0:
448,192,97474,1,8,0:0:0:0:
192,192,97559,1,0,0:0:0:70:Tom2.wav
320,192,97643,1,0,0:0:0:70:Tom2.wav
64,192,97727,1,8,0:0:0:0:
192,192,97727,1,4,0:0:0:0:
448,192,97727,1,0,0:0:0:0:
64,192,97896,1,0,0:0:0:0:
320,192,98064,1,8,0:0:0:30:
448,192,98064,1,0,0:0:0:0:
320,192,98233,1,8,0:0:0:30:
448,192,98233,1,0,0:0:0:0:
320,192,98401,1,8,0:0:0:50:
448,192,98401,1,0,0:0:0:0:
64,192,98570,1,8,0:0:0:50:
192,192,98570,1,0,0:0:0:0:
64,192,98738,1,8,0:0:0:60:
192,192,98738,1,0,0:0:0:0:
64,192,98907,1,8,0:0:0:60:
192,192,98907,1,0,0:0:0:0:
320,192,99075,1,8,0:0:0:0:
448,192,99075,1,0,0:0:0:0:
320,192,99244,1,8,0:0:0:0:
448,192,99244,1,0,0:0:0:0:
64,192,99412,128,8,100087:0:0:0:0:
320,192,99412,1,4,0:0:0:0:
448,192,99412,1,0,0:0:0:0:
192,192,100087,1,8,0:0:0:0:
448,192,100087,1,0,0:0:0:0:
192,192,100255,1,8,0:0:0:0:
448,192,100255,1,0,0:0:0:0:
64,192,100592,1,8,0:0:0:0:
320,192,100592,1,4,0:0:0:0:
448,192,100592,128,0,104806:0:0:0:0:
