osu file format v14

[General]
AudioFilename: audio.ogg
AudioLeadIn: 0
PreviewTime: 60998
Countdown: 0
SampleSet: Soft
StackLeniency: 0.7
Mode: 0
LetterboxInBreaks: 0
WidescreenStoryboard: 0

[Editor]
Bookmarks: 88845,89066,89287,89508,89729,89950,90171,90613,90834,91055,91276
DistanceSpacing: 1.5
BeatDivisor: 4
GridSize: 32
TimelineZoom: 1.7

[Metadata]
Title:Igrushka
TitleUnicode:Игрушка
Artist:Irina Allegrova
ArtistUnicode:Ирина Аллегрова
Creator:dopaminos
Version:Plaything
Source:
Tags:суженый мой russian pop русский поп 90ые девяностые 90s Электроклуб midorijeon chaser01 defreeyay
BeatmapID:4250169
BeatmapSetID:2037767

[Difficulty]
HPDrainRate:5
CircleSize:4
OverallDifficulty:7
ApproachRate:8
SliderMultiplier:1.8
SliderTickRate:1

[Events]
//Background and Video events
0,0,"output (1).jpg",0,0
//Break Periods
//Storyboard Layer 0 (Background)
//Storyboard Layer 1 (Fail)
//Storyboard Layer 2 (Pass)
//Storyboard Layer 3 (Foreground)
//Storyboard Layer 4 (Overlay)
//Storyboard Sound Samples

[TimingPoints]
448,441.988950276243,4,2,1,50,1,0
5751,-133.333333333333,4,2,1,60,0,0
34039,-133.333333333333,4,2,1,50,0,0
60558,-250,4,2,1,50,0,0
61442,-133.333333333333,4,2,1,50,0,0
62326,-100,4,2,1,70,0,1
89729,-133.333333333333,4,2,1,70,0,0
91055,-100,4,2,1,70,0,0
92381,-117.647058823529,4,2,1,60,0,0
106525,-133.333333333333,4,2,1,50,0,0
133044,-250,4,2,1,50,0,0
133928,-133.333333333333,4,2,1,50,0,0
134812,-133.333333333333,4,2,1,70,0,1
135254,-100,4,2,1,70,0,1
164867,441.826215022091,4,2,1,60,1,0
164867,-117.647058823529,4,2,1,60,0,0
179005,-117.647058823529,4,2,1,60,0,1
179226,-117.647058823529,4,2,1,70,0,1
179447,-95.2380952380952,4,2,1,70,0,1
209049,-117.647058823529,4,2,1,70,0,0
209491,-117.647058823529,4,2,1,60,0,0
224100,-117.647058823529,4,2,1,60,0,0
224292,-117.647058823529,4,2,1,55,0,0
224984,-117.647058823529,4,2,1,55,0,0
225176,-117.647058823529,4,2,1,50,0,0
225868,-117.647058823529,4,2,1,50,0,0
226059,-117.647058823529,4,2,1,45,0,0
226753,-117.647058823529,4,2,1,45,0,0
227164,-117.647058823529,4,2,1,40,0,0
227637,-117.647058823529,4,2,1,40,0,0
227827,-117.647058823529,4,2,1,35,0,0
228521,-117.647058823529,4,2,1,35,0,0
228710,-117.647058823529,4,2,1,30,0,0
229405,-117.647058823529,4,2,1,30,0,0
229594,-117.647058823529,4,2,1,5,0,0

[Colours]
Combo1 : 208,198,185
Combo2 : 182,201,185
Combo3 : 177,177,205
Combo4 : 214,187,215

[HitObjects]
101,97,3099,6,0,P|149:51|215:52,1,135,2|0,2:0|0:0,0:0:0:0:
259,115,3541,2,0,L|249:212,1,90,2|2,2:0|2:0,0:0:0:0:
324,282,3983,5,0,0:0:0:0:
397,258,4204,1,0,0:0:0:0:
422,329,4425,1,0,0:0:0:0:
349,353,4646,1,0,0:0:0:0:
433,181,4867,5,0,1:2:0:0:
272,333,5088,1,0,1:2:0:0:
172,292,5309,1,2,1:2:0:0:
107,339,5530,1,2,2:0:0:0:
0,172,5751,6,0,P|8:240|0:308,1,135,0|2,3:2|1:2,0:0:0:0:
130,171,6414,1,2,2:0:0:0:
62,112,6635,1,0,3:2:0:0:
135,51,6856,2,0,P|168:56|202:57,1,67.5000000000002,2|0,2:0|1:2,0:0:0:0:
293,173,7298,1,2,2:0:0:0:
250,238,7519,2,0,P|247:271|250:305,1,67.5000000000002,0|2,3:2|2:0,0:0:0:0:
383,377,7961,5,2,1:2:0:0:
383,377,8403,1,2,3:2:0:0:
419,289,8624,1,2,2:0:0:0:
362,177,8845,1,2,1:2:0:0:
412,61,9066,1,2,2:0:0:0:
508,269,9287,6,0,P|500:202|506:135,1,135,0|2,3:2|1:2,0:0:0:0:
412,61,9950,2,0,L|345:72,1,67.5000000000002,2|0,2:0|3:2,0:0:0:0:
258,139,10392,1,2,2:0:0:0:
145,97,10613,1,0,1:2:0:0:
192,295,10834,2,0,P|262:280|325:292,1,135,2|2,2:0|2:0,0:0:0:0:
426,366,11497,5,2,1:2:0:0:
426,366,11939,2,0,L|442:295,1,67.5000000000002,2|2,3:2|2:0,0:0:0:0:
377,186,12381,1,2,1:2:0:0:
466,64,12602,1,2,2:0:0:0:
294,7,12823,6,0,P|227:15|160:20,1,135,0|2,3:2|1:2,0:0:0:0:
79,74,13486,1,2,2:0:0:0:
0,30,13707,1,0,3:2:0:0:
76,207,13928,2,0,P|122:204|156:194,1,67.5000000000002,2|0,2:0|1:2,0:0:0:0:
351,49,14370,6,0,P|283:46|217:32,1,135,2|0,2:0|0:0,0:0:0:0:
324,135,15033,1,2,1:2:0:0:
277,235,15254,2,0,P|238:231|205:232,1,67.5000000000002,2|2,2:0|3:2,0:0:0:0:
93,120,15696,2,0,P|126:120|160:116,1,67.5000000000002,2|0,2:0|1:2,0:0:0:0:
67,251,16138,1,2,2:0:0:0:
240,373,16359,6,0,P|244:340|240:303,2,67.5000000000002,0|2|2,3:2|2:0|1:2,0:0:0:0:
356,248,17243,1,2,3:2:0:0:
430,283,17464,1,2,2:0:0:0:
499,241,17685,2,0,P|496:201|497:169,1,67.5000000000002,0|2,1:2|2:0,0:0:0:0:
354,101,18127,5,2,3:2:0:0:
284,148,18348,1,2,2:0:0:0:
192,54,18569,2,0,P|149:56|113:51,1,67.5000000000002,2|0,1:2|3:2,0:0:0:0:
90,36,18901,1,0,3:2:0:0:
90,36,19011,1,0,3:2:0:0:
23,138,19232,1,0,0:0:0:0:
134,250,19453,2,0,P|96:251|58:246,1,67.5000000000002,2|2,1:2|1:2,0:0:0:0:
34,224,19785,5,0,1:2:0:0:
34,224,19895,2,0,P|40:291|38:358,1,135,0|2,3:2|1:2,0:0:0:0:
204,293,20558,1,2,2:0:0:0:
204,293,20779,2,0,L|272:311,1,67.5000000000002,0|2,3:2|2:0,0:0:0:0:
128,168,21221,1,0,1:2:0:0:
197,128,21442,2,0,P|256:134|337:126,1,135,2|2,2:0|2:0,0:0:0:0:
377,61,22105,5,2,1:2:0:0:
377,61,22547,1,2,3:2:0:0:
304,37,22768,1,2,2:0:0:0:
279,108,22989,1,2,1:2:0:0:
352,132,23210,1,2,2:0:0:0:
192,223,23431,6,0,P|190:298|196:367,1,135,0|2,3:2|1:2,0:0:0:0:
94,250,24094,1,2,2:0:0:0:
94,250,24315,2,0,P|96:291|93:321,1,67.5000000000002,0|2,3:2|2:0,0:0:0:0:
274,251,24757,1,0,1:2:0:0:
346,294,24978,1,2,2:0:0:0:
440,174,25199,6,0,P|479:179|510:175,2,67.5000000000002,0|2|2,3:2|2:0|1:2,0:0:0:0:
440,174,26083,2,0,L|454:102,1,67.5000000000002,2|2,3:2|2:0,0:0:0:0:
354,16,26525,1,2,1:2:0:0:
246,61,26746,1,2,2:0:0:0:
98,25,26967,6,0,P|100:92|98:161,1,135,0|2,3:2|1:2,0:0:0:0:
160,310,27630,1,2,2:0:0:0:
36,228,27851,1,0,3:2:0:0:
180,170,28072,2,0,L|252:179,1,67.5000000000002,2|0,2:0|1:2,0:0:0:0:
247,179,28514,1,2,2:0:0:0:
73,344,28735,6,0,P|115:308|196:311,1,135,0|2,3:2|1:2,0:0:0:0:
191,309,29398,1,2,2:0:0:0:
295,369,29619,1,2,3:2:0:0:
361,324,29840,2,0,P|363:290|360:257,1,67.5000000000002,2|0,2:0|1:2,0:0:0:0:
483,353,30282,1,2,2:0:0:0:
435,219,30503,5,0,3:2:0:0:
481,148,30724,1,2,2:0:0:0:
412,86,30945,2,0,P|379:87|345:85,1,67.5000000000002,2|0,1:2|0:0,0:0:0:0:
148,151,31387,1,2,3:2:0:0:
204,84,31608,2,0,P|237:85|271:83,1,67.5000000000002,2|0,2:0|1:2,0:0:0:0:
213,203,32050,5,2,2:0:0:0:
148,151,32271,1,2,3:2:0:0:
84,200,32492,1,2,2:0:0:0:
148,258,32713,2,0,P|150:293|148:329,1,67.5000000000002,2|0,1:2|0:0,0:0:0:0:
299,384,33155,1,2,3:2:0:0:
329,317,33376,1,2,2:0:0:0:
261,285,33597,1,2,1:2:0:0:
229,357,33818,5,2,2:0:0:0:
229,357,33928,1,0,0:0:0:0:
229,357,34039,2,0,P|173:362|92:358,1,135,2|2,3:2|1:2,0:0:0:0:
13,281,34923,2,0,P|14:247|12:212,1,67.5000000000002,2|2,3:2|2:0,0:0:0:0:
118,136,35365,1,2,1:2:0:0:
199,166,35586,1,2,2:0:0:0:
293,94,35807,6,0,P|326:95|360:91,1,67.5000000000002,0|2,3:2|2:0,0:0:0:0:
199,166,36249,1,2,1:2:0:0:
199,166,36691,2,0,L|210:236,1,67.5000000000002,2|2,3:2|2:0,0:0:0:0:
268,285,37133,1,0,1:2:0:0:
161,341,37354,5,2,2:0:0:0:
161,341,37464,1,0,0:0:0:0:
161,341,37575,2,0,B|77:331|98:374|25:387,1,135,2|2,3:2|1:2,0:0:0:0:
0,274,38459,2,0,P|2:238|1:203,1,67.5000000000002,2|2,3:2|2:0,0:0:0:0:
129,149,38901,2,0,P|128:182|130:216,1,67.5000000000002,2|2,1:2|2:0,0:0:0:0:
5,82,39343,5,0,3:2:0:0:
93,41,39564,1,2,2:0:0:0:
164,76,39785,1,2,1:2:0:0:
261,19,40006,1,0,3:2:0:0:
261,19,40116,1,0,3:2:0:0:
261,19,40227,2,0,P|294:23|329:19,1,67.5000025749208,2|2,3:2|2:0,0:0:0:0:
436,97,40668,1,0,1:2:0:0:
240,150,40889,5,2,1:2:0:0:
240,150,41000,1,0,1:2:0:0:
240,150,41110,2,0,P|240:217|235:284,1,135,2|2,3:2|1:2,0:0:0:0:
313,352,41994,6,0,L|391:366,1,67.5000000000002,2|2,3:2|2:0,0:0:0:0:
505,271,42436,1,2,1:2:0:0:
437,212,42657,2,0,P|373:190|326:143,1,135,2|2,2:0|2:0,0:0:0:0:
431,40,43320,2,0,P|431:81|434:113,1,67.5000000000002,2|0,1:2|0:0,0:0:0:0:
310,40,43762,1,2,3:2:0:0:
246,89,43983,2,0,P|213:87|179:90,1,67.5000000000002,2|0,2:0|1:2,0:0:0:0:
287,212,44425,5,2,2:0:0:0:
287,212,44536,1,0,0:0:0:0:
287,212,44646,2,0,P|220:222|167:262,1,135,2|2,3:2|1:2,0:0:0:0:
88,330,45530,1,2,3:2:0:0:
165,371,45751,1,2,2:0:0:0:
242,329,45972,1,2,1:2:0:0:
167,261,46193,1,2,2:0:0:0:
276,178,46414,6,0,P|310:181|347:179,1,67.5000000000002,0|2,3:2|2:0,0:0:0:0:
418,309,46856,1,2,1:2:0:0:
418,309,47298,5,2,3:2:0:0:
465,240,47519,1,2,2:0:0:0:
415,172,47740,1,0,1:2:0:0:
336,202,47961,1,2,3:2:0:0:
140,176,48182,6,0,P|151:239|144:313,1,135,2|2,3:2|1:2,0:0:0:0:
2,163,49066,2,0,L|22:93,1,67.5000000000002,2|2,3:2|2:0,0:0:0:0:
145,23,49508,1,2,1:2:0:0:
145,23,49729,2,0,L|165:93,1,67.5000000000002,2|0,2:0|3:2,0:0:0:0:
234,163,50171,5,2,2:0:0:0:
182,302,50392,1,2,1:2:0:0:
182,302,50834,2,0,P|215:307|248:302,1,67.5000000000002,2|2,3:2|2:0,0:0:0:0:
320,220,51276,1,0,1:2:0:0:
479,293,51497,5,2,2:0:0:0:
479,293,51608,1,0,0:0:0:0:
479,293,51718,2,0,P|485:226|474:146,1,135,2|2,3:2|1:2,0:0:0:0:
351,58,52602,2,0,P|385:61|418:57,1,67.5000000000002,2|2,3:2|2:0,0:0:0:0:
297,119,53044,1,2,1:2:0:0:
170,63,53265,1,2,2:0:0:0:
96,111,53486,6,0,B|87:143|87:143|98:177,1,67.5000000000002,0|2,3:2|2:0,0:0:0:0:
203,282,53928,1,2,1:2:0:0:
37,236,54149,1,0,3:2:0:0:
37,236,54260,1,0,3:2:0:0:
37,236,54370,1,2,3:2:0:0:
141,341,54591,1,2,2:0:0:0:
97,175,54812,1,0,1:2:0:0:
58,318,55033,1,2,3:2:0:0:
180,198,55254,6,0,P|247:202|315:199,1,135,2|2,3:2|1:2,0:0:0:0:
429,348,56138,2,0,P|395:348|362:350,1,67.5000000000002,2|2,3:2|2:0,0:0:0:0:
282,378,56580,1,2,1:2:0:0:
163,335,56801,1,2,2:0:0:0:
369,272,57022,5,0,3:2:0:0:
329,166,57243,1,2,2:0:0:0:
421,96,57464,1,2,1:2:0:0:
421,96,57906,2,0,P|417:51|419:22,1,67.5000000000002,2|2,3:2|2:0,0:0:0:0:
300,62,58348,1,0,1:2:0:0:
178,31,58569,5,2,2:0:0:0:
178,31,58680,1,0,0:0:0:0:
178,31,58790,2,0,P|105:39|34:30,1,135,2|2,3:2|1:2,0:0:0:0:
2,175,59453,1,0,0:0:0:0:
82,125,59674,2,0,P|115:118|151:124,1,67.5000000000002,2|2,3:2|2:0,0:0:0:0:
245,254,60116,2,0,L|177:240,1,67.5000000000002,2|2,1:2|2:0,0:0:0:0:
288,68,60558,5,0,0:0:0:0:
288,68,61000,6,0,P|286:94|288:119,1,36,2|2,0:2|0:0,0:0:0:0:
287,135,61442,2,0,P|286:100|288:68,1,67.5000000000002,2|0,2:0|1:2,0:0:0:0:
435,270,61884,5,2,1:2:0:0:
479,75,62105,1,2,1:2:0:0:
287,135,62326,2,0,L|193:116,1,90,0|2,3:2|2:0,0:0:0:0:
413,0,62768,2,0,P|357:30|225:19,1,180,2|2,1:2|3:2,0:0:0:0:
112,98,63431,1,2,2:0:0:0:
234,202,63652,1,2,1:2:0:0:
234,202,63762,1,0,0:0:0:0:
234,202,63873,1,2,2:0:0:0:
157,366,64094,6,0,P|214:327|325:334,1,180,0|2,3:2|1:2,0:0:0:0:
429,214,64757,1,2,2:0:0:0:
498,368,64978,2,0,L|403:383,1,90,2|0,3:2|0:0,0:0:0:0:
279,175,65420,1,2,1:2:0:0:
173,339,65641,5,2,2:0:0:0:
173,339,65751,1,0,0:0:0:0:
173,339,65862,2,0,B|97:334|108:369|27:366,1,135,0|0,3:2|0:0,0:0:0:0:
14,338,66304,2,0,P|12:288|14:246,1,90,2|0,1:2|0:0,0:0:0:0:
293,284,66746,6,0,P|296:329|294:374,1,90,2|0,3:2|0:0,0:0:0:0:
198,193,67188,1,2,1:2:0:0:
119,236,67409,1,2,2:0:0:0:
38,183,67630,2,0,P|37:131|120:38,1,180,0|2,3:2|1:2,0:0:0:0:
196,113,68293,1,2,2:0:0:0:
296,30,68514,2,0,P|248:21|199:10,1,90,2|0,3:2|0:0,0:0:0:0:
368,187,68956,1,2,1:2:0:0:
482,18,69177,5,2,3:2:0:0:
482,18,69287,1,0,3:2:0:0:
482,18,69398,2,0,P|496:81|517:170,1,135,0|0,3:2|0:0,0:0:0:0:
498,168,69840,2,0,P|485:220|476:267,1,90,2|0,1:2|0:0,0:0:0:0:
477,255,70282,1,2,3:2:0:0:
326,376,70503,2,0,P|317:331|305:288,1,90,2|2,2:0|1:2,0:0:0:0:
347,226,70945,1,2,2:0:0:0:
146,125,71166,6,0,P|214:131|306:65,1,180,0|2,3:2|1:2,0:0:0:0:
167,27,71829,1,2,2:0:0:0:
167,27,71939,1,0,0:0:0:0:
167,27,72050,2,0,P|122:21|78:13,1,90,2|0,3:2|0:0,0:0:0:0:
12,132,72492,1,2,1:2:0:0:
83,274,72713,1,2,3:2:0:0:
8,339,72934,6,0,L|146:366,1,135,0|0,3:2|0:0,0:0:0:0:
172,384,73376,2,0,L|266:372,1,90,2|0,1:2|0:0,0:0:0:0:
393,225,73818,2,0,L|299:213,1,90,2|0,3:2|0:0,0:0:0:0:
172,104,74260,1,2,1:2:0:0:
202,22,74481,1,2,2:0:0:0:
285,46,74702,6,0,B|376:52|337:82|423:96,1,135,0|0,3:2|0:0,0:0:0:0:
433,128,75144,2,0,P|431:176|436:220,1,90,2|2,1:2|2:0,0:0:0:0:
300,303,75586,2,0,P|305:258|302:213,1,90,2|0,3:2|0:0,0:0:0:0:
201,144,76028,1,2,1:2:0:0:
96,318,76249,5,2,3:2:0:0:
96,318,76359,1,0,3:2:0:0:
96,318,76470,2,0,P|140:321|191:316,1,90,0|2,3:2|2:0,0:0:0:0:
17,185,76912,2,0,P|40:128|110:106,1,135,2|0,1:2|0:0,0:0:0:0:
135,123,77354,2,0,L|231:135,1,90,2|2,3:2|2:0,0:0:0:0:
379,55,77796,1,2,1:2:0:0:
209,0,78017,1,2,2:0:0:0:
326,164,78238,6,0,P|327:229|337:327,1,135,0|0,3:2|0:0,0:0:0:0:
362,323,78680,1,2,1:2:0:0:
221,374,78901,1,2,2:0:0:0:
115,268,79122,2,0,P|58:274|14:269,1,90,2|0,3:2|0:0,0:0:0:0:
143,146,79564,1,2,1:2:0:0:
257,191,79785,1,2,2:0:0:0:
400,43,80006,6,0,P|395:116|406:198,1,135,0|0,3:2|0:0,0:0:0:0:
424,209,80447,2,0,L|519:192,1,90,2|0,1:2|0:0,0:0:0:0:
468,355,80889,2,0,L|379:339,1,90,2|0,3:2|0:0,0:0:0:0:
250,202,81331,1,2,1:2:0:0:
342,140,81552,1,2,2:0:0:0:
276,348,81773,6,0,P|201:330|143:363,1,135,0|0,3:2|0:0,0:0:0:0:
131,374,82215,2,0,B|86:383|86:383|41:376,1,90,2|2,1:2|2:0,0:0:0:0:
85,284,82657,1,2,3:2:0:0:
41,195,82878,1,0,0:0:0:0:
146,105,83099,1,2,1:2:0:0:
23,22,83320,5,2,3:2:0:0:
23,22,83431,1,0,3:2:0:0:
23,22,83541,2,0,P|69:24|114:18,1,90,0|2,3:2|2:0,0:0:0:0:
255,191,83983,2,0,P|210:185|165:190,1,90,2|0,1:2|0:0,0:0:0:0:
294,37,84425,1,2,3:2:0:0:
294,37,84646,2,0,L|382:20,1,90,2|2,2:0|1:2,0:0:0:0:
460,0,85088,1,2,2:0:0:0:
254,191,85309,6,0,P|320:180|376:215,1,135,0|0,3:2|0:0,0:0:0:0:
389,251,85751,1,2,1:2:0:0:
354,335,85972,1,2,2:0:0:0:
445,359,86193,2,0,L|538:340,1,90,2|0,3:2|0:0,0:0:0:0:
309,271,86635,1,2,1:2:0:0:
185,328,86856,1,2,3:2:0:0:
60,192,87077,6,0,P|53:259|68:344,1,135,0|0,3:2|0:0,0:0:0:0:
97,346,87519,2,0,L|194:327,1,90,2|0,1:2|0:0,0:0:0:0:
282,215,87961,2,0,L|185:196,1,90,2|0,3:2|0:0,0:0:0:0:
97,103,88403,1,2,1:2:0:0:
226,31,88624,1,2,2:0:0:0:
398,198,88845,5,2,1:2:0:0:
190,111,89066,1,2,2:0:0:0:
190,111,89287,1,2,2:2:0:0:
404,75,89508,5,2,1:2:0:0:
256,212,89729,2,0,P|259:178|258:144,1,67.5000025749208,0|0,3:2|3:2,0:0:0:0:
315,26,90171,2,0,P|314:62|317:93,1,67.5000000000002,0|0,1:2|3:2,0:0:0:0:
463,272,90613,5,4,3:0:0:0:
234,308,90834,1,0,1:2:0:0:
317,93,91055,2,0,L|412:110,1,90,0|0,1:2|3:2,0:0:0:0:
512,325,91497,1,2,1:2:0:0:
376,377,91718,1,0,1:2:0:0:
241,321,91939,2,0,P|238:281|240:228,1,90,2|2,1:2|2:0,0:0:0:0:
317,93,92381,6,0,P|227:130|158:115,1,153.000000000001,0|2,3:2|1:2,0:0:0:0:
97,47,93044,2,0,L|174:22,1,76.5000000000003,2|0,2:0|3:2,0:0:0:0:
85,206,93486,2,0,L|61:133,1,76.5000000000003,2|0,2:0|1:2,0:0:0:0:
254,163,93928,2,0,P|199:201|175:285,1,153.000000000001,2|2,2:0|2:0,0:0:0:0:
241,342,94591,5,2,1:2:0:0:
241,342,95033,1,2,3:2:0:0:
332,384,95254,1,2,2:0:0:0:
420,343,95475,1,2,1:2:0:0:
312,256,95696,5,2,2:0:0:0:
312,256,95807,1,0,0:0:0:0:
312,256,95917,2,0,P|259:260|157:257,1,153.000000000001,0|2,3:2|1:2,0:0:0:0:
88,172,96580,2,0,P|91:134|89:95,1,76.5000000000003,2|0,2:0|3:2,0:0:0:0:
214,58,97022,2,0,P|212:96|215:134,1,76.5000000000003,2|0,2:0|1:2,0:0:0:0:
75,253,97464,2,0,P|144:283|220:278,1,153.000000000001,2|2,2:0|2:0,0:0:0:0:
277,222,98127,5,2,1:2:0:0:
277,222,98569,5,2,3:2:0:0:
233,307,98790,1,2,2:0:0:0:
325,348,99011,1,2,1:2:0:0:
325,348,99122,1,0,0:0:0:0:
325,348,99232,1,2,2:0:0:0:
400,210,99453,6,0,P|394:140|404:43,1,153.000000000001,0|2,3:2|1:2,0:0:0:0:
323,12,100116,1,2,2:0:0:0:
216,66,100337,1,0,3:2:0:0:
132,32,100558,2,0,P|128:74|134:112,1,76.5000000000003,2|0,2:0|1:2,0:0:0:0:
216,66,101000,1,2,2:0:0:0:
323,12,101221,6,0,P|331:96|319:172,1,153.000000000001,0|2,3:2|1:2,0:0:0:0:
242,197,101884,1,2,2:0:0:0:
159,230,102105,1,2,3:2:0:0:
230,288,102326,2,0,P|229:338|232:373,1,76.5000000000003,2|0,2:0|1:2,0:0:0:0:
107,320,102768,1,2,2:0:0:0:
11,277,102989,6,0,P|16:315|12:353,2,76.5000000000003,0|2|2,3:2|2:0|1:2,0:0:0:0:
238,216,103873,1,2,3:2:0:0:
193,279,104094,2,0,P|188:316|192:354,1,76.5000000000003,2|0,2:0|1:2,0:0:0:0:
297,310,104536,1,2,2:0:0:0:
421,362,104757,5,2,3:2:0:0:
494,326,104978,1,2,2:0:0:0:
435,229,105199,2,0,P|432:191|432:153,1,76.5000000000003,2|0,1:2|3:2,0:0:0:0:
454,115,105530,1,0,3:2:0:0:
454,115,105641,1,2,3:2:0:0:
370,38,105862,1,2,2:0:0:0:
212,103,106083,5,2,1:2:0:0:
363,259,106304,1,2,1:2:0:0:
363,259,106414,1,0,1:2:0:0:
363,259,106525,2,0,P|360:219|363:120,1,135,2|2,3:2|1:2,0:0:0:0:
269,22,107409,2,0,L|196:39,1,67.5000000000002,2|2,3:2|2:0,0:0:0:0:
139,134,107851,1,2,1:2:0:0:
139,134,108072,2,0,L|64:113,1,67.5000000000002,2|0,2:0|3:2,0:0:0:0:
188,266,108514,5,2,2:0:0:0:
252,102,108735,2,0,P|250:60|252:29,1,67.5000000000002,2|0,1:2|0:0,0:0:0:0:
442,154,109177,5,2,3:2:0:0:
349,78,109398,2,0,P|351:36|349:5,1,67.5000000000002,2|0,2:0|1:2,0:0:0:0:
239,170,109840,1,2,2:0:0:0:
344,294,110061,6,0,P|298:299|218:372,1,135,2|2,3:2|1:2,0:0:0:0:
228,351,110945,2,0,P|184:354|148:351,1,67.5000000000002,2|2,3:2|2:0,0:0:0:0:
51,282,111387,1,2,1:2:0:0:
99,205,111608,1,2,2:0:0:0:
33,79,111829,6,0,P|28:46|33:13,1,67.5000000000002,0|2,3:2|2:0,0:0:0:0:
181,47,112271,1,2,1:2:0:0:
181,47,112713,6,0,P|221:50|255:46,1,67.5000000000002,2|2,3:2|2:0,0:0:0:0:
311,101,113155,1,0,1:2:0:0:
247,236,113376,5,2,3:2:0:0:
247,236,113486,1,0,0:0:0:0:
247,236,113597,2,0,P|248:285|241:374,1,135,2|2,3:2|1:2,0:0:0:0:
383,262,114481,2,0,P|379:227|382:191,1,67.5000000000002,2|2,3:2|2:0,0:0:0:0:
434,113,114923,1,2,1:2:0:0:
338,17,115144,2,0,L|259:28,1,67.5000000000002,2|0,2:0|3:2,0:0:0:0:
169,164,115586,5,2,2:0:0:0:
42,50,115807,2,0,P|36:89|42:126,1,67.5000000000002,2|0,1:2|0:0,0:0:0:0:
122,233,116249,5,2,3:2:0:0:
249,131,116470,2,0,P|255:170|249:207,1,67.5000000000002,2|0,2:0|1:2,0:0:0:0:
136,353,116912,1,2,1:2:0:0:
0,153,117133,6,0,B|64:175|64:175|127:151,1,135,2|2,3:2|1:2,0:0:0:0:
58,23,118017,1,2,3:2:0:0:
147,61,118238,1,2,2:0:0:0:
147,61,118348,1,0,0:0:0:0:
147,61,118459,1,2,1:2:0:0:
263,19,118680,1,2,2:0:0:0:
360,121,118901,6,0,P|392:123|428:113,1,67.5000000000002,0|2,3:2|2:0,0:0:0:0:
479,171,119343,1,2,1:2:0:0:
424,347,119785,2,0,P|390:350|356:348,1,67.5000000000002,2|2,3:2|2:0,0:0:0:0:
304,293,120227,1,0,1:2:0:0:
179,332,120447,5,2,3:2:0:0:
179,332,120558,1,0,3:2:0:0:
179,332,120668,2,0,B|101:345|124:374|51:384,1,135,2|2,3:2|1:2,0:0:0:0:
2,327,121552,2,0,P|2:293|4:260,1,67.5000000000002,2|2,3:2|2:0,0:0:0:0:
145,214,121994,1,2,1:2:0:0:
233,293,122215,2,0,P|266:290|300:293,1,67.5000000000002,2|0,3:2|3:0,0:0:0:0:
241,177,122656,5,2,2:0:0:0:
136,325,122878,2,0,P|69:320|2:326,1,135,2|2,1:2|3:2,0:0:0:0:
144,146,123541,2,0,P|145:188|144:224,1,67.5000000000002,2|0,2:0|1:2,0:0:0:0:
144,213,123983,1,2,2:0:0:0:
33,59,124204,6,0,P|82:57|156:4,1,135,2|2,3:2|1:2,0:0:0:0:
151,10,125088,2,0,P|152:50|150:82,1,67.5000000000002,2|2,3:2|2:0,0:0:0:0:
102,165,125530,1,2,1:2:0:0:
155,241,125751,1,2,2:0:0:0:
116,357,125972,2,0,P|150:353|183:356,1,67.5000000000002,0|2,3:2|2:0,0:0:0:0:
315,219,126414,1,2,1:2:0:0:
315,219,126856,5,2,3:2:0:0:
388,195,127077,1,2,2:0:0:0:
413,266,127298,1,0,1:2:0:0:
343,298,127519,5,2,3:2:0:0:
343,298,127630,1,0,0:0:0:0:
343,298,127740,2,0,P|298:304|197:301,1,135,2|2,3:2|1:2,0:0:0:0:
119,187,128624,2,0,P|117:148|119:116,1,67.5000000000002,2|2,3:2|2:0,0:0:0:0:
246,65,129066,2,0,P|248:99|246:132,1,67.5000000000002,2|2,1:2|2:0,0:0:0:0:
109,20,129508,5,0,3:2:0:0:
5,81,129729,1,2,2:0:0:0:
121,13,129950,1,2,1:2:0:0:
121,13,130392,2,0,P|156:18|192:30,1,67.5000000000002,2|2,3:2|2:0,0:0:0:0:
325,4,130834,1,0,1:2:0:0:
398,53,131055,5,2,1:2:0:0:
398,53,131166,1,0,0:0:0:0:
398,53,131276,2,0,P|397:98|400:192,1,135,2|2,3:2|1:2,0:0:0:0:
302,250,132160,2,0,P|304:211|302:173,1,67.5000000000002,2|2,3:2|2:0,0:0:0:0:
494,123,132602,2,0,P|493:157|495:190,1,67.5000000000002,2|2,1:2|2:0,0:0:0:0:
350,332,133044,5,0,3:2:0:0:
350,332,133486,6,0,P|332:330|314:330,1,36,2|2,0:2|0:0,0:0:0:0:
282,331,133928,2,0,P|317:330|350:332,1,67.5000000000002,2|0,2:0|3:2,0:0:0:0:
486,197,134370,1,2,1:2:0:0:
301,148,134591,1,2,1:2:0:0:
350,332,134812,6,0,P|351:280|349:234,1,67.5000000000002,0|2,3:2|2:0,0:0:0:0:
204,122,135254,2,0,P|278:118|376:64,1,180,2|2,1:2|3:2,0:0:0:0:
255,0,135917,1,2,2:0:0:0:
178,45,136138,1,2,1:2:0:0:
178,45,136249,1,0,0:0:0:0:
178,45,136359,1,2,2:0:0:0:
0,27,136580,6,0,P|5:91|1:171,1,135,0|0,3:2|0:0,0:0:0:0:
32,193,137022,2,0,B|75:202|75:202|121:193,1,90,2|2,1:2|2:0,0:0:0:0:
257,19,137464,2,0,B|214:28|214:28|168:19,1,90,2|0,3:2|0:0,0:0:0:0:
301,187,137906,1,2,1:2:0:0:
301,187,138017,1,0,0:0:0:0:
301,187,138127,1,2,3:2:0:0:
455,47,138348,6,0,P|443:136|456:225,1,180,0|2,3:2|1:2,0:0:0:0:
456,225,139011,1,0,0:0:0:0:
383,319,139232,2,0,L|469:345,1,90,2|0,3:2|0:0,0:0:0:0:
304,253,139674,1,2,1:2:0:0:
170,331,139895,1,2,2:0:0:0:
106,147,140116,2,0,P|173:155|231:124,1,135,0|0,3:2|0:0,0:0:0:0:
248,77,140558,6,0,P|196:67|163:42,1,90,2|2,1:2|2:0,0:0:0:0:
0,87,141000,1,2,3:2:0:0:
77,15,141221,1,0,0:0:0:0:
77,15,141442,1,2,1:2:0:0:
199,191,141663,5,2,3:2:0:0:
199,191,141773,1,0,3:2:0:0:
199,191,141884,2,0,P|196:236|198:281,1,90,0|2,3:2|2:0,0:0:0:0:
8,348,142326,2,0,P|11:258|5:168,1,180,2|2,1:2|3:2,0:0:0:0:
96,62,142989,1,2,2:0:0:0:
186,106,143210,1,2,1:2:0:0:
186,106,143320,1,0,0:0:0:0:
186,106,143431,1,2,2:0:0:0:
330,24,143652,6,0,B|401:48|380:79|459:110,1,135,0|0,3:2|0:0,0:0:0:0:
461,128,144094,1,2,1:2:0:0:
353,272,144315,1,2,2:0:0:0:
512,380,144536,2,0,P|448:349|384:367,1,135,2|0,3:2|0:0,0:0:0:0:
363,384,144978,1,2,1:2:0:0:
256,291,145199,1,2,3:2:0:0:
117,379,145420,6,0,P|128:314|117:245,1,135,0|0,3:2|0:0,0:0:0:0:
88,225,145862,2,0,L|-6:241,1,90,2|0,1:2|0:0,0:0:0:0:
191,98,146304,2,0,L|102:83,1,90,2|0,3:2|0:0,0:0:0:0:
102,83,146746,1,2,1:2:0:0:
263,0,146967,1,2,2:0:0:0:
376,192,147188,6,0,P|371:135|462:42,1,180,0|2,3:2|1:2,0:0:0:0:
504,126,147851,1,2,2:0:0:0:
464,203,148072,2,0,L|485:299,1,90,2|0,3:2|0:0,0:0:0:0:
401,336,148514,1,2,1:2:0:0:
263,239,148735,1,2,3:2:0:0:
263,239,148845,1,0,3:2:0:0:
263,239,148956,2,0,B|221:228|221:228|174:238,2,90,0|2|2,3:2|2:0|1:2,0:0:0:0:
176,374,149840,5,2,3:2:0:0:
133,306,150061,1,2,2:0:0:0:
65,134,150282,5,2,1:2:0:0:
0,227,150503,1,2,2:0:0:0:
81,383,150724,6,0,P|142:386|217:362,1,135,0|0,3:2|0:0,0:0:0:0:
236,327,151166,1,2,1:2:0:0:
371,374,151387,1,2,2:0:0:0:
501,322,151608,2,0,P|497:272|501:232,1,90,2|0,3:2|0:0,0:0:0:0:
366,135,152050,1,2,1:2:0:0:
496,36,152271,5,2,3:2:0:0:
496,36,152381,1,0,0:0:0:0:
496,36,152492,2,0,P|439:33|309:-6,1,180,0|2,3:2|1:2,0:0:0:0:
321,0,153155,1,0,0:0:0:0:
210,108,153376,2,0,L|120:123,1,90,2|0,3:2|0:0,0:0:0:0:
285,228,153818,1,2,1:2:0:0:
285,228,153928,1,0,0:0:0:0:
285,228,154039,1,2,2:0:0:0:
103,336,154260,6,0,P|189:334|276:381,1,180,0|2,3:2|1:2,0:0:0:0:
377,246,154923,1,2,2:0:0:0:
321,153,155144,2,0,L|343:58,1,90,2|0,3:2|0:0,0:0:0:0:
246,6,155586,1,2,1:2:0:0:
140,173,155807,5,2,3:2:0:0:
140,173,155917,1,0,3:2:0:0:
140,173,156028,2,0,L|234:157,1,90,0|2,3:2|2:0,0:0:0:0:
158,309,156470,2,0,P|99:243|13:222,1,180,2|2,1:2|3:2,0:0:0:0:
54,366,157133,1,2,2:0:0:0:
158,309,157354,1,2,1:2:0:0:
158,309,157464,1,0,0:0:0:0:
158,309,157575,1,2,2:0:0:0:
319,333,157796,6,0,B|403:343|389:365|464:375,1,135,0|0,3:2|0:0,0:0:0:0:
483,354,158238,1,2,1:2:0:0:
386,209,158459,1,2,2:0:0:0:
506,73,158680,2,0,P|454:71|416:62,1,90,2|0,3:2|0:0,0:0:0:0:
262,20,159122,1,2,1:2:0:0:
149,140,159343,1,2,3:2:0:0:
11,79,159564,6,0,P|14:125|11:170,1,90,0|2,3:2|2:0,0:0:0:0:
135,233,160006,1,2,1:2:0:0:
62,336,160227,1,2,2:0:0:0:
283,155,160447,2,0,P|280:201|283:246,1,90,2|0,3:2|0:0,0:0:0:0:
149,312,160889,1,2,1:2:0:0:
258,372,161110,1,2,2:0:0:0:
165,165,161331,5,2,1:2:0:0:
36,355,161552,1,2,3:2:0:0:
36,355,161773,1,2,3:2:0:0:
253,263,161994,5,2,1:2:0:0:
38,153,162215,2,0,P|40:108|38:61,1,90,0|0,3:2|0:0,0:0:0:0:
246,0,162657,2,0,P|244:45|246:90,1,90,0|0,1:2|0:0,0:0:0:0:
462,241,163099,5,4,3:0:0:0:
230,275,163320,1,0,1:2:0:0:
331,69,163541,2,0,L|430:86,1,90,0|0,1:2|3:2,0:0:0:0:
270,211,163983,1,2,1:2:0:0:
147,122,164204,1,0,1:2:0:0:
31,243,164425,2,0,P|34:289|28:336,1,90,2|2,1:2|2:0,0:0:0:0:
261,107,164867,6,0,P|187:113|94:104,1,153.000000000001,0|2,3:2|1:2,0:0:0:0:
21,190,165529,2,0,L|39:272,1,76.5000000000003,2|0,2:0|3:2,0:0:0:0:
118,309,165971,2,0,L|134:234,1,76.5000000000003,2|0,2:0|1:2,0:0:0:0:
254,133,166413,2,0,L|286:282,1,153.000000000001,2|2,2:0|2:0,0:0:0:0:
306,358,167076,5,2,1:2:0:0:
385,260,167517,1,2,3:2:0:0:
461,281,167738,1,2,2:0:0:0:
306,358,167959,2,0,P|267:358|232:372,1,76.5000000000003,2|2,1:2|2:0,0:0:0:0:
276,188,168401,6,0,P|347:215|423:216,1,153.000000000001,0|2,3:2|1:2,0:0:0:0:
485,147,169064,2,0,L|471:69,1,76.5000000000003,2|0,2:0|3:2,0:0:0:0:
389,23,169506,2,0,L|375:98,1,76.5000000000003,2|0,2:0|1:2,0:0:0:0:
276,188,169948,1,2,2:0:0:0:
276,188,170168,2,0,L|262:112,2,76.5000000000003,0|2|2,3:2|2:0|1:2,0:0:0:0:
210,234,170831,5,0,3:2:0:0:
210,234,170942,1,0,3:2:0:0:
210,234,171052,2,0,P|205:272|210:310,1,76.5000000000003,2|2,3:2|2:0,0:0:0:0:
393,358,171494,1,2,1:2:0:0:
427,187,171715,1,2,1:2:0:0:
427,187,171825,1,0,1:2:0:0:
427,187,171936,6,0,P|359:195|268:186,1,153.000000000001,0|2,3:2|1:2,0:0:0:0:
189,163,172598,1,2,2:0:0:0:
72,191,172819,1,0,3:2:0:0:
194,21,173040,2,0,L|280:34,1,76.5000000000003,2|0,2:0|1:2,0:0:0:0:
269,32,173482,1,2,3:2:0:0:
189,163,173703,6,0,P|233:127|331:129,1,153.000000000001,0|2,3:2|1:2,0:0:0:0:
410,164,174366,1,2,2:0:0:0:
492,134,174587,1,2,3:2:0:0:
388,11,174808,2,0,P|386:50|390:88,1,76.5000000000003,2|0,2:0|1:2,0:0:0:0:
473,208,175249,1,2,2:0:0:0:
351,296,175470,6,0,B|313:305|313:305|276:294,2,76.5000000000003,0|2|2,3:2|2:0|1:2,0:0:0:0:
351,296,176354,1,2,3:2:0:0:
351,296,176575,2,0,P|348:250|351:213,1,76.5000000000003,2|0,2:0|1:2,0:0:0:0:
288,165,177017,1,2,2:0:0:0:
164,240,177238,6,0,P|118:241|83:239,1,76.5000000000003,2|2,3:2|2:0,0:0:0:0:
199,359,177679,2,0,P|237:357|275:358,1,76.5000000000003,2|2,1:2|2:0,0:0:0:0:
235,278,178121,1,2,3:2:0:0:
116,335,178342,1,0,3:2:0:0:
8,162,178563,1,2,1:2:0:0:
8,162,178674,1,0,0:0:0:0:
8,162,178784,1,2,1:2:0:0:
159,31,179005,6,0,P|209:27|259:22,1,76.5000000000003,0|2,3:2|2:0,0:0:0:0:
146,230,179447,2,0,P|175:152|275:118,1,189,2|2,1:2|3:2,0:0:0:0:
350,169,180110,1,2,2:0:0:0:
292,301,180330,1,2,1:2:0:0:
292,301,180441,1,0,0:0:0:0:
292,301,180551,1,2,2:0:0:0:
445,360,180772,6,0,P|462:311|488:218,1,141.75,0|0,3:2|0:0,0:0:0:0:
506,199,181214,2,0,P|491:141|484:101,1,94.5,2|2,1:2|2:0,0:0:0:0:
290,25,181656,2,0,P|281:71|268:117,1,94.5,2|0,3:2|0:0,0:0:0:0:
359,198,182098,1,2,1:2:0:0:
359,198,182208,1,0,0:0:0:0:
359,198,182319,1,2,3:2:0:0:
232,339,182540,6,0,P|307:315|394:379,1,189,0|2,3:2|1:2,0:0:0:0:
391,374,183202,1,0,0:0:0:0:
486,229,183423,2,0,L|467:132,1,94.5,2|0,3:2|0:0,0:0:0:0:
249,45,183865,1,2,1:2:0:0:
401,0,184086,1,2,2:0:0:0:
292,204,184307,2,0,B|219:216|238:251|165:265,1,141.75,0|0,3:2|0:0,0:0:0:0:
126,236,184749,6,0,P|122:184|128:136,1,94.5,2|2,1:2|2:0,0:0:0:0:
42,26,185191,2,0,P|46:78|40:126,1,94.5,2|0,3:2|0:0,0:0:0:0:
126,142,185632,1,2,1:2:0:0:
326,70,185853,5,2,3:2:0:0:
326,70,185964,1,0,3:2:0:0:
326,70,186074,2,0,P|327:117|326:167,1,94.5,0|2,3:2|2:0,0:0:0:0:
416,329,186516,2,0,P|349:306|237:368,1,189,2|2,1:2|3:2,0:0:0:0:
139,310,187179,1,2,2:0:0:0:
19,382,187400,1,2,1:2:0:0:
19,382,187510,1,0,0:0:0:0:
19,382,187621,1,2,2:0:0:0:
8,181,187841,6,0,P|76:185|153:155,1,141.75,0|0,3:2|0:0,0:0:0:0:
166,125,188283,1,2,1:2:0:0:
307,167,188504,1,2,2:0:0:0:
409,120,188725,2,0,P|405:167|409:214,1,94.5,2|0,3:2|0:0,0:0:0:0:
301,333,189167,1,2,1:2:0:0:
138,274,189388,5,2,3:2:0:0:
138,274,189498,1,0,0:0:0:0:
138,274,189609,2,0,P|92:321|9:315,1,141.75,0|0,3:2|0:0,0:0:0:0:
2,294,190051,2,0,B|-12:246|-12:246|-1:203,1,94.5,2|0,1:2|0:0,0:0:0:0:
174,83,190492,2,0,B|185:126|185:126|171:174,1,94.5,2|0,3:2|0:0,0:0:0:0:
41,41,190934,1,2,1:2:0:0:
230,0,191155,5,2,2:0:0:0:
230,0,191266,1,0,0:0:0:0:
230,0,191376,2,0,P|266:30|366:40,1,141.75,0|0,3:2|0:0,0:0:0:0:
386,24,191818,1,2,1:2:0:0:
345,170,192039,1,2,2:0:0:0:
477,242,192260,2,0,P|472:296|471:343,1,94.5,2|0,3:2|0:0,0:0:0:0:
341,279,192702,1,2,1:2:0:0:
210,346,192922,5,2,3:2:0:0:
210,346,193033,1,0,3:2:0:0:
210,346,193143,2,0,P|157:342|114:344,1,94.5,0|2,3:2|2:0,0:0:0:0:
39,165,193585,2,0,P|133:168|227:160,1,189,2|2,1:2|3:2,0:0:0:0:
159,256,194248,1,2,2:0:0:0:
315,367,194469,1,2,1:2:0:0:
315,367,194579,1,0,0:0:0:0:
315,367,194690,1,2,2:0:0:0:
469,192,194911,6,0,P|455:262|472:334,1,141.75,0|0,3:2|0:0,0:0:0:0:
505,353,195353,1,2,1:2:0:0:
355,277,195573,1,2,2:0:0:0:
218,357,195794,2,0,P|164:358|118:348,1,94.5,2|0,3:2|0:0,0:0:0:0:
41,200,196236,1,2,1:2:0:0:
41,200,196347,1,0,0:0:0:0:
41,200,196457,1,2,3:2:0:0:
178,278,196678,6,0,P|177:216|198:139,1,141.75,0|0,3:2|0:0,0:0:0:0:
178,104,197120,2,0,L|164:10,1,94.5,2|0,1:2|0:0,0:0:0:0:
326,157,197562,2,0,L|340:63,1,94.5,2|0,3:2|0:0,0:0:0:0:
248,229,198003,1,2,1:2:0:0:
414,312,198224,5,2,2:0:0:0:
414,312,198335,1,0,0:0:0:0:
414,312,198445,2,0,P|346:322|241:388,1,189,0|2,3:2|1:2,0:0:0:0:
244,384,199108,1,2,2:0:0:0:
181,293,199329,1,2,3:2:0:0:
244,198,199550,1,0,0:0:0:0:
307,289,199771,1,2,1:2:0:0:
155,373,199992,5,2,3:2:0:0:
155,373,200102,1,0,3:2:0:0:
155,373,200213,2,0,P|105:364|60:364,1,94.5,0|2,3:2|2:0,0:0:0:0:
0,179,200654,2,0,P|94:178|187:160,1,189,2|2,1:2|3:2,0:0:0:0:
261,83,201317,1,2,2:0:0:0:
402,154,201538,1,2,1:2:0:0:
402,154,201649,1,0,0:0:0:0:
402,154,201759,1,2,2:0:0:0:
512,49,201980,6,0,P|506:119|513:190,1,141.75,0|0,3:2|0:0,0:0:0:0:
486,217,202422,2,0,L|386:238,1,94.5,2|2,1:2|2:0,0:0:0:0:
253,19,202864,2,0,L|344:43,1,94.5,2|0,3:2|0:0,0:0:0:0:
508,108,203305,1,2,1:2:0:0:
438,6,203526,1,2,3:2:0:0:
301,175,203747,6,0,L|322:272,1,94.5,0|2,3:2|2:0,0:0:0:0:
345,349,204189,1,2,1:2:0:0:
345,349,204410,1,2,2:0:0:0:
223,238,204631,2,0,P|169:242|124:236,1,94.5,2|0,3:2|0:0,0:0:0:0:
60,283,205073,1,2,1:2:0:0:
3,115,205294,1,2,2:0:0:0:
203,55,205515,5,2,1:2:0:0:
57,283,205735,1,2,3:2:0:0:
57,283,205956,1,2,3:2:0:0:
75,32,206177,5,2,1:2:0:0:
209,257,206398,2,0,P|201:303|211:351,1,94.5,0|0,3:2|0:0,0:0:0:0:
310,357,206840,2,0,P|318:310|310:264,1,94.5,0|0,1:2|0:0,0:0:0:0:
188,102,207282,5,4,3:0:0:0:
85,311,207503,1,0,1:2:0:0:
318,294,207724,1,0,1:2:0:0:
188,102,207945,1,0,3:2:0:0:
85,311,208165,5,2,1:2:0:0:
210,349,208386,1,0,1:2:0:0:
318,294,208607,1,2,1:2:0:0:
476,351,208828,1,2,2:0:0:0:
244,225,209049,6,0,P|236:145|243:62,1,153.000000000001,0|2,3:2|1:2,0:0:0:0:
178,22,209712,2,0,L|92:47,1,76.5000000000003,2|0,2:0|3:2,0:0:0:0:
310,1,210154,2,0,L|396:26,1,76.5000000000003,2|0,2:0|1:2,0:0:0:0:
469,98,210596,1,2,2:0:0:0:
423,171,210816,1,0,3:2:0:0:
471,234,211037,1,2,2:0:0:0:
416,364,211258,1,2,1:2:0:0:
416,364,211700,6,0,P|379:359|341:364,1,76.5000000000003,2|2,3:2|2:0,0:0:0:0:
274,260,212142,1,2,1:2:0:0:
274,260,212252,1,0,0:0:0:0:
274,260,212363,1,2,2:0:0:0:
351,112,212584,6,0,P|293:112|198:74,1,153.000000000001,0|2,3:2|1:2,0:0:0:0:
90,16,213246,2,0,P|93:54|91:92,1,76.5000014591217,2|0,2:0|3:2,0:0:0:0:
11,216,213688,2,0,P|8:178|10:140,1,76.5000014591217,2|0,2:0|1:2,0:0:0:0:
117,237,214130,1,2,2:0:0:0:
195,196,214351,5,0,3:2:0:0:
302,231,214572,2,0,P|304:192|300:152,1,76.5000000000003,2|2,2:0|1:2,0:0:0:0:
149,130,215014,1,0,3:2:0:0:
149,130,215124,1,0,3:2:0:0:
149,130,215235,1,2,3:2:0:0:
217,83,215456,1,2,2:0:0:0:
392,155,215677,1,2,1:2:0:0:
392,155,215787,1,0,0:0:0:0:
392,155,215897,1,2,2:0:0:0:
239,328,216118,6,0,P|233:258|243:161,1,153.000000000001,0|2,3:2|1:2,0:0:0:0:
329,18,216781,1,2,2:0:0:0:
202,79,217002,1,2,3:2:0:0:
71,30,217223,2,0,P|67:72|73:110,1,76.5000000000003,2|0,2:0|1:2,0:0:0:0:
202,79,217665,1,2,2:0:0:0:
329,18,217886,6,0,P|337:102|325:178,1,153.000000000001,0|2,3:2|1:2,0:0:0:0:
214,242,218548,1,2,2:0:0:0:
353,310,218769,1,2,3:2:0:0:
432,272,218990,2,0,P|429:233|431:195,1,76.5000000000003,2|0,2:0|1:2,0:0:0:0:
277,354,219432,1,2,2:0:0:0:
136,319,219653,6,0,P|98:323|60:320,1,76.5000000000003,0|2,3:2|2:0,0:0:0:0:
97,246,220095,1,2,1:2:0:0:
97,246,220537,1,2,3:2:0:0:
97,246,220758,2,0,L|82:160,1,76.5000000000003,2|0,2:0|1:2,0:0:0:0:
254,69,221199,5,2,2:0:0:0:
254,69,221420,2,0,L|239:155,1,76.5000000000003,2|2,3:2|2:0,0:0:0:0:
84,53,221862,2,0,P|126:51|162:35,1,76.5000000000003,2|0,1:2|0:0,0:0:0:0:
179,9,222193,1,0,0:0:0:0:
179,9,222304,1,0,3:2:0:0:
312,126,222525,1,0,0:0:0:0:
122,196,222746,2,0,L|35:182,1,76.5000000000003,2|2,1:2|2:0,0:0:0:0:
256,347,223188,5,0,3:2:0:0:
256,192,223298,12,0,229815,0:0:0:0:
