osu file format v14

[General]
AudioFilename: privatesky.mp3
AudioLeadIn: 0
PreviewTime: 66976
Countdown: 0
SampleSet: Soft
StackLeniency: 0.7
Mode: 0
LetterboxInBreaks: 0
WidescreenStoryboard: 0

[Editor]
Bookmarks: 6235,13272,18087,35865,40124,41791,59569,62532,65124,66976,100680,105495
DistanceSpacing: 1
BeatDivisor: 4
GridSize: 4
TimelineZoom: 1

[Metadata]
Title:Private Sky
TitleUnicode:Private Sky
Artist:Iria Hosizaki
ArtistUnicode:星咲 イリア
Creator:Log Off Now
Version:Normal
Source:この大空に、翼をひろげて SNOW PRESENTS
Tags:if my heart had wings Kono Oozora ni Tsubasa wo Hirogete 羽々音 小鳥 Habane Kotori Minao Ohse pulltop eroge visual novel expansion opening op short version davided frostwich
BeatmapID:1182786
BeatmapSetID:558107

[Difficulty]
HPDrainRate:3
CircleSize:3
OverallDifficulty:4
ApproachRate:4
SliderMultiplier:1.1
SliderTickRate:1

[Events]
//Background and Video events
0,0,"privateskybg.jpg",0,0
Video,0,"optc.flv"
//Break Periods
2,18287,28619
//Storyboard Layer 0 (Background)
//Storyboard Layer 1 (Fail)
//Storyboard Layer 2 (Pass)
//Storyboard Layer 3 (Foreground)
//Storyboard Sound Samples

[TimingPoints]
310,370.37037037037,4,2,1,30,1,0
6235,-100,4,2,3,40,0,0
18087,-100,4,2,3,30,0,0
40124,-100,4,2,3,40,0,0
41791,-100,4,2,3,45,0,0
62532,-100,4,2,3,55,0,0
65495,-100,4,2,3,30,0,0
66976,-100,4,2,3,60,0,1
90680,-100,4,2,3,50,0,0
105495,-100,4,2,3,10,0,0

[Colours]
Combo1 : 196,146,115
Combo2 : 253,218,254
Combo3 : 242,121,167
Combo4 : 190,190,190

[HitObjects]
137,210,5124,6,0,B|130:274|130:274|136:320,2,110,2|2|2,0:0|0:0|0:0,0:0:0:0:
152,102,6235,5,10,0:0:0:0:
240,165,6606,2,0,P|275:186|348:184,1,110,2|2,0:0|0:0,0:0:0:0:
448,148,7347,1,2,0:0:0:0:
448,148,7532,2,0,L|440:260,1,110,10|2,0:0|0:0,0:0:0:0:
340,300,8272,1,0,0:0:0:0:
340,300,8458,2,0,L|330:185,1,110,2|2,0:0|0:0,0:0:0:0:
256,108,9198,6,0,P|193:93|144:107,1,110,10|0,0:0|0:0,0:0:0:0:
100,132,9754,2,0,L|104:208,1,55,2|2,0:0|0:0,0:0:0:0:
224,300,10495,2,0,B|278:311|278:311|348:295,1,110,8|0,0:0|0:0,0:0:0:0:
323,244,11050,2,0,P|315:188|323:124,1,110,2|2,0:0|0:0,0:0:0:0:
374,39,11791,1,2,0:0:0:0:
474,83,12161,5,12,0:0:0:0:
452,191,12532,2,0,B|469:247|453:299,1,110,2|2,0:0|0:0,0:0:0:0:
358,353,13272,1,0,0:0:0:0:
358,353,13457,2,0,L|246:345,1,110,10|2,0:0|0:0,0:0:0:0:
202,245,14197,1,0,0:0:0:0:
202,245,14383,2,0,L|326:234,1,110,2|2,0:0|0:0,0:0:0:0:
421,222,15124,6,0,P|432:161|411:97,1,110,10|0,0:0|0:0,0:0:0:0:
375,83,15680,2,0,L|309:87,1,55,2|2,0:0|0:0,0:0:0:0:
179,171,16421,2,0,L|187:299,1,110,8|0,0:0|0:0,0:0:0:0:
189,335,16976,2,0,P|135:359|85:352,1,110,8|8,0:0|0:3,0:0:0:0:
6,275,17717,1,8,0:0:0:0:
52,175,18087,1,4,0:0:0:0:
108,86,29939,6,0,L|100:208,1,110,14|0,0:0|0:0,0:0:0:0:
93,305,30680,1,10,0:0:0:0:
190,254,31050,2,0,B|294:218|294:310|406:274,1,220,10|0,0:0|0:0,0:0:0:0:
466,186,32161,2,0,B|481:132|460:66,1,110
351,84,32902,6,0,L|235:94,1,110,10|0,0:0|0:0,0:0:0:0:
136,60,33643,1,10,0:0:0:0:
113,167,34013,2,0,B|121:239|121:239|93:307|93:307|101:383,2,220,10|2|0,0:0|0:0|0:0,0:0:0:0:
132,60,35865,5,14,0:0:0:0:
236,100,36235,2,0,P|285:109|344:96,1,110
448,68,36976,1,0,0:0:0:0:
452,178,37347,2,0,L|457:291,1,110,2|0,0:0|0:0,0:0:0:0:
364,347,38087,2,0,P|306:358|245:346,1,110,2|0,0:0|0:0,0:0:0:0:
202,336,38643,1,8,0:0:0:0:
202,336,38828,5,8,0:0:0:0:
147,122,39569,1,10,0:0:0:0:
250,158,39939,1,0,0:0:0:0:
354,191,40309,1,0,1:0:0:0:
273,266,40680,2,0,B|286:321|275:383,2,110,4|4|0,0:3|0:3|0:0,0:0:0:0:
165,240,41791,6,0,L|161:116,1,110,4|0,0:0|3:0,0:0:0:0:
111,31,42532,2,0,B|169:7|223:37,1,110,0|0,3:0|3:0,0:0:0:0:
301,105,43272,1,8,3:2:0:0:
265,322,44013,2,0,B|225:346|144:337,1,110,0|0,3:0|3:0,0:0:0:0:
49,326,44754,1,8,3:2:0:0:
121,245,45124,2,0,B|161:134|80:134|126:21,1,220,0|0,3:0|3:0,0:0:0:0:
232,20,46235,5,8,3:2:0:0:
328,73,46606,2,0,B|379:77|379:77|448:63,2,110,2|2|2,3:2|3:2|3:2,0:0:0:0:
235,133,47717,6,0,L|103:121,1,110,0|0,3:0|3:0,0:0:0:0:
48,201,48458,2,0,P|37:243|56:309,1,110,0|0,3:0|3:0,0:0:0:0:
156,348,49198,1,0,3:0:0:0:
344,236,49939,2,0,B|366:182|347:128,1,110,0|0,3:0|3:0,0:0:0:0:
300,28,50680,1,8,3:2:0:0:
232,116,51050,2,0,B|190:225|269:225|231:333,1,220,0|0,3:0|3:0,0:0:0:0:
124,360,52161,5,8,3:2:0:0:
65,266,52532,2,0,L|58:147,1,110,2|2,3:2|3:2,0:0:0:0:
52,46,53272,1,2,3:2:0:0:
154,85,53643,6,0,B|198:114|246:88|246:88|308:102|308:102|372:79,1,220,12|4,3:2|3:0,0:0:0:0:
468,49,54754,2,0,B|481:106|481:106|452:280,1,220,4|0,3:2|3:0,0:0:0:0:
385,351,55865,2,0,P|330:371|275:356,1,110,8|4,3:0|3:0,0:0:0:0:
193,293,56606,6,0,B|200:225|200:225|165:154|165:154|174:69,1,220,4|8,3:2|3:2,0:0:0:0:
269,30,57717,2,0,P|340:22|352:147,1,220,4|0,3:2|1:0,0:0:0:0:
276,217,58828,2,0,B|263:275|263:275|277:332,1,110,0|4,3:0|3:0,0:0:0:0:
373,372,59569,5,6,3:2:0:0:
455,299,59939,2,0,B|467:249|467:249|454:191,1,110,0|2,3:0|1:2,0:0:0:0:
425,85,60680,2,0,P|392:81|371:85,1,55,0|0,3:0|1:0,0:0:0:0:
317,97,61050,2,0,B|257:110|257:110|201:104,1,110,2|0,3:2|3:0,0:0:0:0:
104,70,61791,1,2,1:2:0:0:
71,175,62161,1,0,1:0:0:0:
176,207,62532,6,0,B|229:221|229:221|307:206,1,110,4|0,1:2|1:0,0:0:0:0:
388,177,63272,1,0,1:0:0:0:
439,274,63643,1,0,1:0:0:0:
256,192,63828,12,2,65495,0:0:0:0:
37,82,66976,6,0,L|41:194,1,110,14|0,0:0|1:0,0:0:0:0:
46,301,67717,2,0,P|103:318|153:297,1,110,8|0,0:0|1:0,0:0:0:0:
186,262,68272,2,0,L|182:152,1,110,10|8,0:0|0:0,0:0:0:0:
180,96,68828,1,2,1:2:0:0:
285,67,69198,2,0,P|335:59|396:74,1,110,10|2,0:0|1:2,0:0:0:0:
442,170,69939,6,0,B|449:220|449:220|437:282,2,110,10|0|10,0:0|1:0|0:0,0:0:0:0:
332,161,71050,1,2,1:2:0:0:
332,161,71235,2,0,P|277:168|224:155,1,110,10|8,0:0|0:0,0:0:0:0:
174,134,71791,2,0,L|179:260,1,110,2|10,1:2|0:0,0:0:0:0:
181,354,72532,1,2,1:2:0:0:
279,304,72902,6,0,P|334:295|389:308,1,110,14|0,0:0|1:0,0:0:0:0:
483,358,73643,2,0,B|492:310|492:310|487:248,1,110,8|0,0:0|1:0,0:0:0:0:
480,194,74198,2,0,P|412:166|361:163,1,110,10|8,0:0|0:0,0:0:0:0:
321,167,74754,1,2,1:2:0:0:
226,222,75124,2,0,B|161:207|100:227,1,110,10|2,0:0|1:2,0:0:0:0:
20,275,75865,6,0,B|14:220|14:220|22:165,1,110,10|0,0:0|1:0,0:0:0:0:
37,112,76421,2,0,P|85:103|110:110,1,55,10|10,0:0|0:0,0:0:0:0:
198,124,76976,1,2,1:2:0:0:
198,124,77161,2,0,P|256:134|326:118,1,110,10|0,0:0|1:0,0:0:0:0:
356,102,77717,5,0,1:0:0:0:
411,196,78087,1,0,1:0:0:0:
359,293,78458,1,0,1:0:0:0:
258,249,78828,6,0,P|190:242|142:257,1,110,14|0,0:0|1:0,0:0:0:0:
50,300,79569,2,0,B|38:240|38:240|48:181,1,110,8|2,0:0|1:2,0:0:0:0:
62,139,80124,2,0,P|113:150|179:138,1,110,8|8,0:0|0:0,0:0:0:0:
222,124,80680,2,0,B|236:184|236:184|229:238,2,110,2|10|2,1:2|0:0|1:2,0:0:0:0:
200,15,81791,6,0,P|254:9|313:18,1,110,10|0,0:0|1:0,0:0:0:0:
362,30,82347,2,0,L|349:146,1,110,10|10,0:0|0:0,0:0:0:0:
343,193,82902,1,2,1:2:0:0:
361,301,83272,2,0,P|431:316|485:303,1,110,8|0,0:0|1:0,0:0:0:0:
498,203,84013,2,0,B|504:149|504:149|496:87,1,110,10|10,0:0|0:0,0:0:0:0:
394,53,84754,6,0,B|280:17|280:99|179:58,1,220,14|10,0:0|0:0,0:0:0:0:
74,28,85865,1,0,1:0:0:0:
27,127,86235,2,0,L|34:241,1,110,2|0,0:0|1:0,0:0:0:0:
43,347,86976,2,0,P|99:358|158:340,1,110,10|2,0:0|1:2,0:0:0:0:
245,290,87717,6,0,B|250:219|250:219|212:153|212:153|219:68,1,220,10|10,0:0|0:0,0:0:0:0:
311,22,88828,2,0,P|384:15|424:31,1,110,0|0,1:0|0:0,0:0:0:0:
453,131,89569,1,12,0:0:0:0:
164,292,90680,6,0,L|159:175,1,110,14|2,0:0|1:2,0:0:0:0:
152,72,91421,2,0,P|212:52|271:70,1,110,10|2,0:0|1:2,0:0:0:0:
306,86,91976,2,0,P|360:96|411:76,1,110,10|10,0:0|0:0,0:0:0:0:
452,41,92532,1,0,1:0:0:0:
488,144,92902,2,0,L|484:253,1,110,10|2,0:0|1:2,0:0:0:0:
400,324,93643,6,0,B|346:336|346:336|285:328,1,110,10|0,0:0|1:0,0:0:0:0:
239,318,94198,1,10,0:0:0:0:
185,308,94384,2,0,P|179:249|189:190,1,110,10|0,0:0|1:0,0:0:0:0:
236,100,95124,2,0,P|185:76|120:85,1,110,0|2,0:0|1:2,0:0:0:0:
35,131,95865,2,0,L|40:267,1,110,10|2,0:0|1:2,0:0:0:0:
45,351,96606,1,14,0:0:0:0:
136,292,96976,6,0,P|204:276|254:286,1,110,2|10,1:2|0:0,0:0:0:0:
348,320,97717,1,2,1:2:0:0:
348,320,97902,2,0,L|342:204,1,110,10|2,0:0|1:2,0:0:0:0:
339,156,98458,1,0,1:2:0:0:
236,116,98828,1,2,0:0:0:0:
176,208,99198,1,2,0:0:0:0:
84,146,99569,6,0,P|66:213|86:272,1,110,14|0,0:0|1:0,0:0:0:0:
108,294,100124,2,0,B|162:304|162:304|228:287,1,110,14|0,0:0|0:0,0:0:0:0:
268,274,100680,1,12,0:0:0:0:
256,192,100865,12,0,105495,0:0:0:0:
