osu file format v14

[General]
AudioFilename: privatesky.mp3
AudioLeadIn: 0
PreviewTime: 66976
Countdown: 0
SampleSet: Soft
StackLeniency: 0.7
Mode: 0
LetterboxInBreaks: 0
WidescreenStoryboard: 0

[Editor]
DistanceSpacing: 2.2
BeatDivisor: 8
GridSize: 8
TimelineZoom: 2.6

[Metadata]
Title:Private Sky
TitleUnicode:Private Sky
Artist:Iria Hosizaki
ArtistUnicode:星咲 イリア
Creator:Log Off Now
Version:frost's Insane
Source:この大空に、翼をひろげて SNOW PRESENTS
Tags:if my heart had wings Kono Oozora ni Tsubasa wo Hirogete 羽々音 小鳥 Habane Kotori Minao Ohse pulltop eroge visual novel expansion opening op short version davided frostwich
BeatmapID:1199362
BeatmapSetID:558107

[Difficulty]
HPDrainRate:5.5
CircleSize:4
OverallDifficulty:7
ApproachRate:8.5
SliderMultiplier:1.7
SliderTickRate:2

[Events]
//Background and Video events
0,0,"privateskybg.jpg",0,0
Video,0,"optc.flv"
//Break Periods
//Storyboard Layer 0 (Background)
//Storyboard Layer 1 (Fail)
//Storyboard Layer 2 (Pass)
//Storyboard Layer 3 (Foreground)
//Storyboard Sound Samples

[TimingPoints]
310,370.37037037037,4,2,69,30,1,0
6235,-100,4,2,69,40,0,0
7995,-100,4,2,69,40,0,0
8180,-100,4,2,69,40,0,0
13921,-100,4,2,69,40,0,0
14106,-100,4,2,69,40,0,0
18087,-117.647058823529,4,2,69,30,0,0
19106,-117.647058823529,4,2,69,30,0,0
19291,-117.647058823529,4,2,69,30,0,0
25032,-117.647058823529,4,2,69,30,0,0
25217,-117.647058823529,4,2,69,30,0,0
29939,-111.111111111111,4,2,69,30,0,0
31050,-200,4,2,69,30,0,0
32161,-111.111111111111,4,2,69,30,0,0
34013,-200,4,2,69,30,0,0
35124,-111.111111111111,4,2,69,30,0,0
35865,-133.333333333333,4,2,69,30,0,0
38458,-111.111111111111,4,2,69,30,0,0
40124,-100,4,2,69,40,0,0
41791,-100,4,2,69,45,0,0
42809,-100,4,2,69,45,0,0
42995,-100,4,2,69,45,0,0
48735,-100,4,2,69,45,0,0
48921,-100,4,2,69,45,0,0
53643,-100,4,2,69,30,0,0
59569,-125,4,2,69,45,0,0
62532,-100,4,2,69,55,0,0
65495,-125,4,2,69,30,0,0
66606,-100,4,2,69,50,0,0
66976,-100,4,2,69,60,0,1
87809,-100,4,2,69,60,0,1
87995,-100,4,2,69,60,0,1
90680,-100,4,2,69,50,0,0
92439,-100,4,2,69,50,0,0
92624,-100,4,2,69,50,0,0
105495,-100,4,2,69,10,0,0

[Colours]
Combo1 : 208,169,145
Combo2 : 111,111,111
Combo3 : 242,121,167
Combo4 : 211,211,211

[HitObjects]
126,149,5124,6,0,P|87:142|47:152,2,63.75,2|0|0,0:3|0:0|0:0,0:0:0:0:
90,233,5495,2,0,P|57:255|36:290,2,63.75,2|0|0,0:3|0:0|0:0,0:0:0:0:
123,317,5865,2,0,P|116:356|126:396,2,63.75,2|0|0,0:3|0:0|0:0,0:0:0:0:
205,353,6235,5,6,0:3:0:0:
228,368,6606,2,0,L|331:360,1,85,2|0,0:0|0:0,0:0:0:0:
426,273,6976,2,0,B|311:264|311:264|264:220,1,170
157,100,7532,6,0,B|164:144|164:144|155:200,1,85,2|2,2:0|0:0,0:0:0:0:
18,260,7902,2,0,B|65:271|104:248|104:248|143:271|188:260,1,170,2|0,0:0|0:0,0:0:0:0:
299,163,8458,1,2,3:0:0:0:
272,323,8643,1,0,0:0:0:0:
157,183,8828,2,0,P|147:109|144:73,1,85,2|2,0:0|0:0,0:0:0:0:
285,243,9198,6,0,B|344:239|344:239|403:251|403:251|494:247,1,170,6|2,0:3|0:0,0:0:0:0:
336,342,9754,1,2,0:0:0:0:
200,243,9939,2,0,P|194:163|185:43,1,170
283,195,10495,1,2,0:0:0:0:
118,225,10680,6,0,P|114:185|110:125,1,85,2|2,0:0|0:3,0:0:0:0:
15,21,11050,1,2,0:3:0:0:
0,193,11235,1,2,0:0:0:0:
187,116,11421,2,0,P|190:158|194:200,1,85,2|0,0:0|0:0,0:0:0:0:
0,277,11791,2,0,P|-3:235|0:193,1,85,2|2,0:3|0:3,0:0:0:0:
200,346,12161,5,6,0:0:0:0:
223,361,12532,2,0,P|265:357|307:353,1,85,2|0,0:0|0:0,0:0:0:0:
433,274,12902,2,0,B|342:298|350:234|251:274,1,170
390,122,13458,6,0,P|399:171|390:219,1,85,2|2,0:0|0:0,0:0:0:0:
275,99,13828,2,0,B|334:93|334:93|394:104|394:104|457:93,1,170,2|0,0:0|0:0,0:0:0:0:
309,15,14384,1,2,3:0:0:0:
309,187,14569,1,0,0:0:0:0:
400,28,14754,2,0,B|485:13,1,85,2|2,0:0|0:0,0:0:0:0:
346,167,15124,6,0,B|255:151|255:151|169:169,1,170,6|0,0:0|0:0,0:0:0:0:
256,301,15680,1,2,0:0:0:0:
109,210,15865,2,0,P|111:119|204:88,1,170,2|2,0:0|0:0,0:0:0:0:
236,225,16421,1,2,0:3:0:0:
48,258,16606,6,0,P|24:201|22:156,1,85,4|0,3:0|0:0,0:0:0:0:
84,30,16976,1,8,0:0:0:0:
147,199,17161,1,2,0:3:0:0:
142,241,17253,1,8,0:0:0:0:
138,283,17346,1,2,0:3:0:0:
116,115,17532,1,2,0:3:0:0:
225,206,17717,2,0,L|219:293,1,85,2|2,0:3|0:3,0:0:0:0:
230,121,18087,6,0,B|273:130|288:150|288:150|318:153|318:153|338:181|383:183,1,144.500002756119,4|2,0:0|0:0,0:0:0:0:
357,87,18643,1,0,0:0:0:0:
284,227,18828,1,2,0:0:0:0:
284,227,19013,2,0,P|291:285|299:374,1,144.500002756119,2|0,0:0|0:0,0:0:0:0:
355,192,19569,6,0,P|301:148|211:187,1,144.500002756119,2|2,0:0|0:0,0:0:0:0:
284,227,20124,1,0,0:0:0:0:
432,216,20309,2,0,P|434:180|422:146,1,72.2500013780594,2|0,0:0|0:0,0:0:0:0:
355,192,20680,1,2,0:0:0:0:
510,242,20865,1,4,3:0:0:0:
356,334,21050,6,0,P|319:331|283:329,1,72.2500013780594,4|0,2:3|0:0,0:0:0:0:
258,202,21421,2,0,B|192:223|192:223|118:208,1,144.500002756119,2|0,0:0|0:0,0:0:0:0:
36,167,21976,1,2,0:0:0:0:
7,274,22161,2,0,B|15:345,1,72.2500013780594,2|0,0:0|0:0,0:0:0:0:
105,298,22532,6,0,P|164:274|244:298,1,144.500002756119,0|2,0:0|0:0,0:0:0:0:
318,356,23087,2,0,P|385:376|452:352,1,144.500002756119,0|0,0:0|0:0,0:0:0:0:
384,283,23643,1,2,0:0:0:0:
242,370,23828,1,4,3:0:0:0:
218,203,24013,6,0,B|246:275|193:271|218:351,1,144.500002756119,4|2,2:3|0:0,0:0:0:0:
298,276,24569,1,0,0:0:0:0:
149,239,24754,1,2,0:0:0:0:
149,239,24939,2,0,L|-13:251,1,144.500002756119,2|0,0:0|0:0,0:0:0:0:
136,126,25495,6,0,B|226:132|226:132|295:106,1,144.500002756119,2|0,0:0|0:0,0:0:0:0:
354,74,26050,1,0,0:0:0:0:
407,211,26235,2,0,L|400:301,1,72.2500013780594,2|0,0:0|0:0,0:0:0:0:
321,239,26606,1,2,0:0:0:0:
487,255,26791,1,4,3:0:0:0:
337,156,26976,6,0,P|301:152|265:148,1,72.2500013780594,4|0,2:3|0:0,0:0:0:0:
164,59,27347,2,0,B|185:105|185:105|163:154|192:203,1,144.500002756119,2|0,0:0|0:0,0:0:0:0:
187,195,28087,2,0,P|151:199|115:203,1,72.2500013780594,2|0,0:0|0:0,0:0:0:0:
105,218,28365,1,0,0:0:0:0:
95,233,28458,6,0,P|23:226|-30:155,1,144.500002756119,2|2,0:0|0:0,0:0:0:0:
70,133,29013,1,0,0:0:0:0:
187,195,29198,2,0,P|181:246|174:284,1,72.2500013780594
72,367,29569,1,2,0:0:0:0:
12,219,29754,1,2,0:0:0:0:
194,273,29939,6,0,B|247:269|247:269|300:280|300:280|382:276,1,152.999995330811,6|2,0:0|0:0,0:0:0:0:
437,226,30495,1,0,0:0:0:0:
358,350,30680,2,0,B|282:354,1,76.4999976654053,8|0,0:3|0:0,0:0:0:0:
143,269,31050,6,0,B|255:263|255:263|226:272|208:294,1,170,8|2,0:3|0:0,0:0:0:0:
207,294,32161,2,0,P|201:253|198:213,1,76.4999976654053
284,79,32532,1,2,0:0:0:0:
352,218,32717,1,2,0:0:0:0:
181,131,32902,6,0,P|104:139|28:147,1,152.999995330811,2|2,0:0|0:0,0:0:0:0:
91,66,33458,1,0,0:0:0:0:
145,210,33643,2,0,P|150:263|156:316,1,76.4999976654053,8|0,0:3|0:0,0:0:0:0:
327,269,34013,6,0,B|332:255|353:242|353:242|296:224|288:269|226:242,1,170,8|2,0:3|0:0,0:0:0:0:
225,241,35124,5,2,0:0:0:0:
150,143,35309,1,2,0:0:0:0:
128,305,35495,2,0,L|181:300,2,38.2499988327027,8|0|8,0:3|0:0|0:3,0:0:0:0:
128,305,35865,6,0,L|-15:291,1,127.500004863739,6|2,0:0|0:0,0:0:0:0:
138,172,36606,2,0,L|281:158,1,127.500004863739,0|2,0:0|0:0,0:0:0:0:
14,187,37347,6,0,B|-5:151|-5:151|0:43,2,127.500004863739,2|2|2,0:0|0:0|0:0,0:0:0:0:
14,187,38458,1,2,0:0:0:0:
101,49,38643,1,4,2:3:0:0:
174,221,38828,6,0,L|160:379,1,152.999995330811,6|2,2:3|0:0,0:0:0:0:
160,373,39569,1,2,2:3:0:0:
160,373,39939,1,2,0:0:0:0:
222,235,40124,1,0,0:0:0:0:
222,235,40217,1,8,2:0:0:0:
222,235,40309,6,0,P|129:224|38:215,1,170,2|2,0:0|0:0,0:0:0:0:
171,134,40865,1,2,0:3:0:0:
115,313,41050,1,8,0:0:0:0:
50,122,41235,1,0,0:0:0:0:
222,235,41421,2,0,P|268:237|335:223,1,85,10|0,2:3|0:0,0:0:0:0:
437,115,41791,6,0,L|423:319,1,170,4|2,0:0|0:0,0:0:0:0:
356,360,42347,1,0,0:0:0:0:
260,209,42532,1,2,0:0:0:0:
260,209,42717,2,0,B|175:197|175:197|91:223,1,170,2|2,0:0|0:0,0:0:0:0:
280,302,43272,6,0,B|460:276,1,170,2|2,0:0|0:0,0:0:0:0:
354,203,43828,1,0,0:0:0:0:
200,281,44013,2,0,B|205:332|205:332|233:383,1,85,2|0,0:0|0:0,0:0:0:0:
277,242,44384,1,2,0:0:0:0:
123,320,44569,1,2,0:0:0:0:
322,371,44754,6,0,B|424:356,1,85,6|0,0:0|0:0,0:0:0:0:
292,257,45124,2,0,B|233:253|233:253|174:265|174:265|83:261,1,170,2|0,0:0|0:0,0:0:0:0:
42,188,45680,1,2,0:0:0:0:
162,106,45865,2,0,B|173:156|173:156|162:213,1,85,2|0,0:0|0:0,0:0:0:0:
79,335,46235,5,2,0:0:0:0:
42,188,46421,1,2,0:3:0:0:
193,292,46606,2,0,B|178:394,1,85,0|0,0:0|0:0,0:0:0:0:
118,240,46976,1,2,0:3:0:0:
268,344,47161,1,0,0:0:0:0:
84,365,47347,2,0,B|0:352,1,85
150,212,47717,6,0,B|349:181,1,170,6|2,0:0|0:0,0:0:0:0:
386,114,48272,1,0,0:0:0:0:
341,296,48458,1,2,0:0:0:0:
341,296,48643,2,0,B|241:280|241:280|144:296,1,170,2|2,0:0|0:0,0:0:0:0:
48,144,49198,6,0,B|37:191|60:230|60:230|37:269|48:314,1,170,2|2,0:0|0:0,0:0:0:0:
143,378,49754,1,0,0:0:0:0:
259,247,49939,2,0,P|263:204|266:162,1,85,2|0,0:0|0:0,0:0:0:0:
173,255,50309,1,2,0:0:0:0:
345,239,50495,1,2,0:0:0:0:
181,107,50680,6,0,B|135:104|135:104|98:114,1,85,6|0,0:0|0:0,0:0:0:0:
8,244,51050,2,0,B|-1:205|21:166|21:166|-1:127|9:80,1,170,2|0,0:0|0:0,0:0:0:0:
99,22,51606,2,0,L|186:17,1,85,2|2,0:0|0:0,0:0:0:0:
269,167,51976,6,0,L|182:162,1,85,2|0,0:0|0:0,0:0:0:0:
87,217,52347,1,2,0:3:0:0:
234,295,52532,2,0,L|321:290,1,85,2|2,0:3|0:3,0:0:0:0:
402,122,52902,6,0,B|396:170|396:170|407:209,1,85,2|0,0:0|0:0,0:0:0:0:
497,334,53272,1,2,2:3:0:0:
493,160,53458,1,2,0:0:0:0:
318,290,53643,6,0,B|259:286|259:286|200:298|200:298|109:294,1,170,6|8,0:0|1:2,0:0:0:0:
60,227,54198,1,2,0:0:0:0:
8,373,54384,1,8,1:2:0:0:
46,211,54569,1,2,0:0:0:0:
170,373,54754,6,0,B|339:365,1,170,6|2,0:0|0:0,0:0:0:0:
411,290,55309,1,2,0:0:0:0:
278,193,55495,2,0,B|272:309,1,85,8|0,1:2|0:0,0:0:0:0:
273,277,55772,1,8,2:0:0:0:
273,277,55865,1,2,0:0:0:0:
357,145,56050,1,2,0:0:0:0:
199,241,56235,2,0,B|193:357,1,85,10|2,1:2|0:0,0:0:0:0:
357,145,56606,6,0,B|351:22|351:22|342:54|319:80,1,170,6|2,0:0|0:0,0:0:0:0:
264,149,57161,1,0,0:0:0:0:
450,141,57347,2,0,B|444:18,1,85,8|0,1:2|0:0,0:0:0:0:
264,149,57717,6,0,B|224:217|288:242|255:319|255:319|220:245,1,255,4|0,0:0|0:0,0:0:0:0:
334,196,58458,2,0,P|376:192|418:189,1,85,8|0,1:2|0:0,0:0:0:0:
418,188,58735,1,8,0:0:0:0:
418,188,58828,1,2,0:0:0:0:
307,278,59013,1,0,0:0:0:0:
361,114,59198,2,0,P|403:110|445:107,1,85,10|2,1:2|0:0,0:0:0:0:
218,28,59569,6,0,B|251:69|251:69|256:172,1,136,4|2,0:0|0:3,0:0:0:0:
255,152,60309,1,2,0:3:0:0:
169,97,60495,2,0,B|102:95,1,68,2|0,0:3|0:0,0:0:0:0:
29,175,60865,6,0,P|16:244|64:309,1,136,2|0,0:3|0:0,0:0:0:0:
171,232,61421,2,0,P|129:228|87:225,1,68,2|0,0:3|0:0,0:0:0:0:
196,333,61791,2,0,P|238:329|280:326,1,68,2|0,0:3|0:0,0:0:0:0:
377,224,62161,1,10,1:2:0:0:
359,375,62347,1,2,0:0:0:0:
265,140,62532,6,0,P|269:182|272:224,1,85,4|0,0:0|0:0,0:0:0:0:
451,134,62902,2,0,P|454:91|458:49,1,85,8|0,0:2|0:0,0:0:0:0:
377,224,63272,1,8,0:2:0:0:
339,44,63458,1,0,0:0:0:0:
388,245,63643,2,0,L|377:339,1,85,8|0,0:2|0:0,0:0:0:0:
172,248,64013,6,0,L|162:163,1,85,6|2,0:0|0:0,0:0:0:0:
165,142,64291,1,0,0:0:0:0:
167,120,64384,2,0,L|161:77,2,42.5,8|0|2,0:0|0:0|0:0,0:0:0:0:
350,155,64754,6,0,B|306:163|306:163|266:158,1,85,8|0,0:0|0:0,0:0:0:0:
269,179,65032,1,0,0:0:0:0:
271,200,65125,1,8,0:0:0:0:
274,221,65217,1,0,0:0:0:0:
276,242,65310,1,2,0:0:0:0:
279,263,65402,1,8,0:0:0:0:
279,263,66421,5,4,3:0:0:0:
419,288,66606,2,0,L|277:279,1,127.5,14|0,0:0|0:0,0:0:0:0:
248,194,66976,6,0,B|264:298|264:298|243:359,1,170,6|8,0:0|0:2,0:0:0:0:
92,263,67532,2,0,P|142:272|197:259,1,85
295,120,67902,2,0,P|245:111|190:124,1,85,2|10,0:0|0:2,0:0:0:0:
359,249,68272,6,0,P|426:262|395:186,1,170,2|0,0:0|0:0,0:0:0:0:
338,343,68828,2,0,P|380:356|427:357,1,85,8|0,0:2|0:0,0:0:0:0:
262,251,69198,2,0,P|219:252|179:265,1,85,2|2,0:0|0:0,0:0:0:0:
37,370,69569,1,8,0:2:0:0:
83,211,69754,1,0,0:0:0:0:
236,354,69939,6,0,P|364:344|414:341,1,170,2|8,0:0|0:2,0:0:0:0:
326,225,70495,1,0,0:0:0:0:
493,292,70680,2,0,P|486:378|484:412,1,85,2|2,0:0|0:0,0:0:0:0:
427,215,71050,1,10,0:2:0:0:
265,352,71235,6,0,P|180:345|95:339,1,170,2|0,0:0|0:0,0:0:0:0:
241,231,71791,2,0,P|327:224|361:222,1,85,8|0,0:2|0:0,0:0:0:0:
130,154,72161,1,2,0:0:0:0:
235,320,72347,1,2,0:0:0:0:
297,125,72532,2,0,P|300:82|303:40,1,85,8|0,0:2|0:0,0:0:0:0:
98,182,72902,6,0,P|103:266|110:351,1,170,6|8,0:0|0:2,0:0:0:0:
273,274,73458,2,0,L|179:264,1,85
346,371,73828,2,0,L|440:361,1,85,2|10,0:0|0:2,0:0:0:0:
368,162,74198,6,0,B|313:175|313:175|172:160,1,170,2|0,0:0|0:0,0:0:0:0:
80,294,74754,2,0,B|78:335|78:335|91:376,1,85,8|0,0:2|0:0,0:0:0:0:
259,278,75124,2,0,B|261:237|261:237|248:196,1,85,2|2,0:0|0:0,0:0:0:0:
102,86,75495,1,8,0:2:0:0:
163,244,75680,1,0,0:0:0:0:
262,49,75865,6,0,L|447:32,1,170,2|8,0:0|0:2,0:0:0:0:
335,141,76421,1,0,0:0:0:0:
174,49,76606,2,0,L|182:141,1,85,2|2,0:0|0:0,0:0:0:0:
280,274,76976,1,10,0:2:0:0:
67,214,77161,6,0,B|54:86|54:86|82:19,1,170,2|2,0:0|0:3,0:0:0:0:
82,28,77624,1,0,0:0:0:0:
94,11,77717,1,10,0:2:0:0:
187,185,77902,1,0,0:0:0:0:
185,206,77994,1,0,0:0:0:0:
183,227,78087,6,0,L|177:292,3,42.5,10|0|0|0,0:0|0:0|0:0|0:0,0:0:0:0:
203,306,78458,1,10,0:2:0:0:
243,318,78550,1,0,0:0:0:0:
282,306,78643,1,2,0:3:0:0:
322,291,78735,1,0,0:0:0:0:
364,294,78828,6,0,P|431:307|400:231,1,170,6|8,0:0|0:2,0:0:0:0:
236,233,79384,2,0,P|243:319|245:353,1,85,0|0,0:0|0:0,0:0:0:0:
328,155,79754,1,2,0:0:0:0:
147,233,79939,2,0,L|-43:216,1,170,10|2,0:2|0:0,0:0:0:0:
90,142,80495,1,0,0:0:0:0:
147,325,80680,6,0,L|32:314,1,85,8|0,0:2|0:0,0:0:0:0:
257,229,81050,2,0,L|371:218,1,85,2|2,0:0|0:0,0:0:0:0:
482,117,81421,1,10,0:2:0:0:
446,282,81606,1,0,0:0:0:0:
304,117,81791,6,0,B|172:105|172:105|135:113,1,170,2|8,0:0|0:2,0:0:0:0:
304,27,82347,2,0,L|388:18,1,85
507,147,82717,1,2,0:0:0:0:
405,30,82902,1,10,0:2:0:0:
260,201,83087,6,0,L|240:379,1,170,2|0,0:0|0:0,0:0:0:0:
411,323,83643,2,0,P|361:332|306:319,1,85,8|0,0:2|0:0,0:0:0:0:
173,207,84013,1,8,0:2:0:0:
368,250,84198,1,2,0:0:0:0:
183,124,84384,1,10,0:2:0:0:
223,339,84569,1,2,0:0:0:0:
319,110,84754,6,0,L|493:89,1,170,6|8,0:0|0:2,0:0:0:0:
324,17,85309,1,0,0:0:0:0:
421,189,85495,2,0,L|409:288,1,85,2|2,0:0|0:0,0:0:0:0:
253,376,85865,2,0,L|242:291,1,85,8|0,0:2|0:0,0:0:0:0:
86,133,86235,6,0,B|201:119|201:119|247:81,1,170,2|8,0:0|0:2,0:0:0:0:
66,33,86791,1,0,0:0:0:0:
177,212,86976,1,2,0:0:0:0:
176,8,87161,1,2,0:0:0:0:
86,215,87347,2,0,L|1:204,1,85,8|0,0:2|0:0,0:0:0:0:
242,84,87717,6,0,B|281:77|324:93|324:93|360:63|399:56,1,170,6|10,0:0|0:2,0:0:0:0:
272,187,88272,1,0,0:0:0:0:
482,149,88458,2,0,P|396:142|362:140,1,85,10|0,0:2|0:0,0:0:0:0:
245,286,88828,2,0,P|331:279|365:277,1,85,10|0,0:2|0:0,0:0:0:0:
156,173,89198,5,2,3:2:0:0:
202,367,89384,1,2,3:0:0:0:
280,167,89569,2,0,P|276:124|273:82,1,85,8|0,0:2|0:0,0:0:0:0:
265,54,89847,1,8,2:0:0:0:
259,27,89939,1,2,0:0:0:0:
148,193,90124,1,0,0:0:0:0:
364,209,90309,2,0,P|367:166|370:124,1,85,8|0,0:2|0:0,0:0:0:0:
169,288,90680,5,4,0:0:0:0:
146,303,91050,2,0,L|43:295,1,85,8|2,0:2|0:0,0:0:0:0:
212,204,91421,2,0,B|291:226|291:226|378:216,1,170,2|8,0:0|0:2,0:0:0:0:
300,32,91976,6,0,B|289:80|289:80|291:144,1,85,2|6,0:0|0:0,0:0:0:0:
449,21,92347,2,0,B|398:27|398:27|337:15|337:15|280:21,1,170,2|0,0:0|0:0,0:0:0:0:
127,122,92902,1,2,2:3:0:0:
279,196,93087,1,2,0:0:0:0:
110,108,93272,2,0,P|106:68|102:8,1,85,8|0,0:2|0:0,0:0:0:0:
246,169,93643,6,0,B|337:193|329:129|428:169,1,170,6|8,0:0|0:2,0:0:0:0:
281,34,94198,1,2,0:0:0:0:
162,185,94384,2,0,L|175:377,1,170,2|8,0:0|0:2,0:0:0:0:
260,206,94939,1,0,0:0:0:0:
68,239,95124,6,0,L|75:348,1,85,2|0,0:0|0:0,0:0:0:0:
164,164,95495,2,0,L|169:87,2,63.75,8|0|2,0:2|0:0|0:0,0:0:0:0:
259,107,95865,2,0,L|264:22,1,85,2|0,2:3|0:0,0:0:0:0:
440,104,96235,2,0,P|473:100|507:97,2,63.75,8|0|0,0:2|0:0|0:0,0:0:0:0:
332,179,96606,5,6,2:3:0:0:
356,193,96976,2,0,P|398:189|440:185,1,85,8|0,0:2|0:0,0:0:0:0:
273,123,97347,2,0,P|188:115|103:107,1,170,2|8,0:0|0:0,0:0:0:0:
201,284,97902,6,0,B|211:249|211:249|213:200,1,85,2|6,0:0|0:0,0:0:0:0:
147,25,98272,1,8,0:0:0:0:
125,23,98364,1,0,0:0:0:0:
104,21,98458,1,8,0:2:0:0:
290,39,98643,1,0,0:0:0:0:
103,107,98828,2,0,P|99:149|95:192,1,85,8|2,0:2|0:0,0:0:0:0:
297,257,99198,2,0,P|294:215|290:173,1,85,8|2,0:2|0:0,0:0:0:0:
87,320,99569,5,4,0:0:0:0:
297,363,99754,2,0,L|408:351,1,85,2|8,0:0|0:2,0:0:0:0:
287,150,100124,1,4,0:0:0:0:
192,342,100309,1,8,0:2:0:0:
194,124,100495,1,0,0:0:0:0:
381,353,100680,5,12,0:2:0:0:
256,192,100772,12,0,105495,0:0:0:0:
