osu file format v14

[General]
AudioFilename: privatesky.mp3
AudioLeadIn: 0
PreviewTime: 66976
Countdown: 0
SampleSet: Soft
StackLeniency: 0.7
Mode: 0
LetterboxInBreaks: 0
WidescreenStoryboard: 0

[Editor]
Bookmarks: 6235,18087,35865,40124,41791,59569,62532,65124,66976,98272,98365,98458,100680,105495
DistanceSpacing: 1.7
BeatDivisor: 4
GridSize: 4
TimelineZoom: 1.4

[Metadata]
Title:Private Sky
TitleUnicode:Private Sky
Artist:Iria Hosizaki
ArtistUnicode:星咲 イリア
Creator:Log Off Now
Version:DavidEd's Hard
Source:この大空に、翼をひろげて SNOW PRESENTS
Tags:if my heart had wings Kono Oozora ni Tsubasa wo Hirogete 羽々音 小鳥 Habane Kotori Minao Ohse pulltop eroge visual novel expansion opening op short version davided frostwich
BeatmapID:1188944
BeatmapSetID:558107

[Difficulty]
HPDrainRate:5
CircleSize:4
OverallDifficulty:6
ApproachRate:7.5
SliderMultiplier:1.25
SliderTickRate:1

[Events]
//Background and Video events
0,0,"privateskybg.jpg",0,0
Video,0,"optc.flv"
//Break Periods
//Storyboard Layer 0 (Background)
//Storyboard Layer 1 (Fail)
//Storyboard Layer 2 (Pass)
//Storyboard Layer 3 (Foreground)
//Storyboard Sound Samples

[TimingPoints]
310,370.37037037037,4,2,1,30,1,0
6235,-100,4,2,3,40,0,0
18087,-117.647058823529,4,2,3,30,0,0
40124,-100,4,2,3,40,0,0
41791,-100,4,2,3,45,0,0
59569,-125,4,2,3,45,0,0
62532,-100,4,2,3,55,0,0
65495,-125,4,2,3,30,0,0
66606,-100,4,2,3,50,0,0
66976,-100,4,2,3,60,0,1
90680,-100,4,2,3,50,0,0
105495,-100,4,2,3,10,0,0

[Colours]
Combo1 : 196,146,115
Combo2 : 253,218,254
Combo3 : 242,121,167
Combo4 : 190,190,190

[HitObjects]
199,152,5124,6,0,P|187:128|168:112,2,46.875,2|0|0,0:0|0:0|0:0,0:0:0:0:
178,225,5495,2,0,P|162:238|136:248,2,46.875,2|0|0,0:0|0:0|0:0,0:0:0:0:
251,209,5865,2,0,P|263:233|280:248,2,46.875,2|0|0,0:0|0:0|0:0,0:0:0:0:
272,136,6235,5,10,0:0:0:0:
420,28,6606,2,0,L|423:90,1,62.5,2|0,0:0|0:0,0:0:0:0:
484,148,6976,2,0,P|436:172|364:148,1,125,2|2,0:0|0:0,0:0:0:0:
336,80,7532,6,0,P|305:64|271:60,1,62.5,10|8,0:0|0:0,0:0:0:0:
280,140,7902,2,0,L|276:203,1,62.5,2|0,0:0|0:0,0:0:0:0:
268,284,8272,1,0,0:0:0:0:
136,184,8458,2,0,P|168:176|208:176,1,62.5,2|0,0:0|0:0,0:0:0:0:
180,256,8828,2,0,P|148:264|108:264,1,62.5,2|8,0:0|0:0,0:0:0:0:
76,124,9198,6,0,P|116:104|216:96,1,125,10|0,0:0|0:0,0:0:0:0:
272,112,9754,1,2,0:0:0:0:
272,112,9939,2,0,B|320:120|320:120|412:104,1,125,2|0,0:0|0:0,0:0:0:0:
476,92,10495,1,8,0:0:0:0:
456,172,10680,6,0,P|448:208|448:240,1,62.5,8|2,0:0|0:0,0:0:0:0:
452,316,11050,1,2,0:0:0:0:
345,247,11235,1,2,0:0:0:0:
244,316,11421,2,0,L|200:372,1,62.5,2|0,0:0|0:0,0:0:0:0:
164,284,11791,2,0,L|144:224,1,62.5,2|8,0:0|0:0,0:0:0:0:
92,84,12161,5,12,0:0:0:0:
280,156,12532,2,0,L|299:96,1,62.5,2|0,0:0|0:0,0:0:0:0:
268,20,12902,2,0,P|328:20|376:64,1,125,2|0,0:0|0:0,0:0:0:0:
364,144,13458,6,0,L|383:203,1,62.5,10|8,0:0|0:0,0:0:0:0:
299,215,13828,2,0,L|279:155,1,62.5,2|0,0:0|0:0,0:0:0:0:
228,92,14198,1,0,0:0:0:0:
108,172,14384,2,0,L|56:212,1,62.5,2|0,0:0|0:0,0:0:0:0:
24,136,14754,2,0,L|73:97,1,62.5,2|8,0:0|0:0,0:0:0:0:
199,167,15124,6,0,P|215:227|202:288,1,125,10|0,0:0|0:0,0:0:0:0:
136,332,15680,1,2,0:0:0:0:
136,332,15865,2,0,P|180:364|256:348,1,125,2|0,0:0|0:0,0:0:0:0:
312,308,16421,1,8,0:0:0:0:
392,328,16606,1,8,0:0:0:0:
412,156,16976,5,8,0:0:0:0:
330,143,17161,1,0,1:0:0:0:
330,143,17254,1,0,1:0:0:0:
330,143,17347,2,0,L|307:72,1,62.5,8|4,0:3|0:3,0:0:0:0:
241,134,17717,1,8,0:0:0:0:
169,185,17902,1,0,0:0:0:0:
44,120,18087,6,0,P|56:72|104:36,1,106.250002026558,4|0,0:0|0:0,0:0:0:0:
124,116,18643,1,0,0:0:0:0:
88,188,18828,1,0,0:0:0:0:
88,188,19013,2,0,B|76:220|76:220|84:308,1,106.250002026558,0|0,0:0|0:0,0:0:0:0:
164,292,19569,6,0,B|198:291|198:291|278:329,1,106.250002026558,2|2,0:0|0:0,0:0:0:0:
336,352,20124,1,2,0:0:0:0:
368,280,20309,1,0,0:0:0:0:
296,248,20495,2,0,L|232:220,1,53.125001013279,2|0,0:0|0:0,0:0:0:0:
154,173,20865,1,8,0:0:0:0:
154,173,21050,6,0,L|202:151,1,53.125001013279,8|0,0:0|0:0,0:0:0:0:
282,153,21421,2,0,P|266:101|222:73,1,106.250002026558,0|0,0:0|0:0,0:0:0:0:
224,73,22161,1,0,0:0:0:0:
92,230,22532,6,0,L|80:170,1,53.125001013279,2|0,0:0|0:0,0:0:0:0:
139,80,22902,1,2,0:0:0:0:
139,80,23087,2,0,L|149:132,1,53.125001013279,2|0,0:0|0:0,0:0:0:0:
228,192,23458,2,0,L|238:140,1,53.125001013279,2|0,0:0|0:0,0:0:0:0:
256,68,23828,1,8,0:0:0:0:
303,208,24013,6,0,P|278:253|230:272,1,106.250002026558,10|0,0:0|0:0,0:0:0:0:
160,236,24569,1,0,0:0:0:0:
164,316,24754,1,0,0:0:0:0:
164,316,24939,2,0,P|204:348|264:344,1,106.250002026558,0|0,0:0|0:0,0:0:0:0:
332,316,25495,6,0,B|372:300|372:300|440:304,1,106.250002026558,2|2,0:0|0:0,0:0:0:0:
512,280,26050,1,2,0:0:0:0:
492,204,26235,1,0,0:0:0:0:
416,228,26421,2,0,L|344:224,1,53.125001013279,2|0,0:0|0:0,0:0:0:0:
212,216,26791,1,8,0:0:0:0:
212,216,26976,6,0,P|224:176|244:156,1,53.125001013279,10|0,0:0|0:0,0:0:0:0:
288,224,27347,2,0,P|261:276|219:292,1,106.250002026558,0|0,0:0|0:0,0:0:0:0:
218,292,28087,1,0,0:0:0:0:
128,298,28272,6,0,L|136:334,2,26.5625005066395,2|2|2,0:0|0:0|0:0,0:0:0:0:
32,160,28828,2,0,L|40:100,1,53.125001013279,0|2,0:0|0:0,0:0:0:0:
168,32,29198,1,2,0:0:0:0:
180,112,29384,1,2,0:0:0:0:
108,148,29569,1,2,0:0:0:0:
39,107,29754,1,2,0:0:0:0:
168,32,29939,6,0,P|216:40|256:84,1,106.250002026558,14|0,0:0|0:0,0:0:0:0:
280,156,30495,1,0,0:0:0:0:
360,144,30680,1,10,0:0:0:0:
408,308,31050,6,0,B|372:292|372:292|304:300,1,106.250002026558,10|0,0:0|0:0,0:0:0:0:
224,316,31606,1,0,0:0:0:0:
224,316,31791,2,0,L|152:308,1,53.125001013279,0|0,0:0|0:0,0:0:0:0:
40,228,32161,1,0,0:0:0:0:
112,188,32347,1,2,0:0:0:0:
180,228,32532,1,0,0:0:0:0:
171,310,32717,1,0,0:0:0:0:
40,228,32902,6,0,P|28:192|56:124,1,106.250002026558,10|0,0:0|0:0,0:0:0:0:
128,108,33458,1,0,0:0:0:0:
144,32,33643,1,10,0:0:0:0:
288,96,34013,6,0,L|298:201,1,106.250002026558,10|0,0:0|0:0,0:0:0:0:
280,280,34569,1,0,0:0:0:0:
280,280,34754,2,0,P|307:281|336:270,1,53.125001013279,2|0,0:0|0:0,0:0:0:0:
380,210,35124,1,0,0:0:0:0:
268,199,35309,2,0,P|243:202|213:215,1,53.125001013279,2|0,0:0|0:0,0:0:0:0:
101,279,35679,1,8,0:0:0:0:
32,144,35865,5,14,0:0:0:0:
172,72,36235,1,0,0:0:0:0:
248,212,36606,1,0,0:0:0:0:
388,140,36976,1,0,0:0:0:0:
440,292,37347,6,0,B|404:300|404:300|336:284,1,106.250002026558,2|0,0:0|0:0,0:0:0:0:
260,264,37902,1,0,0:0:0:0:
260,264,38087,2,0,P|259:301|272:328,1,53.125001013279,2|0,0:0|0:0,0:0:0:0:
316,208,38458,1,0,0:0:0:0:
296,132,38643,1,8,0:0:0:0:
148,160,38828,6,0,P|96:160|48:124,1,106.250002026558,8|0,0:0|0:0,0:0:0:0:
120,80,39384,1,0,0:0:0:0:
204,94,39569,1,10,0:0:0:0:
328,44,39939,1,8,0:0:0:0:
392,112,40124,6,0,L|444:120,2,31.25,0|0|0,0:0|0:0|1:0,0:0:0:0:
328,180,40495,2,0,P|316:212|316:244,1,62.5,0|8,0:0|0:3,0:0:0:0:
408,352,40865,1,8,0:3:0:0:
448,284,41050,1,4,0:3:0:0:
396,224,41235,1,4,0:3:0:0:
315,240,41421,2,0,L|232:256,1,62.5,4|8,0:3|0:0,0:0:0:0:
140,340,41791,6,0,P|112:284|116:220,1,125,4|0,3:2|3:0,0:0:0:0:
136,144,42347,1,0,0:0:0:0:
84,80,42532,1,0,3:0:0:0:
84,80,42717,2,0,B|132:60|132:60|204:80,1,125,0|8,0:0|0:0,0:0:0:0:
280,104,43272,6,0,P|344:112|408:92,1,125,8|0,3:2|3:0,0:0:0:0:
476,60,43828,1,0,0:0:0:0:
508,136,44013,1,0,3:0:0:0:
436,172,44198,2,0,L|408:240,1,62.5,0|0,0:0|3:0,0:0:0:0:
300,276,44569,1,8,0:0:0:0:
300,276,44754,6,0,L|323:218,1,62.5,8|0,3:2|0:0,0:0:0:0:
380,308,45124,2,0,P|340:352|268:356,1,125,0|0,3:0|3:0,0:0:0:0:
196,344,45680,2,0,L|128:332,1,62.5,0|0,0:0|3:0,0:0:0:0:
42,223,46050,1,8,0:0:0:0:
42,223,46235,6,0,L|103:233,1,62.5,8|2,3:2|0:0,0:0:0:0:
183,246,46606,1,2,3:2:0:0:
250,207,46791,1,2,0:0:0:0:
260,127,46976,2,0,L|268:59,1,62.5,2|0,3:2|0:0,0:0:0:0:
346,54,47347,1,2,3:2:0:0:
444,140,47532,1,10,0:0:0:0:
444,140,47717,6,0,L|452:264,1,125,8|0,3:2|3:0,0:0:0:0:
456,344,48272,1,0,0:0:0:0:
384,304,48458,1,0,3:0:0:0:
384,304,48643,2,0,B|344:280|344:280|264:292,1,125,0|0,0:0|0:0,0:0:0:0:
208,348,49198,6,0,P|186:295|212:232,1,125,0|0,3:0|3:0,0:0:0:0:
288,208,49754,1,0,0:0:0:0:
256,128,49939,1,0,3:0:0:0:
180,156,50124,2,0,L|120:176,1,62.5,0|0,0:0|3:0,0:0:0:0:
43,83,50495,1,8,0:0:0:0:
43,83,50680,6,0,L|103:63,1,62.5,8|0,3:2|0:0,0:0:0:0:
183,75,51050,2,0,P|251:83|307:63,1,125,0|0,3:0|3:0,0:0:0:0:
383,39,51606,2,0,L|391:111,1,62.5,0|0,0:0|3:0,0:0:0:0:
399,183,51976,1,8,0:0:0:0:
256,292,52347,5,2,0:0:0:0:
332,316,52532,1,2,3:2:0:0:
312,236,52717,1,2,0:0:0:0:
232,216,52902,2,0,P|200:208|168:184,1,62.5,2|2,3:2|0:0,0:0:0:0:
128,124,53272,1,2,3:2:0:0:
64,172,53458,1,8,0:0:0:0:
124,308,53643,6,0,B|140:344|140:344|176:320|224:320,1,125,12|8,3:2|3:0,0:0:0:0:
320,340,54198,1,8,0:3:0:0:
284,248,54384,1,4,3:0:0:0:
284,248,54569,1,4,0:3:0:0:
364,128,54754,6,0,B|388:97|388:97|400:136|431:170,1,125,4|0,3:2|3:0,0:0:0:0:
496,236,55309,2,0,P|469:254|432:263,1,62.5,0|0,0:0|3:0,0:0:0:0:
356,220,55680,1,8,0:3:0:0:
356,220,55772,1,8,0:3:0:0:
356,220,55865,1,8,3:0:0:0:
364,312,56050,1,4,0:3:0:0:
280,272,56235,2,0,P|251:259|220:256,1,62.5,4|8,3:0|0:0,0:0:0:0:
80,284,56606,6,0,B|64:240|64:240|76:160,1,125,4|0,3:2|3:0,0:0:0:0:
88,72,57161,1,0,0:0:0:0:
162,173,57347,1,8,3:2:0:0:
292,60,57717,6,0,B|321:33|321:33|343:70|386:91,1,125,4|0,3:2|3:0,0:0:0:0:
476,80,58272,1,0,0:0:0:0:
388,170,58458,1,0,1:0:0:0:
444,236,58643,2,0,L|492:244,2,31.25,0|0|0,1:0|0:0|3:0,0:0:0:0:
360,272,59013,1,8,0:3:0:0:
284,220,59198,2,0,P|276:191|279:152,1,62.5,8|8,3:0|0:0,0:0:0:0:
450,93,59569,6,0,P|424:135|388:169,1,100,6|0,3:2|3:0,0:0:0:0:
284,220,60124,1,0,0:0:0:0:
187,136,60309,2,0,B|156:111|141:82|141:82|111:82,1,100,2|0,1:2|3:0,0:0:0:0:
60,196,60865,6,0,L|44:248,1,50,0|2,1:0|3:2,0:0:0:0:
20,328,61235,1,0,1:0:0:0:
108,316,61421,2,0,L|157:309,1,50,0|0,3:0|0:0,0:0:0:0:
296,292,61791,2,0,P|304:244|284:196,1,100,2|0,1:2|1:0,0:0:0:0:
240,120,62347,1,0,0:0:0:0:
380,68,62532,6,0,L|452:44,1,62.5,4|8,1:2|0:0,0:0:0:0:
448,160,62902,2,0,L|388:179,1,62.5,0|8,1:0|0:0,0:0:0:0:
392,292,63272,2,0,L|452:273,1,62.5,0|8,1:0|0:0,0:0:0:0:
308,232,63643,6,0,P|248:216|180:240,1,125,0|0,1:0|0:0,0:0:0:0:
108,292,64198,1,0,1:0:0:0:
108,292,64291,1,0,1:0:0:0:
108,292,64384,2,0,L|92:220,1,62.5,0|0,0:0|1:0,0:0:0:0:
40,148,64754,2,0,L|53:86,1,62.5,0|0,0:0|1:0,0:0:0:0:
144,132,65124,6,0,L|196:128,3,31.25,0|0|0|0,1:0|1:0|1:0|1:0,0:0:0:0:
212,128,65495,6,0,P|264:124|320:104,1,100,2|2,0:0|0:0,0:0:0:0:
420,80,66050,1,0,0:0:0:0:
420,80,66235,2,0,L|428:136,1,50,2|8,0:0|0:0,0:0:0:0:
454,273,66606,1,2,1:3:0:0:
256,192,66976,6,0,P|196:184|128:208,1,125,14|0,0:0|1:0,0:0:0:0:
48,252,67532,2,0,L|40:172,1,62.5,10|8,0:0|0:0,0:0:0:0:
104,112,67902,2,0,L|112:32,1,62.5,2|0,0:0|1:0,0:0:0:0:
200,92,68272,6,0,P|260:100|328:76,1,125,10|8,0:0|0:0,0:0:0:0:
412,40,68828,2,0,L|418:102,1,62.5,2|8,1:2|0:0,0:0:0:0:
496,216,69198,2,0,L|489:153,1,62.5,10|0,0:0|0:0,0:0:0:0:
352,156,69569,2,0,L|345:218,1,62.5,2|0,1:2|0:0,0:0:0:0:
288,344,69939,6,0,P|228:344|180:304,1,125,10|0,0:0|1:0,0:0:0:0:
124,220,70495,1,10,0:0:0:0:
124,220,70680,2,0,L|84:272,1,62.5,10|2,0:0|0:0,0:0:0:0:
208,220,71050,1,2,1:2:0:0:
208,220,71235,6,0,P|184:156|128:132,1,125,10|8,0:0|0:0,0:0:0:0:
36,112,71791,2,0,L|74:62,1,62.5,2|8,1:2|0:0,0:0:0:0:
172,44,72161,2,0,L|221:81,1,62.5,10|0,0:0|0:0,0:0:0:0:
272,168,72532,2,0,P|304:140|316:112,1,62.5,2|0,1:2|0:0,0:0:0:0:
420,20,72902,6,0,L|428:152,1,125,14|0,0:0|1:0,0:0:0:0:
400,240,73458,2,0,L|404:312,1,62.5,10|8,0:0|0:0,0:0:0:0:
500,332,73828,2,0,L|496:269,1,62.5,2|0,0:0|1:0,0:0:0:0:
352,172,74198,6,0,P|320:216|332:288,1,125,10|8,0:0|0:0,0:0:0:0:
468,192,74754,2,0,P|468:160|452:112,1,62.5,2|8,1:2|0:0,0:0:0:0:
396,56,75124,2,0,L|320:48,1,62.5,10|0,0:0|0:0,0:0:0:0:
252,104,75495,2,0,L|176:112,1,62.5,2|0,1:2|0:0,0:0:0:0:
48,60,75865,6,0,B|60:100|60:100|56:188,1,125,10|0,0:0|1:0,0:0:0:0:
48,284,76421,1,10,0:0:0:0:
48,284,76606,2,0,P|80:296|108:296,1,62.5,10|2,0:0|0:0,0:0:0:0:
244,232,76976,1,2,1:2:0:0:
200,320,77161,1,10,0:0:0:0:
152,209,77347,5,2,0:0:0:0:
173,109,77532,2,0,L|150:66,2,31.25,0|0|0,1:0|1:0|1:0,0:0:0:0:
276,132,77902,1,0,1:0:0:0:
312,32,78087,1,0,1:0:0:0:
384,112,78272,2,0,L|424:120,2,31.25,0|0|0,1:0|1:0|1:0,0:0:0:0:
276,132,78643,1,8,0:3:0:0:
390,224,78828,6,0,P|338:252|274:252,1,125,14|0,0:0|1:0,0:0:0:0:
190,275,79384,2,0,L|118:259,1,62.5,10|8,0:0|0:0,0:0:0:0:
104,168,79754,1,2,0:0:0:0:
222,163,79939,6,0,P|283:163|338:135,1,125,2|0,1:2|0:0,0:0:0:0:
448,88,80495,1,8,0:0:0:0:
480,184,80680,2,0,L|500:252,1,62.5,2|0,1:2|0:0,0:0:0:0:
391,327,81050,2,0,L|373:267,1,62.5,10|0,0:0|0:0,0:0:0:0:
338,134,81421,2,0,L|278:151,1,62.5,2|0,1:2|0:0,0:0:0:0:
172,240,81791,6,0,P|140:188|140:108,1,125,10|0,0:0|1:0,0:0:0:0:
220,68,82347,2,0,L|279:50,1,62.5,10|0,0:0|0:0,0:0:0:0:
376,24,82717,1,10,0:0:0:0:
472,140,82902,1,2,1:2:0:0:
472,140,83087,6,0,P|428:168|348:172,1,125,10|8,0:0|0:0,0:0:0:0:
260,152,83643,2,0,L|201:170,1,62.5,0|0,1:0|0:0,0:0:0:0:
132,244,84013,1,10,0:0:0:0:
64,172,84198,1,2,1:2:0:0:
132,100,84384,1,10,0:0:0:0:
200,170,84569,1,2,0:0:0:0:
300,284,84754,6,0,P|360:308|424:288,1,125,14|0,0:0|1:0,0:0:0:0:
492,228,85309,1,10,0:0:0:0:
492,228,85495,2,0,L|484:160,1,62.5,10|0,0:0|0:0,0:0:0:0:
400,116,85865,2,0,L|392:184,1,62.5,0|8,1:0|0:0,0:0:0:0:
248,220,86235,6,0,L|160:128,1,125,2|0,0:0|1:0,0:0:0:0:
96,52,86791,1,8,0:0:0:0:
64,148,86976,1,10,0:0:0:0:
161,129,87161,1,2,0:0:0:0:
200,36,87347,1,2,1:2:0:0:
300,20,87532,1,2,0:0:0:0:
428,100,87717,6,0,P|448:156|440:232,1,125,10|0,0:0|1:0,0:0:0:0:
376,292,88272,1,10,0:0:0:0:
376,292,88458,2,0,L|300:296,1,62.5,10|0,0:0|0:0,0:0:0:0:
212,300,88828,1,0,1:0:0:0:
256,208,89013,1,8,0:0:0:0:
140,44,89384,5,8,0:0:0:0:
140,44,89569,2,0,L|112:104,1,62.5,12|8,0:0|0:3,0:0:0:0:
44,172,89939,2,0,L|-12:176,2,31.25,8|0|4,0:3|0:0|0:3,0:0:0:0:
116,240,90309,1,4,0:3:0:0:
184,168,90495,1,2,0:0:0:0:
316,240,90680,5,14,0:0:0:0:
408,64,91050,2,0,L|470:89,1,62.5,2|8,1:2|0:0,0:0:0:0:
404,153,91421,2,0,P|352:165|268:149,1,125,10|2,0:0|1:2,0:0:0:0:
212,100,91976,6,0,L|140:92,1,62.5,10|0,0:0|0:0,0:0:0:0:
104,168,92347,2,0,L|32:160,1,62.5,10|0,0:0|1:0,0:0:0:0:
56,248,92717,1,10,0:0:0:0:
148,334,92902,2,0,L|210:327,1,62.5,10|0,0:0|0:0,0:0:0:0:
280,274,93272,2,0,P|296:310|296:342,1,62.5,2|0,1:2|0:0,0:0:0:0:
199,242,93643,6,0,P|183:190|199:114,1,125,10|0,0:0|1:0,0:0:0:0:
257,56,94198,1,10,0:0:0:0:
257,56,94384,2,0,L|329:48,1,62.5,10|0,0:0|0:0,0:0:0:0:
400,84,94754,1,0,1:0:0:0:
376,168,94939,6,0,P|368:208|372:236,1,62.5,8|0,0:0|0:0,0:0:0:0:
408,308,95309,1,8,0:0:0:0:
260,340,95495,2,0,L|212:354,2,46.875,2|0|0,1:2|0:0|0:0,0:0:0:0:
304,260,95865,2,0,L|350:246,2,46.875,10|0|0,0:0|0:0|0:0,0:0:0:0:
220,224,96235,2,0,L|168:239,2,46.875,2|0|0,1:2|0:0|0:0,0:0:0:0:
268,136,96606,6,0,P|284:104|284:72,1,62.5,14|0,0:0|0:0,0:0:0:0:
196,80,96976,2,0,L|120:64,1,62.5,2|8,1:2|0:0,0:0:0:0:
80,136,97347,2,0,L|4:120,1,62.5,10|0,0:0|0:0,0:0:0:0:
24,212,97717,1,2,1:2:0:0:
132,296,97902,6,0,L|208:280,1,62.5,10|8,0:0|0:0,0:0:0:0:
252,220,98272,2,0,L|280:188,2,31.25,2|0|0,1:2|1:2|1:2,0:0:0:0:
197,151,98643,1,2,0:0:0:0:
272,106,98828,1,2,0:0:0:0:
347,150,99013,1,8,0:3:0:0:
355,236,99198,2,0,L|363:308,1,62.5,2|8,0:0|0:0,0:0:0:0:
484,232,99569,6,0,L|472:107,1,125,12|0,0:0|1:0,0:0:0:0:
352,52,100124,2,0,P|340:84|340:112,1,62.5,14|2,0:0|0:0,0:0:0:0:
400,188,100495,1,8,0:0:0:0:
260,156,100680,5,12,0:0:0:0:
256,192,100865,12,0,105495,0:0:0:0:
