osu file format v14

[General]
AudioFilename: Whatafeeling.mp3
AudioLeadIn: 0
PreviewTime: 72774
Countdown: 0
SampleSet: Soft
StackLeniency: 0.7
Mode: 0
LetterboxInBreaks: 0
WidescreenStoryboard: 0

[Editor]
Bookmarks: 13422,34281,57781,73511,89241,104971,120701,136431,152161,167891,183621,191486,199351,215081,230811
DistanceSpacing: 1.1
BeatDivisor: 4
GridSize: 4
TimelineZoom: 0.8

[Metadata]
Title:What a Feeling
TitleUnicode:What a Feeling
Artist:Irene Cara
ArtistUnicode:Irene Cara
Creator:Alarido
Version:Hard
Source:FLASHDANCE
Tags:Alex Dancer Broadway Dream 70s flashback good times collab collaboration project_railgun alarail Dexfrild Doomsday DakeDekaane Gero Desperate-kun Irreversible Mao Euny -Bakari-
BeatmapID:1018864
BeatmapSetID:476970

[Difficulty]
HPDrainRate:6
CircleSize:4
OverallDifficulty:6
ApproachRate:7
SliderMultiplier:2
SliderTickRate:2

[Events]
//Background and Video events
Video,0,"Whatafeeling.avi"
0,0,"Whatafeeling.jpg",0,0
//Break Periods
2,105171,118081
2,184312,190586
//Storyboard Layer 0 (Background)
//Storyboard Layer 1 (Fail)
//Storyboard Layer 2 (Pass)
//Storyboard Layer 3 (Foreground)
//Storyboard Layer 4 (Overlay)
//Storyboard Sound Samples

[TimingPoints]
2987,652.156338028167,4,2,1,70,1,0
49917,491.561527117811,4,2,1,70,1,0
73511,-100,4,2,1,70,0,1
87275,-100,4,2,1,70,0,0
89241,-100,4,2,1,70,0,1
104971,-100,4,2,1,70,0,0
136431,-100,4,2,1,70,0,1
150195,-100,4,2,1,70,0,0
152161,-100,4,2,1,70,0,1
165925,-100,4,2,1,70,0,0
195419,-133.333333333333,4,2,1,70,0,0
197139,-100,4,2,1,70,0,0

[Colours]
Combo1 : 224,198,92
Combo2 : 0,138,0
Combo3 : 34,65,208
Combo4 : 181,44,4

[HitObjects]
216,48,13421,6,0,P|172:36|124:56,1,100,2|0,0:0|0:0,0:0:0:0:
76,156,14073,2,0,P|68:208|92:248,1,100
180,312,14725,1,0,0:0:0:0:
340,192,15377,1,4,0:3:0:0:
256,136,15704,1,0,0:0:0:0:
172,192,16030,1,6,0:3:0:0:
332,312,16682,1,0,0:0:0:0:
440,144,17334,1,0,0:0:0:0:
264,52,17986,2,0,P|217:39|167:55,1,100,4|0,0:3|0:0,0:0:0:0:
67,46,18638,6,0,P|103:135|198:151,1,200,4|0,0:3|0:0,0:0:0:0:
416,160,19943,1,0,0:0:0:0:
248,332,20595,2,0,P|294:344|344:328,1,100,4|0,0:3|0:0,0:0:0:0:
445,338,21247,2,0,P|408:248|313:232,1,200,4|0,0:3|0:0,0:0:0:0:
112,312,22551,1,0,0:0:0:0:
28,88,23203,1,0,0:0:0:0:
112,140,23529,1,0,0:0:0:0:
212,156,23856,6,0,P|264:160|304:136,1,100,2|0,0:0|0:0,0:0:0:0:
328,40,24508,2,0,P|276:36|236:60,1,100,0|0,0:0|0:0,0:0:0:0:
404,112,25160,1,0,0:0:0:0:
484,296,25812,1,4,0:3:0:0:
400,244,26138,1,0,0:0:0:0:
300,228,26465,2,0,P|248:224|208:248,1,100,4|0,0:3|0:0,0:0:0:0:
184,344,27117,2,0,P|236:348|276:324,1,100,0|0,0:0|0:0,0:0:0:0:
108,268,27769,1,0,0:0:0:0:
116,48,28421,2,0,P|88:68|68:128,1,100
100,220,29073,5,2,0:0:0:0:
256,352,29725,1,0,0:0:0:0:
412,220,30377,1,0,0:0:0:0:
302,170,30703,2,0,P|256:154|210:170,2,100,4|8|4,0:3|0:3|0:3,0:0:0:0:
350,72,31681,2,0,P|256:42|162:72,1,200,2|0,0:0|0:0,0:0:0:0:
116,288,32986,1,8,0:3:0:0:
204,340,33312,1,4,0:3:0:0:
308,340,33638,1,8,0:3:0:0:
396,288,33964,1,4,0:3:0:0:
452,204,34290,6,0,P|452:148|428:108,1,100,2|0,0:0|0:0,0:0:0:0:
344,64,34942,2,0,B|300:48|256:96|256:96|212:48|168:64,1,200
76,104,35920,1,0,0:0:0:0:
24,188,36246,1,4,0:3:0:0:
52,284,36573,1,0,0:0:0:0:
140,336,36899,2,0,P|192:340|228:312,1,100,4|0,0:3|0:0,0:0:0:0:
276,224,37551,2,0,P|344:160|436:192,1,200,0|0,0:0|0:0,0:0:0:0:
420,292,38529,2,0,P|384:320|332:316,2,100,0|4|0,0:0|0:3|0:0,0:0:0:0:
435,191,39507,6,0,L|444:92,1,100,4|0,0:3|0:0,0:0:0:0:
344,80,40159,2,0,P|276:148|180:132,1,200,0|0,0:0|0:0,0:0:0:0:
108,64,41138,2,0,P|144:40|200:40,2,100,0|4|0,0:0|0:3|0:0,0:0:0:0:
36,136,42116,2,0,L|24:236,1,100,4|0,0:3|0:0,0:0:0:0:
64,328,42768,1,0,0:0:0:0:
256,224,43420,1,0,0:0:0:0:
108,64,44072,2,0,P|148:100|192:108,1,100
288,80,44725,5,2,0:0:0:0:
100,192,45377,1,0,0:0:0:0:
288,304,46029,1,0,0:0:0:0:
288,80,46681,2,0,P|244:100|216:144,1,100,4|0,0:3|0:0,0:0:0:0:
212,240,47333,1,4,0:3:0:0:
420,312,47985,1,0,0:0:0:0:
288,136,48637,2,0,L|388:120,1,100
312,40,49290,2,0,L|212:56,1,100,4|8,0:3|0:3,0:0:0:0:
92,76,49917,5,4,0:0:0:0:
36,268,50408,1,8,0:0:0:0:
232,232,50900,2,0,L|248:128,2,100,0|0|8,0:0|0:0|0:0,0:0:0:0:
284,316,51637,2,0,P|332:348|452:296,1,200
468,196,52374,2,0,L|372:228,1,100,8|0,0:0|0:0,0:0:0:0:
316,144,52866,2,0,L|412:112,1,100
356,28,53357,2,0,L|260:60,1,100,8|0,0:0|0:0,0:0:0:0:
160,48,53849,5,0,0:0:0:0:
32,204,54341,1,8,0:0:0:0:
192,324,54832,2,0,P|147:342|96:332,2,100,0|0|8,0:0|0:0|0:0,0:0:0:0:
244,236,55569,1,0,0:0:0:0:
84,116,56061,2,0,P|60:124|36:120,2,50,0|0|8,0:0|0:0|0:0,0:0:0:0:
160,48,56553,1,0,0:0:0:0:
232,116,56798,2,0,P|264:136|324:128,1,100
464,52,57290,2,0,P|420:29|372:39,1,100,8|0,0:0|0:0,0:0:0:0:
232,116,57781,6,0,P|200:208|248:292,1,200,4|8,0:1|0:0,0:0:0:0:
340,332,58519,1,0,0:0:0:0:
440,320,58765,2,0,L|488:232,1,100
424,156,59256,2,0,L|376:244,1,100,8|0,0:0|0:0,0:0:0:0:
368,76,59748,2,0,P|280:28|188:52,1,200,0|8,0:0|0:0,0:0:0:0:
96,88,60485,1,0,0:0:0:0:
180,140,60731,1,0,0:0:0:0:
88,180,60977,1,0,0:0:0:0:
172,232,61223,1,8,0:0:0:0:
80,272,61469,1,0,0:0:0:0:
164,328,61714,6,0,P|212:336|256:312,1,100
359,196,62206,2,0,P|311:188|268:212,1,100,8|0,0:0|0:0,0:0:0:0:
412,280,62697,2,0,P|460:287|503:264,1,100,0|0,0:0|0:0,0:0:0:0:
456,164,63189,1,8,0:0:0:0:
360,196,63434,1,0,0:0:0:0:
312,284,63680,2,0,P|324:332|360:364,1,100
360,196,64172,2,0,P|348:148|312:116,1,100,8|0,0:0|0:0,0:0:0:0:
212,80,64663,1,0,0:0:0:0:
144,152,64909,1,0,0:0:0:0:
120,56,65155,1,8,0:0:0:0:
52,124,65401,1,0,0:0:0:0:
76,224,65646,6,0,P|120:249|168:248,1,100
212,80,66138,2,0,P|172:56|120:56,1,100,8|0,0:0|0:0,0:0:0:0:
144,152,66630,1,0,0:0:0:0:
76,224,66875,1,0,0:0:0:0:
168,248,67121,1,8,0:0:0:0:
100,320,67366,1,0,0:0:0:0:
200,340,67613,2,0,P|248:312|264:272,1,100
236,176,68104,2,0,L|336:192,1,100,8|0,0:0|0:0,0:0:0:0:
396,112,68596,2,0,L|296:96,1,100
200,80,69087,1,8,0:0:0:0:
108,116,69333,1,0,0:0:0:0:
52,200,69579,5,0,0:0:0:0:
48,300,69825,2,0,P|77:299|95:290,1,50
166,304,70071,2,0,P|212:328|260:320,1,100,8|0,0:0|0:0,0:0:0:0:
356,336,70562,2,0,P|390:297|395:249,1,100
452,168,71054,2,0,P|423:124|378:107,1,100,8|0,0:0|0:0,0:0:0:0:
300,48,71545,1,0,0:0:0:0:
148,56,71791,5,4,0:3:0:0:
76,124,72037,1,8,0:3:0:0:
224,224,72283,1,0,0:0:0:0:
251,128,72529,1,8,0:3:0:0:
160,160,72774,1,0,0:0:0:0:
109,245,73020,2,0,P|124:296|160:324,1,100,8|0,0:3|0:0,0:0:0:0:
251,128,73511,6,0,P|180:64|88:96,1,200,4|8,0:1|0:0,0:0:0:0:
20,180,74249,1,0,0:0:0:0:
80,272,74495,2,0,B|100:296|124:308|124:308|140:288|156:280,1,100
256,240,74986,1,8,0:0:0:0:
356,280,75232,2,0,B|372:288|388:308|388:308|412:296|432:272,1,100
492,180,75723,1,0,0:0:0:0:
422,94,75969,2,0,P|331:64|261:128,1,200,8|0,0:0|0:0,0:0:0:0:
256,240,76707,2,0,L|272:292,1,50
320,340,76952,2,0,P|380:348|412:324,1,100,8|0,0:0|0:0,0:0:0:0:
480,240,77444,6,0,L|460:140,1,100
400,48,77936,2,0,P|348:40|304:56,1,100,8|0,0:0|0:0,0:0:0:0:
224,132,78427,2,0,P|177:148|128:139,1,100
168,36,78919,1,8,0:0:0:0:
224,132,79164,2,0,P|219:181|191:221,1,100
108,292,79656,2,0,L|8:304,2,100,0|8|0,0:0|0:0|0:0,0:0:0:0:
212,328,80393,1,0,0:0:0:0:
315,290,80639,1,0,0:0:0:0:
316,180,80885,1,8,0:0:0:0:
420,144,81131,1,0,0:0:0:0:
336,72,81376,6,0,P|291:57|240:68,1,100,4|0,0:1|0:0,0:0:0:0:
220,176,81868,2,0,P|269:190|316:180,1,100,8|0,0:0|0:0,0:0:0:0:
240,67,82360,1,0,0:0:0:0:
136,104,82605,1,0,0:0:0:0:
48,168,82851,2,0,L|28:268,1,100,8|0,0:0|0:0,0:0:0:0:
112,336,83343,2,0,L|132:236,1,100
220,176,83834,2,0,L|240:76,1,100,8|0,0:0|0:0,0:0:0:0:
128,60,84326,2,0,P|76:52|32:68,2,100,0|0|8,0:0|0:0|0:0,0:0:0:0:
88,168,85063,6,0,B|80:268|136:348|220:372|304:368|376:324|416:260|432:176|392:88|312:40|216:32|148:72|120:148|128:232|176:280|252:280|304:216|256:192,1,900,2|0,0:0|0:0,0:0:0:0:
256,192,87521,1,4,0:3:0:0:
424,144,87767,2,0,P|404:104|364:64,1,100,8|0,0:3|0:0,0:0:0:0:
256,116,88258,1,2,0:3:0:0:
256,132,88504,1,0,0:0:0:0:
146,64,88750,2,0,P|110:99|88:144,1,100,8|0,0:3|0:0,0:0:0:0:
172,256,89241,6,0,P|256:302|340:256,1,200,4|8,0:1|0:0,0:0:0:0:
424,184,89979,1,0,0:0:0:0:
436,76,90225,2,0,P|400:52|344:52,1,100
256,116,90716,1,8,0:0:0:0:
167,51,90962,2,0,P|118:50|76:76,1,100
88,184,91453,1,0,0:0:0:0:
92,296,91699,2,0,P|128:324|180:324,1,100,8|0,0:0|0:0,0:0:0:0:
302,240,92191,2,0,P|256:224|210:240,1,100,0|0,0:0|0:0,0:0:0:0:
331,323,92683,2,0,P|380:325|420:296,1,100,8|0,0:0|0:0,0:0:0:0:
424,184,93174,5,0,0:0:0:0:
388,80,93420,2,0,P|408:73|440:76,1,50,0|0,0:0|0:0,0:0:0:0:
328,118,93665,2,0,P|282:134|231:121,1,100,8|0,0:0|0:0,0:0:0:0:
140,66,94157,2,0,P|91:54|45:70,1,100
0,172,94649,1,8,0:0:0:0:
80,248,94894,2,0,P|128:259|174:243,1,100
248,164,95386,2,0,L|268:64,2,100,0|8|0,0:0|0:0|0:0,0:0:0:0:
280,268,96123,2,0,P|316:300|368:308,1,100
452,240,96615,1,8,0:0:0:0:
428,132,96861,1,0,0:0:0:0:
340,64,97106,6,0,L|273:139,1,100,4|0,0:1|0:0,0:0:0:0:
154,117,97598,2,0,L|220:41,1,100,8|0,0:0|0:0,0:0:0:0:
274,139,98090,2,0,L|208:215,1,100
100,224,98581,1,8,0:0:0:0:
24,144,98827,1,0,0:0:0:0:
104,68,99073,2,0,P|148:48|196:60,1,100
274,139,99564,2,0,P|321:151|366:131,1,100,8|0,0:0|0:0,0:0:0:0:
456,64,100056,2,0,L|440:164,2,100,0|0|8,0:0|0:0|0:0,0:0:0:0:
456,64,100793,1,0,0:0:0:0:
256,192,101039,12,4,104971,0:1:0:0:
272,320,118981,6,0,L|236:356,2,50,4|0|8,0:3|0:0|0:3,0:0:0:0:
380,232,119472,1,0,0:0:0:0:
252,180,119718,1,2,0:3:0:0:
368,104,119964,2,0,P|391:118|416:124,1,50
312,60,120210,2,0,P|272:44|216:52,1,100,8|0,0:3|0:0,0:0:0:0:
120,140,120701,6,0,P|139:234|67:303,1,200,4|8,0:1|0:0,0:0:0:0:
44,207,121439,1,0,0:0:0:0:
48,108,121684,2,0,P|76:72|128:60,1,100
228,48,122176,2,0,L|328:60,1,100,8|0,0:0|0:0,0:0:0:0:
428,72,122668,1,0,0:0:0:0:
368,152,122913,1,0,0:0:0:0:
468,164,123159,1,8,0:0:0:0:
408,244,123404,1,0,0:0:0:0:
440,340,123651,2,0,P|484:312|504:268,1,100
368,152,124142,2,0,P|324:180|304:224,1,100,8|0,0:0|0:0,0:0:0:0:
240,300,124634,6,0,P|275:321|334:319,1,100
305,222,125125,2,0,P|269:200|210:202,1,100,8|0,0:0|0:0,0:0:0:0:
124,252,125617,2,0,L|92:348,1,100
24,272,126109,2,0,L|56:176,1,100,8|0,0:0|0:0,0:0:0:0:
116,96,126600,2,0,P|149:77|219:85,1,100
300,128,127092,2,0,P|346:140|400:122,1,100,8|0,0:0|0:0,0:0:0:0:
346,40,127583,1,0,0:0:0:0:
300,128,127829,1,0,0:0:0:0:
368,204,128075,1,8,0:0:0:0:
322,292,128321,1,0,0:0:0:0:
232,248,128566,6,0,P|176:240|136:256,1,100,0|0,0:0|0:0,0:0:0:0:
96,348,129058,2,0,P|152:356|192:340,1,100,8|0,0:0|0:0,0:0:0:0:
232,248,129549,2,0,L|224:148,1,100
212,48,130041,1,8,0:0:0:0:
132,108,130287,1,0,0:0:0:0:
224,148,130533,2,0,P|280:152|320:136,1,100,0|0,0:0|0:0,0:0:0:0:
308,36,131024,2,0,P|252:32|212:48,1,100,8|0,0:0|0:0,0:0:0:0:
132,108,131516,1,0,0:0:0:0:
140,208,131761,1,0,0:0:0:0:
204,284,132007,2,0,P|248:308|300:312,1,100,8|0,0:0|0:0,0:0:0:0:
396,288,132499,6,0,P|468:224|468:124,1,200,2|8,0:0|0:0,0:0:0:0:
284,48,133482,2,0,P|252:80|240:132,1,100
340,132,133974,1,8,0:0:0:0:
176,32,134219,2,0,P|92:72|52:168,1,200,2|4,0:0|0:3,0:0:0:0:
28,264,134957,2,0,P|80:264|120:240,1,100,8|0,0:3|0:0,0:0:0:0:
192,172,135448,1,2,0:3:0:0:
236,284,135694,1,0,0:0:0:0:
352,308,135940,1,8,0:3:0:0:
460,252,136186,1,0,0:0:0:0:
440,136,136431,6,0,P|376:64|276:48,1,200,4|8,0:1|0:0,0:0:0:0:
176,92,137169,1,0,0:0:0:0:
100,172,137414,2,0,B|124:196|156:200|156:200|160:236,1,100
256,292,137906,1,8,0:0:0:0:
352,236,138152,2,0,B|356:200|356:200|388:196|412:172,1,100
336,92,138643,1,0,0:0:0:0:
234,47,138889,2,0,P|137:63|72:136,1,200,8|0,0:1|0:0,0:0:0:0:
40,240,139626,1,0,0:0:0:0:
116,320,139872,1,8,0:0:0:0:
224,348,140118,1,0,0:0:0:0:
336,348,140364,6,0,P|388:344|428:316,1,100
480,220,140855,2,0,L|472:120,1,100,8|0,0:0|0:0,0:0:0:0:
380,56,141347,2,0,P|328:60|288:88,1,100
256,192,141839,1,8,0:0:0:0:
222,297,142084,2,0,P|181:324|132:328,1,100
40,264,142576,2,0,L|32:164,2,100,0|8|0,0:0|0:0|0:0,0:0:0:0:
132,328,143313,1,0,0:0:0:0:
188,232,143559,1,0,0:0:0:0:
292,272,143805,1,8,0:0:0:0:
348,176,144051,1,0,0:0:0:0:
244,136,144296,6,0,P|204:120|148:128,1,100,4|0,0:1|0:0,0:0:0:0:
92,224,144788,2,0,P|139:240|188:232,1,100,8|0,0:0|0:0,0:0:0:0:
244,136,145279,1,0,0:0:0:0:
292,236,145525,1,0,0:0:0:0:
400,256,145771,1,8,0:0:0:0:
492,196,146017,1,0,0:0:0:0:
492,84,146263,2,0,P|460:48|412:36,1,100
304,60,146754,2,0,B|256:74|256:74|208:60,1,100,8|0,0:0|0:0,0:0:0:0:
100,36,147246,2,0,P|52:47|20:84,1,100
20,196,147737,1,8,0:0:0:0:
60,300,147983,6,0,B|164:368|256:340|372:248|384:160|320:128|336:68|256:112|176:68|192:128|128:160|140:248|256:340|348:368|452:300,1,900,2|0,0:0|0:0,0:0:0:0:
492,196,150441,2,0,L|476:148,1,50,4|0,0:3|0:0,0:0:0:0:
432,92,150687,2,0,P|408:72|340:72,1,100,8|0,0:3|0:0,0:0:0:0:
248,144,151178,1,2,0:3:0:0:
264,144,151424,1,0,0:0:0:0:
170,71,151670,2,0,P|121:65|80:92,1,100,8|0,0:3|0:0,0:0:0:0:
32,212,152161,6,0,P|68:304|160:336,1,200,4|8,0:1|0:0,0:0:0:0:
264,312,152899,1,0,0:0:0:0:
344,236,153144,2,0,P|336:164|320:140,1,100
220,96,153636,1,8,0:0:0:0:
140,172,153882,2,0,P|148:244|164:268,1,100
264,312,154373,1,0,0:0:0:0:
372,304,154619,2,0,P|408:276|417:224,1,100,8|0,0:0|0:0,0:0:0:0:
484,136,155111,2,0,P|452:116|388:116,1,100
292,160,155602,2,0,P|236:160|198:139,1,100,8|0,0:0|0:0,0:0:0:0:
136,48,156094,5,0,0:0:0:0:
68,136,156340,2,0,L|40:180,1,50
16,244,156585,2,0,P|28:292|68:320,1,100,8|0,0:0|0:0,0:0:0:0:
176,340,157077,2,0,L|276:324,1,100
360,256,157568,1,8,0:0:0:0:
304,160,157814,2,0,L|204:176,1,100,0|0,0:0|0:0,0:0:0:0:
108,228,158306,2,0,L|68:320,2,100,0|8|0,0:0|0:0|0:0,0:0:0:0:
112,116,159043,2,0,P|144:80|192:68,1,100
304,84,159535,1,8,0:0:0:0:
228,164,159781,1,0,0:0:0:0:
252,272,160026,6,0,P|288:308|336:316,1,100,4|0,0:1|0:0,0:0:0:0:
392,220,160518,2,0,P|356:184|308:176,1,100,8|0,0:0|0:0,0:0:0:0:
444,304,161009,2,0,P|480:268|488:220,1,100
468,112,161501,1,8,0:0:0:0:
376,48,161747,1,0,0:0:0:0:
268,52,161993,2,0,P|236:96|236:140,1,100
276,244,162484,2,0,P|274:293|244:332,1,100,8|0,0:0|0:0,0:0:0:0:
168,252,162976,2,0,L|68:236,1,100
68,128,163467,2,0,L|166:112,1,100,8|0,0:0|0:0,0:0:0:0:
256,192,163959,12,0,165679,0:0:0:0:
306,74,166171,5,4,0:3:0:0:
200,144,166417,2,0,P|156:164|128:208,1,100,8|0,0:3|0:0,0:0:0:0:
244,264,166908,2,0,P|284:292|336:296,1,100,2|0,0:3|0:0,0:0:0:0:
324,168,167400,2,0,P|328:120|304:72,1,100,8|0,0:3|0:0,0:0:0:0:
200,40,167891,5,2,0:0:0:0:
200,40,168137,1,0,0:0:0:0:
112,108,168383,1,8,0:0:0:0:
112,108,168629,1,0,0:0:0:0:
176,196,168874,1,0,0:0:0:0:
176,196,169120,1,0,0:0:0:0:
88,264,169366,1,8,0:0:0:0:
88,264,169612,1,0,0:0:0:0:
188,308,169858,2,0,L|288:328,1,100
352,240,170349,2,0,L|252:220,1,100,8|0,0:0|0:0,0:0:0:0:
324,132,170841,2,0,L|424:152,1,100
488,64,171332,2,0,L|388:44,1,100,8|0,0:0|0:0,0:0:0:0:
280,32,171824,5,2,0:0:0:0:
188,92,172070,1,0,0:0:0:0:
84,56,172315,2,0,P|48:96|40:140,1,100,8|0,0:0|0:0,0:0:0:0:
36,252,172807,1,0,0:0:0:0:
136,204,173053,1,0,0:0:0:0:
196,296,173298,2,0,P|241:324|286:324,1,100,8|0,0:0|0:0,0:0:0:0:
388,284,173790,2,0,L|435:195,1,100
348,128,174282,2,0,L|300:216,1,100,8|0,0:0|0:0,0:0:0:0:
388,284,174773,2,0,L|435:195,1,100
428,84,175265,2,0,P|396:48|348:36,1,100,8|0,0:0|0:0,0:0:0:0:
240,60,175756,5,2,0:0:0:0:
240,60,176002,1,0,0:0:0:0:
240,60,176248,2,0,P|188:72|156:104,1,100,8|0,0:0|0:0,0:0:0:0:
124,208,176739,1,0,0:0:0:0:
124,208,176985,1,0,0:0:0:0:
124,208,177231,2,0,P|136:260|168:292,1,100,8|0,0:0|0:0,0:0:0:0:
272,324,177722,1,0,0:0:0:0:
272,324,177968,1,0,0:0:0:0:
272,324,178214,2,0,P|324:312|356:280,1,100,8|0,0:0|0:0,0:0:0:0:
380,172,178706,2,0,L|280:196,1,100
200,120,179197,2,0,L|300:96,1,100,8|0,0:0|0:0,0:0:0:0:
156,48,179689,6,0,P|124:88|120:136,1,100,2|0,0:0|0:0,0:0:0:0:
204,204,180180,2,0,L|108:236,1,100,8|0,0:0|0:0,0:0:0:0:
172,328,180672,2,0,P|222:335|266:315,1,100
283,208,181163,2,0,L|358:275,1,100,8|0,0:0|0:0,0:0:0:0:
408,176,181655,2,0,P|389:128|349:100,1,100
248,139,182146,2,0,L|268:39,1,100,8|0,0:0|0:0,0:0:0:0:
156,48,182638,1,8,0:3:0:0:
80,128,182884,1,2,0:3:0:0:
92,240,183130,1,4,0:3:0:0:
172,320,183375,1,2,0:3:0:0:
292,336,183621,6,0,L|488:284,1,200,4|0,0:1|0:0,0:0:0:0:
160,88,191486,6,0,L|136:192,1,100,4|0,0:1|0:0,0:0:0:0:
164,292,191978,2,0,P|212:316|260:312,1,100,8|0,0:0|0:0,0:0:0:0:
352,256,192469,2,0,P|401:253|445:276,2,100,0|0|8,0:0|0:0|0:0,0:0:0:0:
257,312,193207,1,0,0:0:0:0:
352,256,193452,2,0,L|376:152,1,100,0|0,0:0|0:0,0:0:0:0:
328,60,193944,2,0,P|280:36|232:40,1,100,8|0,0:0|0:0,0:0:0:0:
168,124,194436,2,0,P|216:148|264:144,2,100,0|0|8,0:0|0:0|0:0,0:0:0:0:
72,68,195173,1,2,0:0:0:0:
36,176,195419,6,0,B|88:244|148:328|192:372|240:360|256:348|256:348|256:348|256:348|272:360|320:372|364:328|424:244|476:176,1,600.000022888185,2|0,0:0|0:0,0:0:0:0:
408,88,197631,1,0,0:0:0:0:
304,48,197877,2,0,P|256:36|208:48,1,100,8|0,0:0|0:0,0:0:0:0:
104,88,198368,1,0,0:0:0:0:
112,196,198614,2,0,P|80:232|24:236,2,100,0|8|0,0:0|0:0|0:0,0:0:0:0:
168,292,199351,6,0,P|240:348|344:336,1,200,4|8,0:1|0:0,0:0:0:0:
424,260,200089,1,0,0:0:0:0:
448,152,200334,2,0,P|404:124|356:124,1,100
256,168,200826,1,8,0:0:0:0:
156,216,201072,2,0,P|106:214|65:187,2,100,0|0|0,0:0|0:0|0:0,0:0:0:0:
256,168,201809,2,0,L|268:268,1,100,8|0,0:0|0:0,0:0:0:0:
372,300,202301,2,0,P|418:295|459:265,1,100
476,158,202792,2,0,P|429:162|388:192,1,100,8|0,0:0|0:0,0:0:0:0:
344,92,203284,6,0,P|272:36|168:48,1,200,0|8,0:0|0:0,0:0:0:0:
88,124,204022,1,0,0:0:0:0:
64,232,204267,2,0,P|108:260|156:260,1,100
256,216,204759,1,8,0:0:0:0:
356,168,205005,2,0,P|405:169|446:196,2,100,0|0|0,0:0|0:0|0:0,0:0:0:0:
256,216,205742,2,0,L|244:116,1,100,8|0,0:0|0:0,0:0:0:0:
152,56,206233,1,2,0:3:0:0:
60,116,206479,1,8,0:3:0:0:
72,224,206725,2,0,P|104:256|156:264,1,100,4|8,0:3|0:3,0:0:0:0:
256,216,207216,6,0,P|308:280|416:256,1,200,4|8,0:1|0:0,0:0:0:0:
424,148,207954,1,0,0:0:0:0:
332,88,208199,2,0,P|284:96|248:136,2,100,0|0|8,0:0|0:0|0:0,0:0:0:0:
424,148,208937,2,0,P|472:140|508:100,2,100,0|0|0,0:0|0:0|0:0,0:0:0:0:
332,88,209674,2,0,P|288:64|240:68,1,100,8|0,0:0|0:0,0:0:0:0:
168,152,210166,2,0,P|169:202|196:241,1,100
304,268,210657,2,0,P|346:241|367:198,1,100,8|0,0:0|0:0,0:0:0:0:
332,88,211149,5,0,0:0:0:0:
224,60,211394,2,0,P|188:60|164:32,1,50
124,100,211640,2,0,P|168:128|224:132,1,100,8|0,0:0|0:0,0:0:0:0:
332,88,212132,2,0,P|381:94|422:121,1,100
472,220,212623,1,8,0:0:0:0:
392,296,212869,2,0,P|344:312|296:304,2,100,0|0|0,0:0|0:0|0:0,0:0:0:0:
472,220,213606,2,0,P|476:172|452:124,1,100,8|0,0:0|0:0,0:0:0:0:
356,68,214098,1,2,0:3:0:0:
256,112,214344,1,8,0:3:0:0:
156,68,214590,1,4,0:3:0:0:
256,124,214836,1,8,0:3:0:0:
200,216,215081,6,0,P|255:284|312:216,1,200,4|8,0:1|0:0,0:0:0:0:
156,56,216064,2,0,P|108:72|76:108,1,100,2|0,0:0|0:0,0:0:0:0:
40,212,216556,1,8,0:0:0:0:
120,288,216802,2,0,P|78:314|29:317,2,100,0|0|0,0:0|0:0|0:0,0:0:0:0:
156,184,217539,1,8,0:0:0:0:
256,232,217785,1,0,0:0:0:0:
356,184,218031,1,0,0:0:0:0:
392,288,218276,2,0,P|433:314|482:317,2,100,0|8|0,0:0|0:0|0:0,0:0:0:0:
356,184,219014,6,0,P|352:140|312:104,1,100
199,104,219505,2,0,P|162:135|156:184,1,100,8|0,0:0|0:0,0:0:0:0:
210,284,219997,2,0,P|256:300|302:284,2,100,0|0|8,0:0|0:0|0:0,0:0:0:0:
108,240,220734,1,0,0:0:0:0:
232,60,221226,1,8,0:3:0:0:
224,168,221471,1,4,0:3:0:0:
288,256,221717,1,8,0:3:0:0:
392,288,221963,2,0,P|444:276|476:244,1,100,0|8,0:3|0:3,0:0:0:0:
496,136,222455,1,4,0:3:0:0:
432,48,222700,1,8,0:3:0:0:
340,108,222946,6,0,P|240:120|160:68,1,200,4|8,0:1|0:0,0:0:0:0:
48,256,223929,2,0,P|72:296|120:316,1,100,2|0,0:0|0:0,0:0:0:0:
228,292,224421,1,8,0:0:0:0:
248,184,224667,2,0,P|224:144|176:124,1,100
68,148,225159,1,0,0:0:0:0:
48,256,225404,2,0,P|72:296|120:316,1,100,8|0,0:0|0:0,0:0:0:0:
228,292,225896,2,0,P|274:299|320:275,1,100
371,177,226387,2,0,P|406:146|420:96,1,100,8|0,0:0|0:0,0:0:0:0:
312,84,226879,5,0,0:0:0:0:
92,60,227370,2,0,P|56:92|43:141,1,100,8|0,0:0|0:0,0:0:0:0:
92,240,227862,2,0,L|192:216,1,100
296,192,228353,1,8,0:0:0:0:
264,296,228599,2,0,L|166:319,2,100,0|0|0,0:0|0:0|0:0,0:0:0:0:
372,268,229336,2,0,P|404:220|404:180,1,100,8|0,0:0|0:0,0:0:0:0:
328,96,229828,1,0,0:0:0:0:
412,24,230074,1,0,0:0:0:0:
328,96,230320,2,0,P|288:112|232:104,1,100,8|0,0:0|0:0,0:0:0:0:
128,68,230811,6,0,P|40:104|12:200,1,200,4|8,0:1|0:0,0:0:0:0:
172,352,231794,2,0,P|228:356|264:332,1,100,2|0,0:0|0:0,0:0:0:0:
300,228,232286,1,8,0:0:0:0:
212,160,232532,2,0,P|156:156|120:180,1,100
84,284,233024,1,8,0:3:0:0:
172,352,233269,1,4,0:3:0:0:
280,340,233515,1,8,0:3:0:0:
372,280,233761,2,0,P|396:232|392:188,1,100,8|0,0:3|0:0,0:0:0:0:
308,116,234252,2,0,P|284:164|288:208,1,100,8|0,0:3|0:0,0:0:0:0:
400,96,234744,6,0,P|344:28|240:48,1,200,4|8,0:1|0:0,0:0:0:0:
56,160,235727,2,0,L|28:256,1,100,0|0,0:0|0:0,0:0:0:0:
96,344,236218,1,8,0:0:0:0:
144,244,236464,2,0,L|172:148,1,100,0|0,0:0|0:0,0:0:0:0:
220,48,236956,1,0,0:0:0:0:
288,136,237201,2,0,L|260:232,1,100,8|0,0:0|0:0,0:0:0:0:
224,336,237693,2,0,P|264:344|320:324,1,100
260,232,238185,2,0,P|220:224|164:244,1,100,8|0,0:0|0:0,0:0:0:0:
56,256,238676,5,4,0:1:0:0:
256,192,238799,12,4,242609,0:1:0:0:
