osu file format v14

[General]
AudioFilename: Whatafeeling.mp3
AudioLeadIn: 0
PreviewTime: 72774
Countdown: 0
SampleSet: Soft
StackLeniency: 0.6
Mode: 0
LetterboxInBreaks: 0
WidescreenStoryboard: 1

[Editor]
Bookmarks: 13422,34281,57781,73511,89241,95017,104971,120701,136431,152161,167891,183621,191486,199351,215081,230811,242609
DistanceSpacing: 1.3
BeatDivisor: 4
GridSize: 4
TimelineZoom: 1.2

[Metadata]
Title:What a Feeling
TitleUnicode:What a Feeling
Artist:Irene Cara
ArtistUnicode:Irene Cara
Creator:Alarido
Version:Flashdance
Source:FLASHDANCE
Tags:Alex Dancer Broadway Dream 70s flashback good times collab collaboration project_railgun alarail Dexfrild Doomsday DakeDekaane Gero Desperate-kun Irreversible Mao Euny -Bakari-
BeatmapID:1018863
BeatmapSetID:476970

[Difficulty]
HPDrainRate:6.5
CircleSize:5
OverallDifficulty:7
ApproachRate:8
SliderMultiplier:2.5
SliderTickRate:2

[Events]
//Background and Video events
Video,0,"Whatafeeling.avi"
0,0,"Whatafeeling.jpg",0,0
//Break Periods
2,105171,117985
2,184312,189753
//Storyboard Layer 0 (Background)
//Storyboard Layer 1 (Fail)
//Storyboard Layer 2 (Pass)
//Storyboard Layer 3 (Foreground)
Sprite,Foreground,Centre,"SB\alaridov.png",320,240 F,0,13422,13622,0,1 M,0,13422,34281,476,354,475,355 F,0,34081,34281,1,0
Sprite,Foreground,Centre,"SB\dexfrild.png",320,240 F,0,34281,34481,0,1 M,0,34281,57781,476,354,475,355 F,0,57581,57781,1,0
Sprite,Foreground,Centre,"SB\doomsday.png",320,240 F,0,57781,57981,0,1 M,0,57781,73511,476,354,475,355 F,0,73311,73511,1,0
Sprite,Foreground,Centre,"SB\dakedekaane.png",320,240 F,0,73511,73711,0,1 M,0,73511,89241,476,354,475,355 F,0,89041,89241,1,0
Sprite,Foreground,Centre,"SB\gero.png",320,240 F,0,89241,89441,0,1 M,0,89241,104971,476,354,475,355 F,0,104771,104971,1,0
Sprite,Foreground,Centre,"SB\tarrasky.png",320,240 F,0,120701,120901,0,1 M,0,120701,136431,476,354,475,355 F,0,136231,136431,1,0
Sprite,Foreground,Centre,"SB\railgun.png",320,240 F,0,136431,136631,0,1 M,0,136431,152161,476,354,475,355 F,0,151961,152161,1,0
Sprite,Foreground,Centre,"SB\irreversible.png",320,240 F,0,152161,152361,0,1 M,0,152161,167891,476,354,475,355 F,0,167691,167891,1,0
Sprite,Foreground,Centre,"SB\alaridov.png",320,240 F,0,167891,168091,0,1 M,0,167891,183621,476,354,475,355 F,0,183421,183621,1,0
Sprite,Foreground,Centre,"SB\alarido.png",320,240 F,0,191486,191686,0,1 M,0,191486,199351,476,354,475,355 F,0,199151,199351,1,0
Sprite,Foreground,Centre,"SB\mao.png",320,240 F,0,199351,199551,0,1 M,0,199351,215081,476,354,475,355 F,0,214881,215081,1,0
Sprite,Foreground,Centre,"SB\euny.png",320,240 F,0,215081,215281,0,1 M,0,215081,230811,476,354,475,355 F,0,230611,230811,1,0
Sprite,Foreground,Centre,"SB\bakari.png",320,240 F,0,230811,231011,0,1 M,0,230811,242609,476,354,475,355 F,0,242409,242609,1,0
//Storyboard Layer 4 (Overlay)
//Storyboard Sound Samples

[TimingPoints]
2987,652.156338028167,4,2,1,70,1,0
49917,491.561527117811,4,2,1,70,1,0
73511,-100,4,2,1,70,0,1
87275,-100,4,2,1,70,0,0
89241,-100,4,2,1,70,0,1
101070,-100,4,2,1,10,0,1
101530,-100,4,2,1,70,0,1
101561,-100,4,2,1,10,0,1
102483,-100,4,2,1,70,0,1
103988,-100,4,2,1,50,0,1
104480,-100,4,2,1,60,0,1
104511,-100,4,2,1,50,0,1
104971,-100,4,2,1,70,0,0
136431,-100,4,2,1,70,0,1
150195,-100,4,2,1,70,0,0
152161,-100,4,2,1,70,0,1
165925,-100,4,2,1,70,0,0

[Colours]
Combo1 : 224,198,92
Combo2 : 0,138,0
Combo3 : 34,65,208
Combo4 : 181,44,4

[HitObjects]
196,80,13421,6,0,P|144:100|108:156,1,125,2|0,0:0|0:0,0:0:0:0:
196,320,14073,2,0,P|256:336|316:320,1,125,2|0,0:0|0:0,0:0:0:0:
404,156,14725,2,0,P|372:103|315:79,1,125,2|0,0:0|0:0,0:0:0:0:
174,200,15377,1,4,0:3:0:0:
348,264,15704,1,0,0:3:0:0:
316,80,16030,2,0,P|256:92|212:136,1,125,4|0,0:3|0:0,0:0:0:0:
195,319,16682,1,2,0:0:0:0:
256,340,16845,1,0,0:0:0:0:
316,320,17008,1,0,0:0:0:0:
316,80,17334,1,2,0:0:0:0:
256,60,17497,1,0,0:0:0:0:
196,80,17660,1,0,0:0:0:0:
52,200,17986,1,4,0:3:0:0:
196,320,18312,1,0,0:3:0:0:
384,308,18638,6,0,P|440:280|472:228,1,125,4|0,0:3|0:0,0:0:0:0:
429,44,19290,2,0,P|367:45|315:79,1,125,2|0,0:0|0:0,0:0:0:0:
204,232,19943,2,0,P|255:266|317:268,1,125,2|0,0:0|0:0,0:0:0:0:
452,120,20595,1,4,0:3:0:0:
272,36,20921,1,0,0:0:0:0:
108,152,21247,2,0,P|176:160|224:132,1,125,4|0,0:3|0:0,0:0:0:0:
64,252,21899,2,0,B|64:284|80:308|80:308|112:304|144:320,1,125,2|0,0:0|0:0,0:0:0:0:
332,196,22551,1,2,0:0:0:0:
180,196,22877,1,0,0:0:0:0:
368,320,23203,2,0,B|400:304|432:308|432:308|448:284|448:252,1,125
368,68,23856,6,0,P|340:60|256:96,1,125,2|0,0:0|0:0,0:0:0:0:
164,260,24508,1,2,0:0:0:0:
348,260,24834,1,0,0:0:0:0:
256,96,25160,2,0,P|205:62|144:68,1,125,2|0,0:0|0:0,0:0:0:0:
24,228,25812,1,4,0:3:0:0:
184,348,26138,1,0,0:0:0:0:
200,148,26464,2,0,P|152:140|84:176,1,125,4|0,0:3|0:0,0:0:0:0:
248,292,27116,2,0,P|296:300|364:264,1,125,2|0,0:0|0:0,0:0:0:0:
384,80,27768,1,2,0:0:0:0:
460,240,28095,1,0,0:0:0:0:
313,122,28421,2,0,P|252:116|200:148,1,125
64,276,29073,6,0,P|58:212|37:154,1,125,2|0,0:0|0:0,0:0:0:0:
128,320,29725,2,0,P|191:314|248:292,1,125,2|0,0:0|0:0,0:0:0:0:
364,144,30377,1,0,0:0:0:0:
208,68,30703,1,4,0:3:0:0:
304,68,31029,1,8,0:3:0:0:
148,144,31355,1,4,0:3:0:0:
296,260,31681,2,0,P|312:296|388:320,1,125
216,260,32334,2,0,P|200:296|124:320,1,125
84,136,32986,1,8,0:3:0:0:
260,76,33312,1,4,0:3:0:0:
216,260,33638,1,8,0:3:0:0:
392,200,33964,1,4,0:3:0:0:
141,242,34290,6,0,P|149:302|200:336,1,125,2|0,0:0|0:0,0:0:0:0:
132,160,34942,1,2,0:0:0:0:
140,348,35268,1,0,0:0:0:0:
211,176,35594,2,0,P|203:115|154:80,2,125,2|0|4,0:0|0:0|3:0,0:0:0:0:
40,252,36573,1,0,0:0:0:0:
154,81,36899,2,0,P|210:45|270:53,1,125,4|0,3:0|0:0,0:0:0:0:
364,212,37551,1,2,0:0:0:0:
452,48,37877,1,0,0:0:0:0:
284,164,38203,2,0,L|172:232,1,125,2|0,0:0|0:0,0:0:0:0:
204,122,38855,2,0,P|278:72|360:116,1,187.5,4|4,3:0|3:0,0:0:0:0:
283,164,39507,6,0,P|324:276|452:324,1,250,2|2,0:0|0:0,0:0:0:0:
464,140,40485,1,0,0:0:0:0:
284,88,40812,2,0,P|228:112|208:172,1,125,2|0,0:0|0:0,0:0:0:0:
372,84,41464,1,4,3:0:0:0:
500,224,41790,1,0,0:0:0:0:
288,168,42116,2,0,P|204:100|284:8,2,250,4|2|2,3:0|0:0|0:0,0:0:0:0:
472,140,43746,1,0,0:0:0:0:
472,204,43909,1,0,0:0:0:0:
432,252,44072,1,2,0:0:0:0:
144,292,44398,2,0,L|76:256,1,62.5
84,200,44725,6,0,B|80:140|140:96|140:96|192:144|256:104|256:104|320:144|372:96|372:96|432:140|428:200,1,500,2|2,0:0|0:0,0:0:0:0:
256,276,46355,1,0,0:0:0:0:
200,48,46681,2,0,P|256:24|312:48,1,125,4|0,3:0|0:0,0:0:0:0:
204,200,47333,2,0,B|152:244|88:212|88:212|20:244|28:324,2,250,4|2|2,3:0|0:0|0:0,0:0:0:0:
352,84,48964,1,0,0:0:0:0:
204,200,49290,2,0,P|220:248|277:297,1,125,8|12,3:0|3:0,0:0:0:0:
272,68,49917,6,0,P|156:36|65:141,1,250,4|8,0:0|0:0,0:0:0:0:
72,304,50654,1,0,0:0:0:0:
260,324,50900,2,0,L|372:264,1,125
184,288,51391,2,0,L|73:347,1,125,8|0,0:0|0:0,0:0:0:0:
252,244,51883,6,0,B|308:236|352:176|352:176|396:124|464:131,2,250,0|8|0,0:0|0:0|0:0,0:0:0:0:
64,228,53112,1,0,0:0:0:0:
40,168,53235,1,0,0:0:0:0:
60,108,53357,2,0,P|124:112|184:76,1,125,8|0,0:0|0:0,0:0:0:0:
356,32,53849,6,0,P|443:72|444:225,1,250,0|8,0:0|0:0,0:0:0:0:
320,348,54586,1,0,0:0:0:0:
188,216,54832,1,0,0:0:0:0:
364,144,55078,1,0,0:0:0:0:
188,216,55324,2,0,P|128:232|72:208,1,125,8|0,0:0|0:0,0:0:0:0:
132,32,55815,5,0,0:0:0:0:
264,164,56061,1,8,3:0:0:0:
272,228,56184,1,8,3:0:0:0:
244,284,56307,1,8,3:0:0:0:
136,132,56553,1,8,3:0:0:0:
336,188,56798,2,0,P|352:244|404:284,1,125,4|4,3:0|3:0,0:0:0:0:
180,208,57290,1,4,3:0:0:0:
56,348,57536,1,4,3:0:0:0:
22,170,57781,6,0,P|31:84|170:27,1,250,0|2,0:0|3:0,0:0:0:0:
354,1,58642,1,0,0:0:0:0:
354,1,58765,1,2,3:0:0:0:
413,110,59010,2,0,P|341:202|383:328,1,250
137,321,59748,6,0,P|172:205|99:109,1,250,0|2,0:0|3:0,0:0:0:0:
256,264,60608,1,0,0:0:0:0:
256,264,60731,1,2,3:0:0:0:
336,120,60977,1,0,0:0:0:0:
176,160,61222,1,0,0:0:0:0:
256,16,61468,1,0,0:0:0:0:
384,0,61714,6,0,P|456:32|472:216,1,250,0|2,0:0|3:0,0:0:0:0:
256,192,62574,1,0,0:0:0:0:
256,192,62697,1,2,3:0:0:0:
184,296,62943,2,0,P|120:224|160:56,1,250
374,79,63680,6,0,P|399:198|328:296,1,250,0|2,0:0|3:0,0:0:0:0:
205,325,64418,1,0,0:0:0:0:
86,286,64663,1,2,3:0:0:0:
27,175,64909,1,2,3:0:0:0:
208,221,65155,1,2,3:0:0:0:
93,72,65401,1,4,3:0:0:0:
271,126,65646,6,0,P|332:147|505:89,1,250,4|2,3:0|3:0,0:0:0:0:
487,217,66384,2,0,P|419:242|336:241,1,125,0|2,0:0|3:0,0:0:0:0:
231,375,66998,1,0,0:0:0:0:
231,375,67121,1,0,0:0:0:0:
367,245,67367,1,0,0:0:0:0:
241,126,67613,6,0,P|180:147|7:89,1,250,0|2,0:0|3:0,0:0:0:0:
25,217,68351,2,0,P|93:242|176:241,1,125,0|2,0:0|3:0,0:0:0:0:
272,336,68842,1,0,0:0:0:0:
272,336,68965,1,0,0:0:0:0:
272,336,69087,1,0,0:0:0:0:
408,272,69333,1,0,0:0:0:0:
432,128,69579,6,0,L|320:56,1,125
185,60,70071,2,0,L|80:128,1,125,2|0,3:0|0:0,0:0:0:0:
168,216,70562,1,2,3:0:0:0:
256,304,70808,1,0,0:0:0:0:
344,216,71054,1,0,0:0:0:0:
256,128,71299,1,0,0:0:0:0:
144,336,71791,5,4,3:0:0:0:
368,336,72037,1,4,3:0:0:0:
96,144,72528,5,8,3:0:0:0:
256,40,72774,1,6,3:0:0:0:
416,144,73020,1,4,3:0:0:0:
256,248,73266,1,4,0:0:0:0:
256,248,73511,5,4,0:1:0:0:
255,247,74003,2,0,P|299:139|416:143,1,250,0|2,1:0|0:0,0:0:0:0:
463,286,74740,1,2,0:0:0:0:
463,286,74863,1,0,0:0:0:0:
463,286,74986,1,2,1:2:0:0:
318,328,75232,2,0,L|193:328,1,125,2|0,0:0|0:0,0:0:0:0:
49,286,75723,1,2,0:0:0:0:
95,144,75969,2,0,P|212:139|256:248,1,250,2|0,1:2|0:0,0:0:0:0:
144,349,76707,1,0,0:0:0:0:
144,349,76829,1,0,0:0:0:0:
144,349,76952,1,0,1:0:0:0:
95,144,77198,6,0,P|114:36|215:78,1,250,4|0,0:0|0:0,0:0:0:0:
416,144,77936,2,0,P|397:36|296:78,1,250,0|2,1:0|0:0,0:0:0:0:
256,222,78673,1,2,0:0:0:0:
256,222,78796,1,0,0:0:0:0:
256,222,78919,1,0,1:0:0:0:
135,309,79164,2,0,L|11:318,1,125,2|0,0:0|0:0,0:0:0:0:
92,163,79655,1,2,0:0:0:0:
255,221,79902,2,0,P|370:195|386:79,1,250,2|8,1:2|0:3,0:0:0:0:
256,8,80639,1,2,0:3:0:0:
256,8,80761,1,0,0:0:0:0:
256,8,80884,1,2,1:3:0:0:
124,80,81131,6,0,B|88:104|88:164|120:192|168:192|168:192|256:192,1,250,4|0,0:0|0:0,0:0:0:0:
280,212,81745,1,0,0:0:0:0:
304,232,81868,1,0,1:0:0:0:
473,152,82114,1,4,0:0:0:0:
429,276,82360,1,0,0:0:0:0:
349,107,82606,1,2,0:0:0:0:
340,331,82851,1,0,1:0:0:0:
124,304,83097,6,0,B|88:280|88:220|120:192|168:192|168:192|256:192,1,250,4|0,0:2|0:0,0:0:0:0:
280,172,83711,1,0,0:0:0:0:
304,152,83834,1,0,1:0:0:0:
473,232,84080,1,4,0:0:0:0:
429,108,84326,1,0,0:0:0:0:
349,277,84572,1,2,0:0:0:0:
340,52,84817,1,0,1:0:0:0:
260,221,85063,1,0,3:0:0:0:
40,72,85309,6,0,B|4:192|4:192|40:312,1,250,4|0,0:0|1:0,0:0:0:0:
473,311,86292,1,0,0:0:0:0:
508,191,86538,1,0,0:0:0:0:
472,72,86784,1,0,1:0:0:0:
256,278,87275,5,0,3:0:0:0:
256,278,87521,1,0,1:0:0:0:
348,116,87767,1,0,1:0:0:0:
164,116,88013,1,0,3:0:0:0:
160,324,88258,2,0,L|112:224,1,109.375,0|0,1:0|3:0,0:0:0:0:
352,324,88750,1,0,1:0:0:0:
256,88,88996,1,4,0:0:0:0:
113,225,89241,5,4,0:1:0:0:
400,225,89487,1,2,0:3:0:0:
400,225,89610,1,4,0:3:0:0:
400,225,89733,1,8,1:3:0:0:
256,88,89979,1,0,0:0:0:0:
200,200,90225,2,0,B|232:200|256:224|256:224|280:200|312:200,1,125,2|8,0:3|0:3,0:0:0:0:
256,88,90716,1,2,1:2:0:0:
147,305,90962,2,0,P|256:357|365:305,1,250,6|2,0:0|0:0,0:0:0:0:
456,220,91699,5,6,1:2:0:0:
364,136,91945,1,2,0:3:0:0:
364,136,92068,1,4,0:3:0:0:
364,136,92191,2,0,B|348:76|348:76|364:16,1,125,8|0,0:3|0:0,0:0:0:0:
472,76,92682,1,6,1:3:0:0:
364,136,92928,2,0,B|300:116|264:164|256:177|256:177|248:164|212:116|148:136,1,250,6|0,0:0|0:0,0:0:0:0:
144,132,93543,1,0,0:0:0:0:
139,127,93665,5,2,1:2:0:0:
56,36,93911,1,0,0:0:0:0:
256,176,94157,1,2,0:3:0:0:
256,176,94280,1,4,0:3:0:0:
256,176,94403,2,0,P|272:236|256:296,1,125,8|2,0:3|1:2,0:0:0:0:
152,360,94894,2,0,B|204:296|272:296|272:296|384:296,1,250,6|2,0:0|0:0,0:0:0:0:
492,240,95632,2,0,B|508:300|508:300|492:360,1,125,6|0,1:2|0:0,0:0:0:0:
400,192,96123,2,0,B|384:132|384:132|400:72,1,125,2|0,0:3|0:0,0:0:0:0:
404,66,96492,1,4,0:3:0:0:
408,61,96615,1,8,1:3:0:0:
460,272,96861,6,0,B|400:304|348:276|340:272|332:268|276:236|220:272,1,250,6|2,0:0|0:0,0:0:0:0:
214,276,97475,1,2,0:0:0:0:
209,280,97598,1,2,1:3:0:0:
52,112,97844,2,0,B|112:80|164:108|172:112|180:116|236:148|292:112,1,250,6|2,0:0|0:0,0:0:0:0:
298,108,98458,1,2,0:0:0:0:
303,104,98581,1,2,1:3:0:0:
408,40,98827,5,6,0:0:0:0:
492,132,99073,1,6,0:3:0:0:
492,132,99196,1,6,0:3:0:0:
492,132,99318,2,0,P|508:192|492:252,1,125,2|6,0:0|1:3,0:0:0:0:
372,292,99810,2,0,B|256:338|256:338|140:292,1,250,6|6,0:0|0:3,0:0:0:0:
135,287,100424,1,0,0:0:0:0:
130,282,100547,1,2,1:2:0:0:
44,192,100793,1,2,0:0:0:0:
112,80,101039,6,0,B|122:2|228:-8|256:68|256:68|284:-8|392:-36|484:72|420:200|328:184|280:204|256:261|256:261|232:204|180:188,1,750,4|0,3:0|1:0,0:0:0:0:
140,308,102759,1,0,0:0:0:0:
256,144,103005,1,2,0:3:0:0:
372,304,103251,1,0,0:0:0:0:
372,304,103374,1,2,0:3:0:0:
372,304,103497,5,0,1:0:0:0:
200,228,103742,1,2,0:3:0:0:
312,228,103988,2,0,P|327:288|312:348,1,125,8|8,0:0|0:0,0:0:0:0:
199,348,104480,2,0,P|184:288|200:228,1,125,8|8,1:2|0:0,0:0:0:0:
256,56,104971,5,4,0:1:0:0:
256,192,118735,12,0,120210,0:0:0:0:
138,90,120701,6,0,P|255:54|373:90,1,250,4|8,1:0|0:0,0:0:0:0:
256,252,121439,1,0,0:0:0:0:
196,155,121684,2,0,P|255:139|314:158,1,125,2|2,3:0|3:0,0:0:0:0:
360,276,122176,1,8,0:0:0:0:
256,344,122422,1,0,0:0:0:0:
151,275,122668,6,0,P|103:166|172:68,1,250,0|8,0:0|0:0,0:0:0:0:
256,160,123405,1,0,0:0:0:0:
339,68,123651,2,0,P|388:108|408:168,1,125,2|2,3:0|3:0,0:0:0:0:
324,256,124142,2,0,B|272:288|256:356|256:356|240:288|176:244,1,250,4|2,3:0|0:0,0:0:0:0:
68,292,124880,1,0,0:0:0:0:
40,172,125125,6,0,P|110:81|210:138,1,250,8|2,0:0|3:0,0:0:0:0:
256,256,125863,1,2,3:0:0:0:
301,138,126109,2,0,P|401:81|471:172,1,250,8|2,0:0|0:0,0:0:0:0:
368,244,126846,5,0,0:0:0:0:
476,304,127092,2,0,B|416:336|416:336|359:341,1,125,8|0,0:0|0:0,0:0:0:0:
256,256,127583,2,0,L|256:128,1,125,2|2,0:0|0:0,0:0:0:0:
160,48,128075,2,0,B|103:53|103:53|43:85,1,125,8|2,0:0|0:0,0:0:0:0:
40,211,128566,6,0,P|80:320|194:302,1,250,0|8,0:0|0:0,0:0:0:0:
258,107,129304,1,0,0:0:0:0:
320,300,129549,1,2,0:0:0:0:
157,181,129795,1,2,0:0:0:0:
359,181,130041,1,8,0:0:0:0:
196,300,130287,1,0,0:0:0:0:
328,116,130533,6,0,P|442:98|482:206,1,250,0|8,0:0|0:0,0:0:0:0:
420,316,131270,1,0,0:0:0:0:
316,244,131516,1,2,0:0:0:0:
316,244,131761,1,2,0:0:0:0:
256,356,132007,1,8,3:0:0:0:
196,244,132252,1,4,3:0:0:0:
256,136,132499,6,0,L|256:8,1,125,4|0,3:0|0:0,0:0:0:0:
151,84,132990,2,0,P|135:142|167:194,1,125,8|0,0:0|0:0,0:0:0:0:
344,194,133482,2,0,P|376:142|360:84,1,125,2|8,0:0|0:0,0:0:0:0:
160,72,133974,1,8,0:0:0:0:
352,72,134219,1,0,0:0:0:0:
184,148,134465,6,0,B|170:208|170:208|183:269,1,125,4|0,0:0|0:0,0:0:0:0:
328,269,134957,2,0,B|342:208|342:208|328:148,1,125,8|0,0:0|3:0,0:0:0:0:
184,148,135448,1,4,0:0:0:0:
256,272,135694,1,2,3:0:0:0:
328,148,135940,1,8,3:0:0:0:
256,48,136186,1,4,3:0:0:0:
80,200,136431,6,0,L|64:324,1,125,4|0,0:1|0:0,0:0:0:0:
328,148,136923,2,0,L|312:23,1,125
96,71,137414,2,0,P|83:100|88:131,1,62.5
151,251,137660,2,0,P|163:222|160:192,1,62.5
228,100,137906,1,0,0:0:0:0:
383,275,138152,2,0,P|444:285|501:261,1,125
128,275,138643,2,0,P|67:285|10:261,1,125
80,156,139135,2,0,L|94:95,1,62.5
164,28,139381,1,0,0:0:0:0:
340,116,139626,2,0,L|325:176,1,62.5
256,244,139872,1,0,0:0:0:0:
440,352,140118,1,0,0:0:0:0:
208,216,140364,6,0,B|144:152|69:188|69:188|56:136|12:112,1,250
164,28,141101,1,0,0:0:0:0:
340,116,141347,2,0,L|331:177,1,62.5
432,268,141593,2,0,L|423:206,1,62.5
480,108,141839,1,0,0:0:0:0:
152,112,142084,2,0,B|171:151|171:151|144:184|145:225,1,125
366,225,142576,2,0,B|368:184|340:151|340:151|360:112,1,125
148,40,143067,2,0,P|117:44|92:63,1,62.5
48,140,143313,1,0,0:0:0:0:
364,40,143559,2,0,P|394:44|419:63,1,62.5
464,140,143805,1,0,0:0:0:0:
354,304,144051,6,0,B|292:312|256:244|256:244|220:312|155:304,1,250
167,220,144665,2,0,P|189:197|195:167,1,62.5
256,32,145034,1,0,0:0:0:0:
376,144,145279,2,0,L|392:204,1,62.5
356,304,145525,1,0,0:0:0:0:
200,268,145771,1,0,0:0:0:0:
55,349,146017,1,0,0:0:0:0:
55,349,146263,6,0,B|97:321|113:281|104:240|48:240|28:200|36:156|65:133,1,250
256,40,147000,1,0,0:0:0:0:
456,160,147246,2,0,L|447:221,1,62.5
380,308,147491,1,0,0:0:0:0:
256,216,147737,1,0,0:0:0:0:
132,308,147983,1,0,0:0:0:0:
91,296,148229,6,0,P|112:238|98:178,1,125
413,178,148720,2,0,P|399:238|420:296,1,125
256,100,149212,2,0,L|256:37,1,62.5
256,216,149458,1,0,0:0:0:0:
128,112,149703,2,0,B|69:120|57:84|6:91,1,125
76,300,150195,5,0,0:0:0:0:
256,100,150441,1,0,0:0:0:0:
436,300,150687,1,0,0:0:0:0:
236,248,150932,2,0,P|206:239|175:244,1,62.5
76,300,151178,1,0,0:0:0:0:
0,128,151424,2,0,L|8:64,1,62.5
48,204,151670,1,0,0:0:0:0:
256,100,151916,6,0,P|364:108|294:177,1,250,4|2,0:0|3:0,0:0:0:0:
436,300,152653,2,0,L|311:312,1,125,8|0,3:0|0:0,0:0:0:0:
48,204,153144,1,2,0:0:0:0:
184,368,153390,1,4,3:0:0:0:
0,364,153636,1,2,3:0:0:0:
252,212,153882,2,4,B|300:200|340:232|340:232|448:216|448:216|424:200|384:192,1,250,4|0,3:2|1:2,0:2:0:0:
276,300,154619,1,2,0:3:0:0:
72,188,154865,6,0,P|60:104|208:88,1,250,4|8,0:0|3:0,0:0:0:0:
256,212,155602,1,2,3:0:0:0:
440,187,155848,2,0,P|431:74|317:72,1,250,4|2,0:0|3:0,0:0:0:0:
317,72,156462,1,0,0:0:0:0:
317,72,156585,1,8,3:0:0:0:
360,296,156831,1,0,1:0:0:0:
124,352,157077,6,0,B|92:348|72:328|72:328|0:344,1,125,4|0,0:0|0:0,0:0:0:0:
140,268,157568,1,8,3:0:0:0:
364,380,157814,2,0,B|396:376|416:356|416:356|492:368|492:368|448:316|472:248,1,250,2|8,3:0|3:0,0:0:0:0:
244,148,158552,2,0,B|212:152|192:172|192:172|116:160|116:160|160:212|136:280,1,250,8|0,3:0|1:0,0:0:0:0:
24,232,159289,1,8,3:0:0:0:
256,352,159535,1,4,0:2:0:0:
448,192,159781,6,0,B|452:156|416:124|416:124|456:84|460:32|460:32|464:80|496:120,1,250,4|2,0:0|3:0,0:0:0:0:
352,196,160518,1,0,1:0:0:0:
172,136,160764,2,0,B|136:132|104:168|104:168|64:128|12:124|12:124|60:120|100:88,1,250,4|2,0:0|3:0,0:0:0:0:
80,100,161378,1,0,0:0:0:0:
84,96,161501,1,8,3:0:0:0:
180,232,161747,6,0,B|196:304|148:344|148:344|88:288|8:328,1,250,4|0,0:0|1:0,0:0:0:0:
256,152,162484,1,10,3:0:0:0:
332,232,162730,2,0,B|316:304|364:344|364:344|424:288|504:328,1,250,4|2,0:0|3:0,0:0:0:0:
481,318,163344,1,0,0:0:0:0:
481,318,163467,1,8,3:0:0:0:
256,372,163713,1,0,1:0:0:0:
28,192,163959,6,0,L|68:60,1,125,4|2,0:0|0:3,0:0:0:0:
64,72,164327,1,0,0:0:0:0:
64,72,164450,1,2,0:3:0:0:
56,280,164696,1,4,3:0:0:0:
256,116,164942,2,0,P|328:100|392:152,1,125,8|2,3:0|3:0,0:0:0:0:
256,372,165433,1,2,3:0:0:0:
312,192,165679,1,0,1:0:0:0:
144,288,165925,6,0,B|56:280|56:280|124:260,1,125,4|0,0:0|1:0,0:0:0:0:
392,348,166417,2,0,B|480:340|480:340|412:320,1,125,0|0,1:0|1:0,0:0:0:0:
200,192,166908,5,8,3:0:0:0:
388,80,167154,1,8,3:0:0:0:
124,80,167400,1,8,3:0:0:0:
312,192,167646,1,8,3:0:0:0:
72,276,167891,5,4,0:0:0:0:
72,276,168137,1,0,0:0:0:0:
72,276,168383,2,0,P|104:316|180:340,1,125,8|0,0:0|0:0,0:0:0:0:
200,192,168874,1,0,3:0:0:0:
200,192,169119,1,0,3:0:0:0:
200,192,169365,2,0,P|160:132|168:80,1,125,8|0,0:0|0:0,0:0:0:0:
345,82,169857,1,0,0:0:0:0:
345,82,170102,1,0,0:0:0:0:
345,82,170348,2,0,P|349:143|312:192,1,125,8|0,0:0|0:0,0:0:0:0:
344,340,170840,1,0,0:0:0:0:
344,340,171086,1,0,0:0:0:0:
344,340,171332,2,0,P|403:322|444:276,1,125,8|0,0:0|0:0,0:0:0:0:
436,136,171824,5,2,0:0:0:0:
324,80,172070,1,0,0:0:0:0:
256,184,172315,2,0,B|228:224|228:224|188:240|152:216,1,125,8|0,0:0|0:0,0:0:0:0:
76,136,172807,1,0,0:0:0:0:
188,80,173053,1,0,0:0:0:0:
256,184,173298,2,0,B|284:224|284:224|324:240|360:216,1,125,8|0,0:0|0:0,0:0:0:0:
412,100,173790,2,0,P|371:53|312:35,1,125
192,136,174282,2,0,B|164:164|164:164|164:212|164:212|191:238,1,125,8|0,0:0|0:0,0:0:0:0:
321,238,174773,2,0,B|348:212|348:212|348:164|348:164|320:136,1,125
199,35,175265,2,0,P|140:53|100:100,1,125,8|0,0:0|0:0,0:0:0:0:
64,212,175756,5,4,0:2:0:0:
100,99,176002,1,0,0:0:0:0:
64,212,176248,2,0,L|112:328,1,125,8|0,0:0|0:0,0:0:0:0:
256,284,176739,1,0,0:0:0:0:
256,143,176985,1,0,0:0:0:0:
256,268,177231,2,0,L|256:136,1,125,8|0,0:0|0:0,0:0:0:0:
448,212,177722,1,0,0:0:0:0:
412,100,177968,1,0,0:0:0:0:
448,212,178214,2,0,L|400:328,1,125,8|0,0:0|0:0,0:0:0:0:
312,136,178706,2,0,P|256:112|200:136,1,125
200,248,179197,2,0,P|256:272|312:248,1,125,8|0,0:0|0:0,0:0:0:0:
420,132,179689,5,2,0:0:0:0:
416,124,179935,1,0,0:0:0:0:
412,116,180180,2,0,B|384:60|384:60|324:40,1,125
196,40,180672,1,0,0:0:0:0:
188,44,180918,1,0,0:0:0:0:
180,48,181163,2,0,B|120:68|120:68|92:124,1,125
72,260,181655,5,8,0:3:0:0:
216,332,181901,1,4,0:3:0:0:
352,224,182147,1,2,0:3:0:0:
200,92,182392,1,4,0:3:0:0:
312,92,182638,1,8,0:3:0:0:
160,224,182883,1,4,0:3:0:0:
296,332,183129,1,2,0:3:0:0:
440,260,183375,1,4,0:3:0:0:
368,116,183621,6,4,P|256:68|144:116,1,250,4|0,0:3|0:0,0:1:0:0:
364,196,190503,6,0,P|432:200|480:172,1,125,2|0,0:0|0:0,0:0:0:0:
372,48,190995,2,0,P|304:44|256:72,1,125,2|0,0:0|0:0,0:0:0:0:
148,196,191486,6,0,P|148:260|172:316,1,125,4|0,0:1|0:0,0:0:0:0:
340,315,191978,2,0,P|364:258|364:196,1,125,8|0,0:0|0:0,0:0:0:0:
256,56,192469,1,0,0:0:0:0:
104,112,192715,1,0,0:0:0:0:
256,56,192961,1,8,0:0:0:0:
408,112,193207,1,0,0:0:0:0:
280,212,193452,2,0,P|224:236|200:292,1,125
352,352,193944,2,0,P|408:328|432:272,1,125,8|0,0:0|0:0,0:0:0:0:
408,112,194436,1,0,0:0:0:0:
264,116,194681,2,0,P|289:133|320:137,1,62.5,2|0,0:0|0:0,0:0:0:0:
212,64,194927,2,0,P|172:36|100:44,1,125,2|0,0:0|0:0,0:0:0:0:
36,196,195419,5,2,0:0:0:0:
136,324,195664,1,0,0:0:0:0:
292,280,195910,2,0,P|320:232|316:156,1,125,2|0,0:0|0:0,0:0:0:0:
476,196,196402,1,2,0:0:0:0:
376,324,196647,1,0,0:0:0:0:
220,280,196893,2,0,P|192:232|196:156,1,125,2|0,0:0|0:0,0:0:0:0:
356,188,197385,5,0,0:0:0:0:
368,44,197631,1,2,0:0:0:0:
368,44,197754,1,0,0:0:0:0:
368,44,197877,2,0,P|308:48|256:84,1,125,2|0,0:0|0:0,0:0:0:0:
184,216,198368,1,4,0:3:0:0:
328,216,198614,1,4,0:3:0:0:
256,84,198860,2,0,P|205:48|144:44,1,125,8|0,0:3|0:0,0:0:0:0:
37,149,199351,5,4,1:0:0:0:
172,348,199843,2,0,B|188:244|324:244|340:348,2,250,2|4|2,1:2|0:0|1:2,0:0:0:0:
50,259,201072,2,0,P|8:138|73:46,1,250,2|0,0:0|0:0,0:0:0:0:
141,209,201809,2,0,P|105:194|119:116,1,125,0|0,1:2|0:0,0:0:0:0:
256,268,202301,1,4,0:3:0:0:
399,119,202546,1,0,0:0:0:0:
360,328,202792,1,2,1:2:0:0:
484,248,203038,1,0,0:0:0:0:
316,180,203284,6,2,B|267:141|181:168|222:216|136:243|88:203,1,250,4|2,1:0|1:2,0:0:0:0:
26,67,204021,1,0,0:0:0:0:
173,58,204267,2,0,L|181:314,1,250,4|2,0:0|1:2,0:0:0:0:
331,307,205004,2,0,L|339:58,2,250,2|2|2,0:0|0:0|0:0,0:0:0:0:
192,365,206233,1,4,0:0:0:0:
75,270,206479,1,4,0:3:0:0:
69,245,206602,1,4,0:3:0:0:
63,220,206725,1,2,1:2:0:0:
143,94,206970,1,0,0:0:0:0:
256,192,207216,5,4,1:0:0:0:
369,290,207462,2,0,P|429:301|484:274,1,125,0|2,0:0|1:2,0:0:0:0:
412,157,207954,1,0,0:0:0:0:
501,55,208199,2,0,P|411:18|302:109,1,250,4|2,0:0|1:2,0:0:0:0:
336,252,208937,2,0,B|344:320|256:372|168:320|176:256,1,250,2|0,0:0|0:0,0:0:0:0:
209,106,209674,2,0,P|125:21|11:55,1,250,2|4,1:2|3:0,0:0:0:0:
92,152,210411,1,0,0:0:0:0:
24,256,210657,1,2,1:2:0:0:
106,364,210903,6,2,P|162:380|270:240,1,250,4|0,0:0|0:0,0:0:0:0:
267,222,211517,1,0,0:0:0:0:
256,192,211640,2,2,P|318:36|471:105,1,375,4|0,1:2|0:0,0:0:0:0:
512,224,212623,2,2,P|449:379|296:310,1,375,2|0,1:2|0:0,0:0:0:0:
256,192,213606,5,2,1:2:0:0:
256,16,213852,1,0,0:0:0:0:
256,40,213975,1,0,0:0:0:0:
256,66,214098,1,4,0:0:0:0:
344,192,214344,1,4,3:0:0:0:
168,192,214590,1,2,1:2:0:0:
256,368,214835,1,4,3:0:0:0:
256,144,215081,5,4,1:0:0:0:
411,92,215327,1,2,0:0:0:0:
429,284,215573,2,0,P|526:261|448:198,1,250,2|0,0:0|0:0,0:0:0:0:
324,313,216310,1,2,1:2:0:0:
324,313,216556,1,2,1:2:0:0:
147,319,216802,6,0,B|208:277|284:222|284:222|203:244,1,250,2|2,0:0|1:2,0:0:0:0:
64,322,217539,1,2,1:2:0:0:
324,313,217785,2,0,P|371:205|286:124,1,250,2|2,0:0|1:2,0:0:0:0:
182,203,218522,1,2,1:2:0:0:
397,71,218768,6,0,B|419:112|460:112|460:112|491:243|429:354,1,312.5,4|0,0:1|0:0,0:0:0:0:
368,373,219505,2,0,P|372:261|261:267,1,250,4|0,0:1|0:0,0:0:0:0:
117,352,220243,1,2,1:2:0:0:
117,352,220488,1,2,1:2:0:0:
84,117,220734,6,0,L|98:262,1,125,2|0,0:0|0:0,0:0:0:0:
168,73,221226,1,8,0:3:0:0:
168,73,221349,1,4,0:3:0:0:
168,73,221471,1,8,0:3:0:0:
0,115,221717,1,2,0:0:0:0:
238,143,221963,2,0,P|263:84|243:16,1,125,2|2,0:0|1:2,0:0:0:0:
140,166,222455,1,2,1:2:0:0:
362,134,222700,6,0,P|422:149|484:142,1,125,4|0,0:1|0:0,0:0:0:0:
346,25,223192,1,2,1:2:0:0:
285,221,223438,2,0,L|295:348,1,125,2|0,1:2|0:0,0:0:0:0:
195,108,223929,2,0,L|174:240,1,125,2|0,0:0|0:0,0:0:0:0:
454,286,224421,6,0,P|469:172|361:133,1,250,2|0,0:0|0:0,0:0:0:0:
281,287,225158,1,2,1:2:0:0:
314,38,225404,2,0,L|462:44,1,125,2|0,1:2|0:0,0:0:0:0:
223,119,225896,2,0,L|93:166,2,125,0|2|2,0:0|1:2|1:2,0:0:0:0:
146,238,226633,6,0,P|35:208|54:96,1,250,4|0,0:1|0:0,0:0:0:0:
230,210,227370,2,0,P|229:272|186:321,2,125,2|2|0,0:0|0:0|0:0,0:0:0:0:
142,87,228108,1,2,1:2:0:0:
368,113,228353,1,2,1:2:0:0:
59,113,228599,6,0,P|63:51|103:5,1,125,2|0,0:0|0:0,0:0:0:0:
123,180,229091,1,2,1:2:0:0:
123,180,229336,2,0,L|118:318,1,125,2|0,1:2|0:0,0:0:0:0:
202,201,229828,1,2,0:0:0:0:
42,264,230074,1,2,1:2:0:0:
248,273,230320,2,0,P|280:220|272:159,1,125,2|0,1:2|0:0,0:0:0:0:
130,25,230811,6,0,L|-2:37,1,125
148,120,231303,1,0,0:0:0:0:
220,4,231548,1,0,0:0:0:0:
272,159,231794,2,0,P|328:136|396:144,1,125
468,256,232286,2,0,P|412:279|344:271,1,125
272,159,232777,5,0,0:0:0:0:
220,304,233023,1,0,0:0:0:0:
192,96,233269,1,0,0:0:0:0:
300,256,233515,1,0,0:0:0:0:
74,242,233761,2,0,P|46:290|34:370,1,125
35,161,234252,1,0,0:0:0:0:
160,260,234498,1,0,0:0:0:0:
189,100,234744,6,0,B|315:167|299:43|427:107,1,250
488,216,235481,1,0,0:0:0:0:
392,296,235727,2,0,P|364:256|364:176,1,125
422,92,236218,1,0,0:0:0:0:
247,245,236464,6,0,B|219:292|121:325|40:289|8:245|-11:175|8:101|48:53|84:21|136:-3|253:93|228:137|125:173,1,625
247,245,237939,6,0,P|307:293|323:157,1,250
256,192,238676,12,0,242609,0:0:0:0:
