osu file format v14

[General]
AudioFilename: Whatafeeling.mp3
AudioLeadIn: 0
PreviewTime: 72774
Countdown: 0
SampleSet: Soft
StackLeniency: 0.7
Mode: 0
LetterboxInBreaks: 0
WidescreenStoryboard: 1

[Editor]
Bookmarks: 13422,34281,57781,73511,89241,104971,120701,136431,152161,167891,183621,191486,199351,215081,230811
DistanceSpacing: 1.1
BeatDivisor: 2
GridSize: 4
TimelineZoom: 0.8

[Metadata]
Title:What a Feeling
TitleUnicode:What a Feeling
Artist:Irene Cara
ArtistUnicode:Irene Cara
Creator:Alarido
Version:Easy
Source:FLASHDANCE
Tags:Alex Dancer Broadway Dream 70s flashback good times collab collaboration project_railgun alarail Dexfrild Doomsday DakeDekaane Gero Desperate-kun Irreversible Mao Euny -Bakari-
BeatmapID:1018862
BeatmapSetID:476970

[Difficulty]
HPDrainRate:2
CircleSize:2
OverallDifficulty:2
ApproachRate:3
SliderMultiplier:0.999999999999999
SliderTickRate:2

[Events]
//Background and Video events
Video,0,"Whatafeeling.avi"
0,0,"Whatafeeling.jpg",0,0
//Break Periods
2,54049,56341
2,105171,119261
2,183821,190046
//Storyboard Layer 0 (Background)
//Storyboard Layer 1 (Fail)
//Storyboard Layer 2 (Pass)
//Storyboard Layer 3 (Foreground)
//Storyboard Sound Samples

[TimingPoints]
2987,652.156338028167,4,2,1,70,1,0
49917,491.561527117811,4,2,1,70,1,0
73511,-100,4,2,1,70,0,1
87275,-100,4,2,1,70,0,0
89241,-100,4,2,1,70,0,1
104971,-100,4,2,1,70,0,0
136431,-100,4,2,1,70,0,1
150195,-100,4,2,1,70,0,0
152161,-100,4,2,1,70,0,1
165925,-100,4,2,1,70,0,0

[Colours]
Combo1 : 224,198,92
Combo2 : 0,138,0
Combo3 : 34,65,208
Combo4 : 181,44,4

[HitObjects]
124,220,13421,6,0,P|180:298|276:308,1,200,2|0,0:0|0:0,0:0:0:0:
368,248,15377,1,4,0:3:0:0:
388,140,16030,2,0,P|331:61|235:52,1,200,4|0,0:3|0:0,0:0:0:0:
144,112,17986,1,4,0:3:0:0:
152,220,18638,6,0,P|105:215|64:185,2,99.9999999999999,4|0|0,0:3|0:0|0:0,0:0:0:0:
256,188,20595,1,4,0:3:0:0:
360,156,21247,2,0,P|406:160|447:190,2,99.9999999999999,4|0|0,0:3|0:0|0:0,0:0:0:0:
256,188,23203,1,0,0:0:0:0:
196,280,23856,6,0,P|88:280|56:204,1,200,2|0,0:0|0:0,0:0:0:0:
80,100,25812,1,4,0:3:0:0:
192,96,26464,2,0,P|232:76|296:84,2,99.9999999999999,4|0|0,0:3|0:0|0:0,0:0:0:0:
256,188,28421,1,0,0:0:0:0:
316,280,29073,6,0,P|424:280|456:204,1,200,2|0,0:0|0:0,0:0:0:0:
432,100,31029,1,4,0:3:0:0:
332,60,31681,2,0,P|284:56|240:80,1,99.9999999999999,4|0,0:3|0:0,0:0:0:0:
192,180,32986,2,0,P|188:228|212:272,1,99.9999999999999,8|8,0:3|0:3,0:0:0:0:
312,320,34290,6,0,B|401:307|401:307|417:305|423:289|423:289|445:211,1,200,2|0,0:0|0:0,0:0:0:0:
428,104,36246,1,4,0:3:0:0:
340,172,36899,2,0,P|280:172|244:152,2,99.9999999999999,4|0|0,0:3|0:0|0:0,0:0:0:0:
312,64,38855,1,4,0:3:0:0:
200,56,39507,6,0,B|110:68|110:68|94:70|88:86|88:86|66:164,1,200,4|0,0:3|0:0,0:0:0:0:
84,272,41463,1,4,0:3:0:0:
172,204,42116,2,0,P|232:204|268:224,2,99.9999999999999,4|0|0,0:3|0:0|0:0,0:0:0:0:
84,272,44072,1,0,0:0:0:0:
180,328,44725,6,0,P|264:312|312:216,1,200,2|0,0:0|0:0,0:0:0:0:
256,120,46681,1,4,0:3:0:0:
199,216,47333,2,0,P|237:304|332:328,1,200,4|0,0:3|0:0,0:0:0:0:
428,272,49290,1,4,0:3:0:0:
256,192,49917,12,0,53849,0:0:0:0:
56,236,57781,6,0,P|107:244|153:224,1,99.9999999999999,4|8,0:1|0:0,0:0:0:0:
235,155,58765,2,0,P|280:136|332:143,2,99.9999999999999,0|8|0,0:0|0:0|0:0,0:0:0:0:
296,244,60239,1,8,0:0:0:0:
404,252,60731,2,0,P|452:228|472:188,1,99.9999999999999,0|8,0:0|0:0,0:0:0:0:
460,80,61714,6,0,P|408:71|362:91,1,99.9999999999999,0|8,0:0|0:0,0:0:0:0:
281,161,62697,2,0,P|236:181|183:172,2,99.9999999999999,0|8|0,0:0|0:0|0:0,0:0:0:0:
220,68,64172,1,8,0:0:0:0:
112,56,64664,2,0,P|68:80|44:124,1,99.9999999999999,0|8,0:0|0:0,0:0:0:0:
44,232,65646,6,0,B|72:264|76:324|76:324|128:348|172:320,1,200,0|0,0:0|0:0,0:0:0:0:
256,248,67121,1,8,0:0:0:0:
340,320,67613,2,0,B|384:348|436:324|436:324|440:264|468:232,1,200,0|0,0:0|0:0,0:0:0:0:
424,132,69087,1,8,0:0:0:0:
332,72,69579,6,0,P|224:64|144:108,1,200,0|0,0:0|0:0,0:0:0:0:
272,288,71545,1,0,0:0:0:0:
424,132,72528,1,8,0:3:0:0:
212,76,73511,5,4,0:1:0:0:
44,220,74495,2,0,P|84:284|152:308,2,150,0|0|8,0:0|0:0|0:0,0:0:0:0:
152,196,76461,2,0,P|212:192|248:216,1,99.9999999999999,0|8,0:0|0:0,0:0:0:0:
300,308,77444,5,0,0:0:0:0:
468,164,78428,2,0,P|428:100|360:76,2,150,0|0|8,0:0|0:0|0:0,0:0:0:0:
360,188,80394,2,0,P|300:192|264:168,1,99.9999999999999,0|8,0:0|0:0,0:0:0:0:
188,96,81376,6,0,P|144:73|95:79,1,99.9999999999999,4|8,0:1|0:0,0:0:0:0:
44,176,82360,2,0,P|48:232|72:268,1,99.9999999999999,0|8,0:0|0:0,0:0:0:0:
180,288,83343,2,0,P|223:310|272:304,1,99.9999999999999,0|8,0:0|0:0,0:0:0:0:
324,208,84327,2,0,P|320:152|296:116,1,99.9999999999999,0|8,0:0|0:0,0:0:0:0:
196,76,85309,6,0,P|63:192|196:308,1,400,0|0,0:0|0:0,0:0:0:0:
304,288,87767,2,0,P|344:316|396:316,2,99.9999999999999,8|2|8,0:3|0:3|0:3,0:0:0:0:
232,200,89241,6,0,P|232:156|260:108,1,99.9999999999999,4|8,0:1|0:0,0:0:0:0:
360,64,90225,2,0,B|436:56|432:116|500:100,2,150,0|0|8,0:0|0:0|0:0,0:0:0:0:
252,80,92191,2,0,P|248:56|256:28,2,50,0|0|8,0:0|0:0|0:0,0:0:0:0:
280,184,93174,6,0,P|280:228|252:276,1,99.9999999999999,0|8,0:0|0:0,0:0:0:0:
152,320,94157,2,0,B|76:328|80:268|12:284,2,150,0|0|8,0:0|0:0|0:0,0:0:0:0:
252,276,96123,1,0,0:0:0:0:
356,312,96615,1,8,0:0:0:0:
456,268,97106,6,0,P|476:220|472:172,1,99.9999999999999,4|8,0:1|0:0,0:0:0:0:
404,84,98090,2,0,B|368:60|368:60|312:64,1,99.9999999999999,0|8,0:0|0:0,0:0:0:0:
200,64,99073,2,0,B|144:60|144:60|108:84,1,99.9999999999999,0|8,0:0|0:0,0:0:0:0:
39,173,100056,2,0,P|36:222|56:268,1,99.9999999999999,0|8,0:0|0:0,0:0:0:0:
256,192,101039,12,4,104971,0:1:0:0:
132,52,120701,6,0,P|88:80|68:124,1,99.9999999999999,4|8,0:1|0:0,0:0:0:0:
172,152,121684,2,0,L|288:140,2,99.9999999999999,0|8|0,0:0|0:0|0:0,0:0:0:0:
100,232,123159,1,8,0:0:0:0:
176,312,123651,2,0,P|220:336|272:332,1,99.9999999999999,0|8,0:0|0:0,0:0:0:0:
380,332,124634,6,0,P|424:304|444:260,1,99.9999999999999,0|8,0:0|0:0,0:0:0:0:
340,232,125617,2,0,L|224:244,2,99.9999999999999,0|8|0,0:0|0:0|0:0,0:0:0:0:
412,152,127092,1,8,0:0:0:0:
336,72,127584,2,0,P|292:48|240:52,1,99.9999999999999,0|8,0:0|0:0,0:0:0:0:
164,128,128566,6,0,B|144:180|104:204|104:204|108:264|152:288,1,200,0|0,0:0|0:0,0:0:0:0:
256,324,130041,1,8,0:0:0:0:
360,288,130533,2,0,B|404:264|408:204|408:204|368:180|348:128,1,200,0|0,0:0|0:0,0:0:0:0:
256,68,132007,1,8,0:0:0:0:
148,60,132499,6,0,P|56:88|16:180,2,200,2|0|0,0:0|0:0|0:0,0:0:0:0:
348,128,135448,1,2,0:3:0:0:
132,176,136431,5,4,0:1:0:0:
316,296,137414,2,0,P|392:300|456:260,2,150,0|0|8,0:0|0:0|0:1,0:0:0:0:
212,332,139381,2,0,P|208:276|224:236,1,99.9999999999999,0|8,0:0|0:0,0:0:0:0:
288,148,140364,6,0,P|304:104|299:52,1,99.9999999999999,0|8,0:0|0:0,0:0:0:0:
196,88,141347,2,0,P|120:84|56:124,2,150,0|0|8,0:0|0:0|0:0,0:0:0:0:
288,148,143313,2,0,P|320:172|380:176,1,99.9999999999999,0|8,0:0|0:0,0:0:0:0:
412,72,144296,6,0,P|380:48|320:44,1,99.9999999999999,4|8,0:1|0:0,0:0:0:0:
216,72,145279,2,0,P|188:112|184:164,1,99.9999999999999,0|8,0:0|0:0,0:0:0:0:
248,252,146263,2,0,P|197:265|165:298,2,99.9999999999999,0|8|0,0:0|0:0|0:0,0:0:0:0:
356,272,147737,1,8,0:0:0:0:
384,164,148229,6,0,P|256:37|128:164,1,400,0|0,0:0|0:0,0:0:0:0:
160,268,150687,2,0,P|108:272|66:252,2,99.9999999999999,8|2|8,0:3|0:3|0:3,0:0:0:0:
252,208,152161,6,0,P|303:203|345:223,1,99.9999999999999,4|8,0:1|0:0,0:0:0:0:
432,296,153144,2,0,P|368:336|292:324,2,150,0|0|8,0:0|0:0|0:0,0:0:0:0:
452,188,155111,1,0,0:0:0:0:
360,128,155602,1,8,0:0:0:0:
260,176,156094,6,0,P|208:180|166:160,1,99.9999999999999,0|8,0:0|0:0,0:0:0:0:
80,88,157077,2,0,P|144:48|220:60,2,150,0|0|8,0:0|0:0|0:0,0:0:0:0:
44,192,159043,1,0,0:0:0:0:
104,284,159535,1,8,0:0:0:0:
208,320,160026,6,0,P|256:332|304:320,1,99.9999999999999,4|8,0:1|0:0,0:0:0:0:
380,240,161009,2,0,P|392:192|380:144,1,99.9999999999999,0|8,0:0|0:0,0:0:0:0:
304,64,161993,2,0,P|256:52|208:64,1,99.9999999999999,0|8,0:0|0:0,0:0:0:0:
132,144,162976,2,0,P|120:192|132:240,1,99.9999999999999,0|8,0:0|0:0,0:0:0:0:
256,192,163959,12,0,165925,0:0:0:0:
188,56,167891,6,0,L|88:68,1,99.9999999999999,2|8,0:0|0:0,0:0:0:0:
52,172,168874,2,0,L|150:187,1,99.9999999999999,0|8,0:0|0:0,0:0:0:0:
116,292,169858,2,0,L|17:307,2,99.9999999999999,0|8|0,0:0|0:0|0:0,0:0:0:0:
224,280,171332,1,8,0:0:0:0:
324,324,171824,6,0,L|424:312,1,99.9999999999999,2|8,0:0|0:0,0:0:0:0:
460,208,172807,2,0,L|361:192,1,99.9999999999999,0|8,0:0|0:0,0:0:0:0:
396,88,173791,2,0,L|494:72,2,99.9999999999999,0|8|0,0:0|0:0|0:0,0:0:0:0:
288,104,175265,1,8,0:0:0:0:
184,76,175756,6,0,P|148:76|92:120,2,99.9999999999999,2|8|0,0:0|0:0|0:0,0:0:0:0:
288,104,177231,1,8,0:0:0:0:
392,132,177722,2,0,P|428:132|484:88,2,99.9999999999999,0|8|0,0:0|0:0|0:0,0:0:0:0:
288,104,179197,1,8,0:0:0:0:
180,76,179689,6,0,L|120:164,1,99.9999999999999,2|8,0:0|0:0,0:0:0:0:
140,268,180672,2,0,L|228:328,1,99.9999999999999,0|8,0:0|0:0,0:0:0:0:
332,308,181655,2,0,L|392:220,1,99.9999999999999,0|8,0:0|0:0,0:0:0:0:
372,116,182638,2,0,L|284:56,1,99.9999999999999,8|4,0:3|0:3,0:0:0:0:
180,76,183621,5,4,0:1:0:0:
164,80,191486,6,0,B|120:56|120:56|72:68,2,99.9999999999999,4|8|0,0:1|0:0|0:0,0:0:0:0:
256,140,192961,1,8,0:0:0:0:
348,80,193452,2,0,B|392:56|392:56|440:68,2,99.9999999999999,0|8|0,0:0|0:0|0:0,0:0:0:0:
256,140,194927,1,8,0:0:0:0:
168,208,195419,6,0,B|136:260|148:316|196:340|232:336|256:328|256:328|280:336|316:340|364:316|376:260|344:208,1,400,2|0,0:0|0:0,0:0:0:0:
304,104,197877,2,0,P|256:91|208:104,2,99.9999999999999,8|0|8,0:0|0:0|0:0,0:0:0:0:
376,188,199351,6,0,L|328:276,1,99.9999999999999,4|8,0:1|0:0,0:0:0:0:
232,328,200334,2,0,P|132:328|92:300,1,150,0|0,0:0|0:0,0:0:0:0:
36,148,201809,2,0,L|84:60,2,99.9999999999999,8|0|8,0:0|0:0|0:0,0:0:0:0:
136,196,203284,6,0,L|184:108,1,99.9999999999999,0|8,0:0|0:0,0:0:0:0:
280,56,204267,2,0,P|380:56|420:84,1,150,0|0,0:0|0:0,0:0:0:0:
476,236,205742,2,0,L|428:324,2,99.9999999999999,8|2|4,0:0|0:3|0:3,0:0:0:0:
468,128,207216,5,4,0:1:0:0:
376,68,207708,1,8,0:0:0:0:
256,52,208199,2,0,B|176:40|188:96|112:84,2,150,0|0|8,0:0|0:0|0:0,0:0:0:0:
360,84,210166,2,0,P|340:126|297:154,1,99.9999999999999,0|8,0:0|0:0,0:0:0:0:
215,228,211149,6,0,P|173:255|152:300,1,99.9999999999999,0|8,0:0|0:0,0:0:0:0:
256,332,212132,2,0,B|336:344|324:288|400:300,2,150,0|0|8,0:0|0:0|0:0,0:0:0:0:
152,300,214099,2,0,P|144:324|152:356,2,50,2|8|4,0:3|0:3|0:3,0:0:0:0:
240,236,215081,6,0,P|252:144|176:80,1,200,4|2,0:1|0:0,0:0:0:0:
68,88,216556,1,8,0:0:0:0:
24,188,217047,2,0,P|49:268|152:300,1,200,0|0,0:0|0:0,0:0:0:0:
256,264,218522,1,8,0:0:0:0:
359,299,219014,6,0,P|453:277|488:188,1,200,0|0,0:0|0:0,0:0:0:0:
444,88,220488,1,8,0:0:0:0:
335,80,220980,2,0,P|261:140|272:236,1,200,0|0,0:0|0:3,0:0:0:0:
360,300,222455,1,4,0:3:0:0:
448,232,222946,6,0,P|452:176|428:140,1,99.9999999999999,4|8,0:1|0:0,0:0:0:0:
336,80,223929,2,0,P|280:84|216:148,1,150,2|0,0:0|0:0,0:0:0:0:
152,300,225404,2,0,P|116:332|56:340,2,99.9999999999999,8|0|8,0:0|0:0|0:0,0:0:0:0:
64,232,226879,6,0,P|60:176|84:140,1,99.9999999999999,0|8,0:0|0:0,0:0:0:0:
176,80,227862,2,0,P|232:84|296:148,1,150,0|0,0:0|0:0,0:0:0:0:
360,300,229337,2,0,P|404:280|436:236,2,99.9999999999999,8|0|8,0:0|0:0|0:0,0:0:0:0:
252,280,230811,6,0,P|202:295|155:283,1,99.9999999999999,4|8,0:1|0:0,0:0:0:0:
72,212,231794,2,0,B|32:136|64:68|64:68|152:96|208:56,1,300,2|4,0:0|0:3,0:0:0:0:
312,88,233761,1,8,0:3:0:0:
244,172,234252,1,8,0:3:0:0:
260,280,234744,6,0,P|309:295|356:283,1,99.9999999999999,4|8,0:1|0:0,0:0:0:0:
440,212,235727,2,0,B|480:136|448:68|448:68|360:96|304:56,1,300,0|8,0:0|0:0,0:0:0:0:
200,88,237693,2,0,P|172:128|176:180,1,99.9999999999999,0|8,0:0|0:0,0:0:0:0:
256,192,238676,12,4,242609,0:1:0:0:
