osu file format v14

[General]
AudioFilename: audio.mp3
AudioLeadIn: 2000
PreviewTime: 55722
Countdown: 0
SampleSet: Soft
StackLeniency: 0.7
Mode: 0
LetterboxInBreaks: 0
WidescreenStoryboard: 0

[Editor]
Bookmarks: 5769,16678,33042,43951,78042
DistanceSpacing: 1
BeatDivisor: 2
GridSize: 16
TimelineZoom: 2.400001

[Metadata]
Title:miele paradiso
TitleUnicode:miele paradiso
Artist:Iori Nomizu
ArtistUnicode:野水いおり
Creator:sahuang
Version:Normal
Source:魔装学園H×H
Tags:IamKwaN Left Pata-mon StarrStyx Sonnyc Taeyang Masou Gakuen Hybrid x Heart Magias Academy Ataraxia 伊織 manzo opening short version TV Size Production IMS
BeatmapID:1022325
BeatmapSetID:478304

[Difficulty]
HPDrainRate:3.5
CircleSize:3.5
OverallDifficulty:4
ApproachRate:5.5
SliderMultiplier:1.2
SliderTickRate:1

[Events]
//Background and Video events
0,0,"haremxd.jpg",0,0
//Break Periods
//Storyboard Layer 0 (Background)
//Storyboard Layer 1 (Fail)
//Storyboard Layer 2 (Pass)
//Storyboard Layer 3 (Foreground)
//Storyboard Sound Samples

[TimingPoints]
325,340.909090909091,4,2,88,70,1,0
5268,-100,4,2,88,50,0,0
5779,-100,4,2,88,70,0,0
16688,-100,4,2,88,50,0,0
22143,-100,4,2,88,60,0,0
27597,-100,4,2,88,70,0,0
33052,-100,4,2,88,65,0,0
43961,-100,4,2,88,60,0,0
49415,-100,4,2,88,70,0,0
54870,-100,4,2,88,40,0,0
56234,-90.9090909090909,4,2,88,80,0,1
66461,-90.9090909090909,4,2,88,80,0,0
67143,-90.9090909090909,4,2,88,80,0,1
78052,-100,4,2,88,70,0,0

[Colours]
Combo1 : 96,192,255
Combo2 : 255,128,192
Combo3 : 192,255,255
Combo4 : 255,192,96

[HitObjects]
125,139,325,6,0,L|185:145,1,60,8|8,0:0|0:0,0:0:0:0:
490,335,1518,2,0,L|370:345,1,120,12|8,0:0|0:0,0:0:0:0:
310,348,2029,1,8,0:0:0:0:
10,148,3052,6,0,L|4:88,1,60,8|8,0:0|0:0,0:0:0:0:
360,28,4245,2,0,L|349:147,1,120,12|8,0:0|0:0,0:0:0:0:
382,198,4756,2,0,P|319:187|256:200,1,120,8|8,0:0|0:0,0:0:0:0:
213,228,5268,1,2,0:3:0:0:
44,290,5779,6,0,P|35:233|48:170,1,120,4|8,0:0|0:0,0:0:0:0:
124,80,6461,2,0,L|115:14,2,60,2|0|8,0:0|0:0|0:0,0:0:0:0:
174,112,6972,2,0,P|234:97|292:99,1,120,4|0,0:0|0:0,0:0:0:0:
345,126,7484,2,0,L|340:61,1,60,8|0,0:0|0:0,0:0:0:0:
355,7,7825,1,2,0:0:0:0:
467,47,8165,1,8,0:0:0:0:
498,162,8506,6,0,P|505:212|481:280,1,120,4|8,0:0|0:0,0:0:0:0:
386,348,9188,2,0,P|406:370|442:387,2,60,2|0|8,0:0|0:0|0:0,0:0:0:0:
376,288,9700,2,0,B|343:277|343:277|253:293,1,120,4|0,0:0|0:0,0:0:0:0:
206,320,10211,2,0,P|208:286|198:254,1,60,8|0,0:0|0:0,0:0:0:0:
169,210,10552,1,2,0:0:0:0:
77,131,10893,1,8,0:0:0:0:
113,16,11234,6,0,L|264:19,1,120,12|0,0:0|0:0,0:0:0:0:
293,23,11745,1,8,0:0:0:0:
453,104,12256,2,0,P|449:138|453:170,1,60,8|0,0:0|0:0,0:0:0:0:
499,199,12597,2,0,L|371:202,1,120,12|0,0:0|0:0,0:0:0:0:
320,218,13109,1,8,0:0:0:0:
146,264,13620,2,0,P|140:233|145:195,1,60,8|0,0:0|0:0,0:0:0:0:
187,164,13961,6,0,L|60:163,1,120,12|0,0:0|0:0,0:0:0:0:
14,192,14472,2,0,P|20:124|15:60,1,120,8|0,0:0|0:0,0:0:0:0:
3,13,14984,1,8,0:0:0:0:
120,36,15325,2,0,L|195:38,1,60,10|10,0:0|0:0,0:0:0:0:
217,83,15665,2,0,L|292:85,1,60,10|10,0:0|0:0,0:0:0:0:
460,322,16688,6,0,L|382:319,1,60,2|0,0:0|0:0,0:0:0:0:
340,328,17029,1,0,0:0:0:0:
340,328,17200,2,0,P|346:269|337:200,1,120,2|2,0:0|0:0,0:0:0:0:
219,211,17881,1,0,0:0:0:0:
219,211,18052,2,0,P|213:270|222:339,1,120,2|0,0:0|0:0,0:0:0:0:
257,376,18563,2,0,L|111:372,1,120,2|0,0:0|0:0,0:0:0:0:
25,231,19415,6,0,L|28:153,1,60,2|0,0:0|0:0,0:0:0:0:
1,116,19756,1,0,0:0:0:0:
1,116,19927,2,0,P|60:122|129:113,1,120,2|2,0:0|0:0,0:0:0:0:
173,87,20438,1,2,0:0:0:0:
258,170,20779,2,0,P|317:176|386:167,1,120,2|0,0:0|0:0,0:0:0:0:
410,118,21290,2,0,L|413:237,1,120,2|0,0:0|0:0,0:0:0:0:
418,298,21802,1,2,0:3:0:0:
312,354,22143,6,0,L|179:350,1,120,2|0,0:0|0:0,0:0:0:0:
135,370,22654,2,0,B|142:306|142:306|135:244,1,120,2|0,0:0|0:0,0:0:0:0:
92,209,23165,1,0,0:0:0:0:
92,209,23336,2,0,L|231:197,1,120,2|0,0:0|0:0,0:0:0:0:
271,192,23847,1,2,0:0:0:0:
387,221,24188,1,2,0:0:0:0:
460,126,24529,1,2,0:0:0:0:
385,31,24870,6,0,P|326:17|267:25,1,120,2|2,0:0|0:0,0:0:0:0:
190,117,25552,2,0,P|130:124|72:110,1,120,2|8,0:0|0:0,0:0:0:0:
39,60,26063,2,0,L|40:192,1,120,4|0,0:0|0:0,0:0:0:0:
40,240,26575,1,10,0:0:0:0:
112,335,26915,2,0,L|177:330,1,60,10|8,0:0|0:0,0:0:0:0:
211,285,27256,2,0,L|276:280,1,60,10|8,0:0|0:0,0:0:0:0:
321,312,27597,6,0,P|315:245|325:191,1,120,6|8,0:0|0:0,0:0:0:0:
347,75,28279,2,0,L|332:1,2,60,2|0|8,0:0|0:0|0:0,0:0:0:0:
293,102,28790,2,0,B|258:92|258:92|220:106|175:97,1,120,4|0,0:0|0:0,0:0:0:0:
128,59,29302,2,0,L|119:119,1,60,8|0,0:0|0:0,0:0:0:0:
107,177,29643,1,2,0:0:0:0:
32,271,29984,1,8,0:0:0:0:
100,371,30325,6,0,P|161:360|223:371,1,120,6|8,0:0|0:0,0:0:0:0:
293,276,31006,2,0,L|360:280,2,60,2|0|8,0:0|0:0|0:0,0:0:0:0:
232,279,31518,2,0,B|245:225|245:225|237:160,1,120,4|0,0:0|0:0,0:0:0:0:
203,111,32029,2,0,L|282:104,1,60,8|2,0:0|0:0,0:0:0:0:
322,101,32370,1,2,0:0:0:0:
409,18,32711,1,10,0:0:0:0:
492,104,33052,6,0,B|478:140|478:140|484:235,1,120,2|8,0:0|0:0,0:0:0:0:
428,328,33734,2,0,L|368:322,1,60,2|0,0:0|0:0,0:0:0:0:
308,313,34075,1,8,0:0:0:0:
189,297,34415,2,0,L|121:303,2,60,2|0|8,0:0|0:0|0:0,0:0:0:0:
268,207,35097,2,0,L|268:142,1,60,2|0,0:0|0:0,0:0:0:0:
214,119,35438,2,0,L|214:54,1,60,8|0,0:0|0:0,0:0:0:0:
259,19,35779,6,0,P|200:29|140:22,1,120,2|8,0:0|0:0,0:0:0:0:
43,92,36461,2,0,L|46:159,1,60,2|0,0:0|0:0,0:0:0:0:
50,211,36802,1,8,0:0:0:0:
115,311,37143,2,0,L|112:370,2,60,2|0|8,0:0|0:0|0:0,0:0:0:0:
178,209,37825,2,0,L|261:220,1,60,2|0,0:0|0:0,0:0:0:0:
266,269,38165,2,0,L|349:280,1,60,8|0,0:0|0:0,0:0:0:0:
376,309,38506,6,0,B|373:247|373:247|387:188,1,120,2|8,0:0|0:0,0:0:0:0:
394,130,39018,2,0,L|463:123,2,60,0|2|0,0:0|0:0|0:0,0:0:0:0:
274,137,39700,2,0,P|220:144|147:133,1,120,2|0,0:0|0:0,0:0:0:0:
103,105,40211,2,0,L|98:168,1,60,8|0,0:0|0:0,0:0:0:0:
53,205,40552,2,0,L|48:268,1,60,2|0,0:0|0:0,0:0:0:0:
39,324,40893,1,8,0:0:0:0:
39,324,41063,1,0,0:0:0:0:
215,358,41575,6,0,L|280:354,1,60,8|0,0:0|0:0,0:0:0:0:
330,377,41915,2,0,P|317:312|328:248,1,120,4|8,0:0|0:0,0:0:0:0:
363,212,42427,2,0,B|281:212|281:212|247:194,1,120,4|2,0:0|0:0,0:0:0:0:
198,159,42938,2,0,L|194:231,1,60,8|0,0:0|0:0,0:0:0:0:
186,278,43279,1,2,0:0:0:0:
186,278,43450,1,4,0:0:0:0:
38,174,43961,5,2,0:0:0:0:
92,67,44302,1,2,0:0:0:0:
92,67,44472,2,0,B|135:56|173:72|173:72|216:46,2,120,8|0|2,0:0|0:0|0:0,0:0:0:0:
38,174,45495,1,0,0:0:0:0:
91,281,45836,2,0,P|152:266|216:272,1,120,2|0,0:0|0:0,0:0:0:0:
266,285,46347,1,2,0:0:0:0:
368,348,46688,5,2,0:0:0:0:
443,254,47029,1,2,0:0:0:0:
443,254,47200,2,0,B|459:212|441:173|441:173|466:135,2,120,8|0|2,0:0|0:0|0:0,0:0:0:0:
368,348,48222,1,0,0:0:0:0:
266,285,48563,2,0,L|271:153,1,120,2|0,0:0|0:0,0:0:0:0:
275,105,49074,1,2,0:0:0:0:
172,42,49415,6,0,B|80:5|80:77|-1:38,2,180,12|8|12,0:0|0:0|0:0,0:0:0:0:
310,158,50950,2,0,B|402:121|402:193|483:154,1,180,8|12,0:0|0:0,0:0:0:0:
437,42,51802,2,0,L|372:24,1,60,8|8,0:0|0:0,0:0:0:0:
319,19,52143,5,10,0:0:0:0:
199,32,52484,2,0,L|141:48,1,60,10|10,0:0|0:0,0:0:0:0:
95,158,52995,1,10,0:0:0:0:
161,257,53336,1,6,0:0:0:0:
256,192,53506,12,4,55552,0:0:0:0:
37,28,56234,6,0,L|31:133,1,66.0000020141602,6|0,0:0|0:0,0:0:0:0:
2,152,56575,1,8,0:0:0:0:
2,152,56745,2,0,P|65:135|129:147,1,132.00000402832
173,272,57427,2,0,P|237:284|301:270,1,132.00000402832,4|0,0:0|0:0,0:0:0:0:
330,210,57938,2,0,L|333:342,1,132.00000402832,8|0,0:0|0:0,0:0:0:0:
463,362,58620,1,8,0:0:0:0:
491,232,58961,6,0,L|494:100,1,132.00000402832,6|8,0:0|0:0,0:0:0:0:
494,33,59472,1,2,0:0:0:0:
371,82,59813,1,0,0:0:0:0:
249,29,60154,2,0,L|171:32,1,66.0000020141602,2|0,0:0|0:0,0:0:0:0:
117,23,60495,1,2,0:0:0:0:
117,23,60665,2,0,B|126:60|126:60|104:104|128:152,1,132.00000402832,8|2,0:0|0:0,0:0:0:0:
230,233,61347,1,8,0:0:0:0:
197,360,61688,6,0,L|333:351,1,132.00000402832,2|8,0:0|0:0,0:0:0:0:
387,382,62200,2,0,P|377:311|390:250,1,132.00000402832,2|0,0:0|0:0,0:0:0:0:
491,169,62881,2,0,P|501:98|488:37,1,132.00000402832,2|2,0:0|0:0,0:0:0:0:
431,5,63393,1,8,0:0:0:0:
307,52,63734,2,0,L|238:46,1,66.0000020141602,2|0,0:0|0:0,0:0:0:0:
194,92,64075,2,0,L|125:86,1,66.0000020141602,8|0,0:0|0:0,0:0:0:0:
70,54,64415,6,0,B|79:115|79:115|68:191,1,132.00000402832,2|8,0:0|0:0,0:0:0:0:
16,225,64927,2,0,L|161:220,2,132.00000402832,0|0|4,0:0|0:0|0:0,0:0:0:0:
95,331,65950,1,2,0:0:0:0:
95,331,66120,2,0,L|174:328,1,66.0000020141602,8|0,0:0|0:0,0:0:0:0:
220,357,66461,2,0,L|299:354,1,66.0000020141602,8|0,0:0|0:0,0:0:0:0:
352,352,66802,1,8,0:0:0:0:
469,291,67143,6,0,L|475:186,1,66.0000020141602,6|0,0:0|0:0,0:0:0:0:
504,167,67484,1,8,0:0:0:0:
504,167,67654,2,0,P|441:184|377:172,1,132.00000402832
288,72,68336,2,0,P|224:60|160:74,1,132.00000402832,4|0,0:0|0:0,0:0:0:0:
130,133,68847,2,0,L|127:1,1,132.00000402832,8|0,0:0|0:0,0:0:0:0:
10,64,69529,1,8,0:0:0:0:
2,195,69870,6,0,L|-1:327,1,132.00000402832,6|8,0:0|0:0,0:0:0:0:
36,381,70381,1,2,0:0:0:0:
139,298,70722,1,0,0:0:0:0:
260,350,71063,2,0,L|338:347,1,66.0000020141602,2|0,0:0|0:0,0:0:0:0:
389,365,71404,1,2,0:0:0:0:
389,365,71575,2,0,B|377:322|377:322|388:281|388:281|377:237,1,132.00000402832,8|2,0:0|0:0,0:0:0:0:
282,144,72256,1,8,0:0:0:0:
333,22,72597,6,0,L|197:31,1,132.00000402832,2|8,0:0|0:0,0:0:0:0:
138,8,73109,2,0,P|148:79|135:140,1,132.00000402832,2|0,0:0|0:0,0:0:0:0:
26,211,73790,2,0,P|16:282|29:343,1,132.00000402832,2|2,0:0|0:0,0:0:0:0:
82,378,74302,1,8,0:0:0:0:
183,293,74643,2,0,L|252:287,1,66.0000020141602,2|0,0:0|0:0,0:0:0:0:
296,333,74984,2,0,L|365:327,1,66.0000020141602,8|0,0:0|0:0,0:0:0:0:
427,330,75325,6,0,B|437:291|437:291|417:243|434:195,1,132.00000402832,2|8,0:0|0:0,0:0:0:0:
484,160,75836,2,0,B|421:166|421:166|350:152,2,132.00000402832,0|0|4,0:0|0:0|0:0,0:0:0:0:
411,49,76859,1,2,0:0:0:0:
411,49,77029,2,0,L|332:34,1,66.0000020141602,8|0,0:0|0:0,0:0:0:0:
279,38,77370,2,0,L|214:50,1,66.0000020141602,8|2,0:0|0:0,0:0:0:0:
172,101,77711,2,0,L|107:113,1,66.0000020141602,8|2,0:0|0:0,0:0:0:0:
47,102,78052,6,0,P|42:189|49:289,2,180,6|2|8,0:0|0:0|0:0,0:0:0:0:
172,101,79415,2,0,P|177:188|170:288,2,180,6|2|8,0:0|0:0|0:0,0:0:0:0:
283,56,80779,6,0,L|346:53,1,60,6|0,0:0|0:0,0:0:0:0:
403,50,81120,1,8,0:0:0:0:
403,50,81290,2,0,B|390:95|413:138|413:138|395:181|413:226,1,180,2|8,0:0|0:0,0:0:0:0:
458,336,82143,2,0,P|393:342|341:320,1,120,2|8,0:0|0:0,0:0:0:0:
288,213,82825,2,0,P|232:191|173:198,1,120,0|8,0:0|0:0,0:0:0:0:
90,284,83506,6,0,P|55:204|85:121,2,180,6|2|8,0:0|0:0|0:0,0:0:0:0:
173,198,84870,2,0,L|236:205,2,60,8|8|8,0:0|0:0|0:0,0:0:0:0:
224,90,85552,6,0,L|371:86,2,120,4|0|8,0:0|0:0|0:0,0:0:0:0:
163,91,86404,1,12,0:0:0:0:
163,91,86575,1,0,0:0:0:0:
61,154,86915,2,0,B|53:218|61:284,1,120,8|0,0:0|0:0,0:0:0:0:
86,328,87427,1,12,0:0:0:0:
194,379,87768,2,0,L|270:369,1,60,8|12,0:0|0:0,0:0:0:0:
