osu file format v14

[General]
AudioFilename: audio.mp3
AudioLeadIn: 0
PreviewTime: 55381
Countdown: 0
SampleSet: Soft
StackLeniency: 0.7
Mode: 3
LetterboxInBreaks: 0
SpecialStyle: 0
WidescreenStoryboard: 0

[Editor]
DistanceSpacing: 2
BeatDivisor: 4
GridSize: 4
TimelineZoom: 2.8

[Metadata]
Title:miele paradiso
TitleUnicode:miele paradiso
Artist:Iori Nomizu
ArtistUnicode:野水 いおり
Creator:Adinata28
Version:Normal
Source:魔装学園H×H
Tags:Masou Gakuen Hybrid x Heart Magias Academy Ataraxia Honey Paradise
BeatmapID:1023174
BeatmapSetID:477896

[Difficulty]
HPDrainRate:7.5
CircleSize:4
OverallDifficulty:7.5
ApproachRate:5
SliderMultiplier:1.4
SliderTickRate:1

[Events]
//Background and Video events
0,0,"Background.jpg",0,0
//Break Periods
//Storyboard Layer 0 (Background)
//Storyboard Layer 1 (Fail)
//Storyboard Layer 2 (Pass)
//Storyboard Layer 3 (Foreground)
//Storyboard Sound Samples

[TimingPoints]
325,340.909090909091,4,2,4,30,1,0
56234,-100,4,2,4,30,0,1
78052,-100,4,2,4,30,0,0

[HitObjects]
64,192,325,5,2,0:0:0:0:
448,192,325,1,4,0:0:0:0:
64,192,495,1,2,0:0:0:0:
448,192,495,1,4,0:0:0:0:
64,192,1518,1,2,0:0:0:0:
192,192,1518,1,4,0:0:0:0:
320,192,1859,1,2,0:0:0:0:
448,192,1859,1,4,0:0:0:0:
320,192,2029,1,2,0:0:0:0:
448,192,2029,1,4,0:0:0:0:
64,192,2540,1,2,0:0:0:0:
192,192,2626,1,2,0:0:0:0:
320,192,2711,1,8,0:0:0:0:
448,192,2711,1,0,0:0:0:0:
192,192,3052,1,2,0:0:0:0:
320,192,3052,1,4,0:0:0:0:
192,192,3222,1,2,0:0:0:0:
320,192,3222,1,4,0:0:0:0:
64,192,4245,1,2,0:0:0:0:
320,192,4245,1,4,0:0:0:0:
192,192,4586,1,4,0:0:0:0:
448,192,4586,1,2,0:0:0:0:
192,192,4756,1,10,0:0:0:0:
448,192,4756,1,4,0:0:0:0:
320,192,4927,1,2,0:0:0:0:
64,192,5097,1,2,0:0:0:0:
192,192,5097,1,8,0:0:0:0:
448,192,5268,128,0,5779:0:0:0:0:
192,192,5779,1,2,0:0:0:0:
64,192,5779,1,4,0:0:0:0:
448,192,6120,1,2,0:0:0:0:
64,192,6120,1,8,0:0:0:0:
192,192,6461,1,2,0:0:0:0:
320,192,6631,1,2,0:0:0:0:
448,192,6802,1,2,0:0:0:0:
64,192,6802,1,8,0:0:0:0:
192,192,6972,1,4,0:0:0:0:
320,192,6972,1,2,0:0:0:0:
448,192,7313,1,2,0:0:0:0:
192,192,7484,1,2,0:0:0:0:
64,192,7484,1,8,0:0:0:0:
192,192,7825,1,2,0:0:0:0:
448,192,7995,1,2,0:0:0:0:
320,192,8165,1,8,0:0:0:0:
64,192,8165,1,2,0:0:0:0:
192,192,8336,1,2,0:0:0:0:
448,192,8506,1,2,0:0:0:0:
320,192,8847,1,2,0:0:0:0:
192,192,8847,1,8,0:0:0:0:
64,192,9188,1,2,0:0:0:0:
320,192,9359,1,2,0:0:0:0:
192,192,9529,1,8,0:0:0:0:
448,192,9529,1,2,0:0:0:0:
320,192,9700,1,4,0:0:0:0:
64,192,9700,1,2,0:0:0:0:
192,192,10040,1,2,0:0:0:0:
64,192,10211,1,8,0:0:0:0:
448,192,10211,1,2,0:0:0:0:
320,192,10552,1,2,0:0:0:0:
64,192,10722,1,2,0:0:0:0:
320,192,10893,1,8,0:0:0:0:
448,192,10893,1,2,0:0:0:0:
192,192,11148,1,2,0:0:0:0:
64,192,11234,1,2,0:0:0:0:
448,192,11234,1,8,0:0:0:0:
192,192,11404,1,2,0:0:0:0:
320,192,11575,1,2,0:0:0:0:
64,192,11745,1,2,0:0:0:0:
320,192,11915,1,2,0:0:0:0:
64,192,12086,1,2,0:0:0:0:
448,192,12256,1,2,0:0:0:0:
192,192,12427,1,2,0:0:0:0:
448,192,12597,1,2,0:0:0:0:
64,192,12597,1,4,0:0:0:0:
320,192,12768,1,2,0:0:0:0:
192,192,12938,1,2,0:0:0:0:
448,192,13109,1,2,0:0:0:0:
64,192,13279,1,2,0:0:0:0:
320,192,13450,1,2,0:0:0:0:
192,192,13620,1,2,0:0:0:0:
448,192,13790,1,2,0:0:0:0:
320,192,13961,1,4,0:0:0:0:
192,192,13961,1,2,0:0:0:0:
64,192,14131,1,2,0:0:0:0:
448,192,14302,1,2,0:0:0:0:
192,192,14472,1,2,0:0:0:0:
320,192,14643,1,2,0:0:0:0:
64,192,14813,1,2,0:0:0:0:
448,192,14984,1,2,0:0:0:0:
192,192,15154,1,2,0:0:0:0:
320,192,15325,1,2,0:0:0:0:
64,192,15325,1,8,0:0:0:0:
64,192,15495,1,2,0:0:0:0:
320,192,15495,1,8,0:0:0:0:
192,192,15665,1,2,0:0:0:0:
448,192,15665,1,8,0:0:0:0:
192,192,15836,1,2,0:0:0:0:
448,192,15836,1,8,0:0:0:0:
64,192,16688,128,0,18052:0:0:0:0:
448,192,17200,128,0,18052:0:0:0:0:
192,192,18052,128,0,19415:0:0:0:0:
320,192,18563,128,0,19415:0:0:0:0:
64,192,19415,128,0,20779:0:0:0:0:
320,192,19927,128,0,20779:0:0:0:0:
448,192,20779,128,0,22143:0:0:0:0:
192,192,21290,128,0,22143:0:0:0:0:
320,192,22143,128,2,23506:0:0:0:0:
64,192,22654,128,0,23506:0:0:0:0:
192,192,23506,128,2,24870:0:0:0:0:
448,192,24018,128,0,24870:0:0:0:0:
320,192,24870,128,2,25552:0:0:0:0:
64,192,25552,128,2,25893:0:0:0:0:
192,192,25893,1,2,0:0:0:0:
448,192,25893,1,8,0:0:0:0:
64,192,26063,1,4,0:0:0:0:
320,192,26063,128,2,27597:0:0:0:0:
64,192,27597,1,2,0:0:0:0:
448,192,27597,1,4,0:0:0:0:
64,192,27938,1,2,0:0:0:0:
448,192,27938,1,8,0:0:0:0:
192,192,28279,1,2,0:0:0:0:
448,192,28450,1,2,0:0:0:0:
64,192,28620,1,8,0:0:0:0:
320,192,28620,1,2,0:0:0:0:
192,192,28790,1,4,0:0:0:0:
448,192,28790,1,2,0:0:0:0:
320,192,29131,1,2,0:0:0:0:
64,192,29302,1,2,0:0:0:0:
448,192,29302,1,8,0:0:0:0:
64,192,29643,1,2,0:0:0:0:
448,192,29813,1,2,0:0:0:0:
192,192,29984,1,2,0:0:0:0:
320,192,29984,1,8,0:0:0:0:
64,192,30154,1,2,0:0:0:0:
448,192,30325,1,2,0:0:0:0:
192,192,30665,1,2,0:0:0:0:
64,192,30665,1,8,0:0:0:0:
320,192,31006,1,2,0:0:0:0:
192,192,31177,1,2,0:0:0:0:
64,192,31347,1,8,0:0:0:0:
448,192,31347,1,2,0:0:0:0:
192,192,31518,1,2,0:0:0:0:
320,192,31518,1,4,0:0:0:0:
448,192,31859,1,2,0:0:0:0:
192,192,32029,1,8,0:0:0:0:
64,192,32029,1,2,0:0:0:0:
192,192,32370,1,2,0:0:0:0:
320,192,32370,1,8,0:0:0:0:
64,192,32540,1,2,0:0:0:0:
448,192,32540,1,8,0:0:0:0:
192,192,32711,1,2,0:0:0:0:
320,192,32711,1,8,0:0:0:0:
64,192,32881,1,2,0:0:0:0:
448,192,32881,1,8,0:0:0:0:
192,192,33052,128,2,33222:0:0:0:0:
320,192,33222,128,2,33393:0:0:0:0:
64,192,33393,1,2,0:0:0:0:
448,192,33393,1,8,0:0:0:0:
64,192,33734,128,2,33904:0:0:0:0:
448,192,33904,128,2,34075:0:0:0:0:
320,192,34075,1,2,0:0:0:0:
192,192,34075,1,8,0:0:0:0:
64,192,34415,128,2,34586:0:0:0:0:
320,192,34586,128,2,34756:0:0:0:0:
192,192,34756,1,8,0:0:0:0:
448,192,34756,1,2,0:0:0:0:
448,192,35097,128,2,35268:0:0:0:0:
192,192,35268,128,2,35438:0:0:0:0:
320,192,35438,128,2,35609:0:0:0:0:
64,192,35609,128,2,35779:0:0:0:0:
448,192,35779,128,2,35950:0:0:0:0:
192,192,35950,128,2,36120:0:0:0:0:
64,192,36120,1,2,0:0:0:0:
320,192,36120,1,8,0:0:0:0:
448,192,36461,128,2,36631:0:0:0:0:
64,192,36631,128,2,36802:0:0:0:0:
192,192,36802,1,2,0:0:0:0:
320,192,36802,1,8,0:0:0:0:
320,192,37143,128,2,37313:0:0:0:0:
192,192,37313,128,2,37484:0:0:0:0:
64,192,37484,1,2,0:0:0:0:
448,192,37484,1,8,0:0:0:0:
64,192,37825,128,10,37995:0:0:0:0:
320,192,37995,128,2,38165:0:0:0:0:
192,192,38165,128,2,38336:0:0:0:0:
448,192,38336,128,10,38506:0:0:0:0:
64,192,38506,128,4,39870:0:0:0:0:
320,192,38506,1,0,0:0:0:0:
192,192,38847,1,2,0:0:0:0:
448,192,38847,1,0,0:0:0:0:
320,192,39188,1,2,0:0:0:0:
448,192,39359,1,2,0:0:0:0:
192,192,39529,1,8,0:0:0:0:
320,192,39700,1,2,0:0:0:0:
448,192,39870,128,2,40552:0:0:0:0:
64,192,40211,1,8,0:0:0:0:
320,192,40211,1,2,0:0:0:0:
192,192,40552,128,2,41234:0:0:0:0:
320,192,40722,1,2,0:0:0:0:
448,192,40893,1,8,0:0:0:0:
64,192,41063,1,2,0:0:0:0:
320,192,41234,1,2,0:0:0:0:
64,192,41575,1,8,0:0:0:0:
448,192,41575,1,2,0:0:0:0:
192,192,41915,1,2,0:0:0:0:
448,192,42086,1,2,0:0:0:0:
64,192,42256,1,8,0:0:0:0:
192,192,42256,1,2,0:0:0:0:
320,192,42427,1,2,0:0:0:0:
448,192,42427,1,4,0:0:0:0:
448,192,42768,1,2,0:0:0:0:
320,192,42938,1,8,0:0:0:0:
64,192,43109,1,2,0:0:0:0:
192,192,43279,1,2,0:0:0:0:
320,192,43450,1,2,0:0:0:0:
448,192,43450,1,4,0:0:0:0:
64,192,43790,1,2,0:0:0:0:
192,192,43790,1,8,0:0:0:0:
320,192,43961,1,4,0:0:0:0:
448,192,43961,128,2,45154:0:0:0:0:
64,192,44472,1,2,0:0:0:0:
192,192,44643,1,2,0:0:0:0:
320,192,44643,1,8,0:0:0:0:
64,192,45154,128,2,46006:0:0:0:0:
448,192,45495,1,2,0:0:0:0:
448,192,45836,1,2,0:0:0:0:
320,192,46006,128,2,46688:0:0:0:0:
192,192,46006,1,8,0:0:0:0:
64,192,46177,1,2,0:0:0:0:
448,192,46347,1,0,0:0:0:0:
64,192,46518,1,2,0:0:0:0:
192,192,46688,128,2,47881:0:0:0:0:
320,192,47200,1,2,0:0:0:0:
448,192,47370,1,2,0:0:0:0:
64,192,47370,1,8,0:0:0:0:
448,192,47881,128,2,49415:0:0:0:0:
320,192,47881,1,0,0:0:0:0:
320,192,48222,1,2,0:0:0:0:
320,192,48563,1,2,0:0:0:0:
192,192,48734,1,8,0:0:0:0:
64,192,48734,1,2,0:0:0:0:
320,192,48904,1,2,0:0:0:0:
64,192,49075,1,2,0:0:0:0:
320,192,49415,128,4,49756:0:0:0:0:
64,192,49415,1,2,0:0:0:0:
192,192,49586,1,2,0:0:0:0:
64,192,49756,1,2,0:0:0:0:
192,192,49927,128,0,50268:0:0:0:0:
448,192,49927,1,2,0:0:0:0:
320,192,50097,1,2,0:0:0:0:
448,192,50268,1,2,0:0:0:0:
64,192,50438,128,0,50779:0:0:0:0:
192,192,50438,1,2,0:0:0:0:
448,192,50609,1,2,0:0:0:0:
192,192,50779,1,2,0:0:0:0:
448,192,50950,128,0,51290:0:0:0:0:
320,192,50950,1,2,0:0:0:0:
64,192,51120,1,2,0:0:0:0:
320,192,51290,1,2,0:0:0:0:
192,192,51461,128,4,51802:0:0:0:0:
64,192,51461,1,2,0:0:0:0:
320,192,51802,128,2,52143:0:0:0:0:
448,192,52143,128,4,52484:0:0:0:0:
320,192,52654,128,4,52825:0:0:0:0:
64,192,52654,1,2,0:0:0:0:
192,192,52995,128,4,53165:0:0:0:0:
448,192,52995,1,2,0:0:0:0:
320,192,53336,1,2,0:0:0:0:
64,192,53336,128,4,54870:0:0:0:0:
448,192,53677,1,2,0:0:0:0:
320,192,53847,1,2,0:0:0:0:
192,192,53847,1,8,0:0:0:0:
320,192,54188,1,2,0:0:0:0:
448,192,54529,1,8,0:0:0:0:
192,192,54529,1,2,0:0:0:0:
320,192,54700,1,2,0:0:0:0:
192,192,54870,1,2,0:0:0:0:
448,192,54984,1,2,0:0:0:0:
320,192,55097,5,2,0:0:0:0:
192,192,55211,1,2,0:0:0:0:
320,192,55325,1,2,0:0:0:0:
192,192,55438,1,2,0:0:0:0:
64,192,55552,128,0,56234:0:0:0:0:
448,192,56234,5,2,0:0:0:0:
320,192,56234,1,4,0:0:0:0:
192,192,56575,1,2,0:0:0:0:
64,192,56575,1,8,0:0:0:0:
320,192,56915,1,2,0:0:0:0:
448,192,57086,1,2,0:0:0:0:
64,192,57256,1,2,0:0:0:0:
192,192,57256,1,8,0:0:0:0:
320,192,57427,1,2,0:0:0:0:
192,192,57768,1,2,0:0:0:0:
64,192,57938,1,8,0:0:0:0:
320,192,57938,1,2,0:0:0:0:
192,192,58279,1,2,0:0:0:0:
448,192,58450,1,2,0:0:0:0:
320,192,58620,1,8,0:0:0:0:
192,192,58620,1,2,0:0:0:0:
64,192,58790,1,2,0:0:0:0:
320,192,58961,1,2,0:0:0:0:
192,192,59302,1,2,0:0:0:0:
448,192,59302,1,8,0:0:0:0:
320,192,59643,1,2,0:0:0:0:
192,192,59813,1,2,0:0:0:0:
64,192,59984,1,2,0:0:0:0:
448,192,59984,1,8,0:0:0:0:
320,192,60154,1,2,0:0:0:0:
64,192,60495,1,2,0:0:0:0:
320,192,60665,1,2,0:0:0:0:
448,192,60665,1,8,0:0:0:0:
192,192,61006,1,2,0:0:0:0:
64,192,61177,1,2,0:0:0:0:
448,192,61347,1,8,0:0:0:0:
192,192,61347,1,2,0:0:0:0:
320,192,61518,1,2,0:0:0:0:
192,192,61688,1,2,0:0:0:0:
448,192,62029,1,2,0:0:0:0:
320,192,62029,1,8,0:0:0:0:
64,192,62370,1,2,0:0:0:0:
192,192,62540,1,2,0:0:0:0:
320,192,62711,1,2,0:0:0:0:
448,192,62711,1,8,0:0:0:0:
64,192,62881,1,2,0:0:0:0:
320,192,63222,1,2,0:0:0:0:
64,192,63393,1,8,0:0:0:0:
448,192,63393,1,2,0:0:0:0:
192,192,63734,1,2,0:0:0:0:
320,192,63904,1,2,0:0:0:0:
448,192,64075,1,2,0:0:0:0:
64,192,64075,1,8,0:0:0:0:
192,192,64245,1,2,0:0:0:0:
320,192,64415,1,2,0:0:0:0:
192,192,64756,1,8,0:0:0:0:
64,192,64756,1,2,0:0:0:0:
448,192,65097,1,2,0:0:0:0:
320,192,65268,1,2,0:0:0:0:
192,192,65438,1,8,0:0:0:0:
448,192,65438,1,2,0:0:0:0:
64,192,65609,128,4,65950:0:0:0:0:
448,192,65950,1,8,0:0:0:0:
320,192,65950,1,2,0:0:0:0:
192,192,66120,1,8,0:0:0:0:
64,192,66120,1,2,0:0:0:0:
448,192,66461,1,2,0:0:0:0:
320,192,66461,1,8,0:0:0:0:
192,192,66802,1,8,0:0:0:0:
64,192,66802,1,2,0:0:0:0:
320,192,67143,1,2,0:0:0:0:
448,192,67143,1,4,0:0:0:0:
64,192,67484,1,2,0:0:0:0:
448,192,67484,1,8,0:0:0:0:
320,192,67825,1,2,0:0:0:0:
64,192,67995,1,2,0:0:0:0:
448,192,68165,1,2,0:0:0:0:
192,192,68165,1,8,0:0:0:0:
64,192,68336,1,2,0:0:0:0:
320,192,68336,1,4,0:0:0:0:
448,192,68677,1,2,0:0:0:0:
320,192,68847,1,8,0:0:0:0:
192,192,68847,1,2,0:0:0:0:
64,192,69188,1,2,0:0:0:0:
192,192,69359,1,2,0:0:0:0:
320,192,69529,1,2,0:0:0:0:
448,192,69529,1,8,0:0:0:0:
192,192,69700,1,2,0:0:0:0:
64,192,69870,1,4,0:0:0:0:
448,192,69870,1,2,0:0:0:0:
192,192,70211,1,2,0:0:0:0:
320,192,70211,1,8,0:0:0:0:
64,192,70552,1,2,0:0:0:0:
448,192,70722,1,2,0:0:0:0:
192,192,70893,1,2,0:0:0:0:
320,192,70893,1,8,0:0:0:0:
64,192,71063,1,2,0:0:0:0:
448,192,71063,1,4,0:0:0:0:
64,192,71404,1,2,0:0:0:0:
448,192,71575,1,8,0:0:0:0:
320,192,71575,1,2,0:0:0:0:
192,192,71915,1,2,0:0:0:0:
320,192,72086,1,2,0:0:0:0:
448,192,72256,1,2,0:0:0:0:
64,192,72256,1,8,0:0:0:0:
64,192,72597,128,2,73620:0:0:0:0:
320,192,72597,1,0,0:0:0:0:
192,192,72938,1,2,0:0:0:0:
448,192,72938,1,8,0:0:0:0:
448,192,73279,1,2,0:0:0:0:
320,192,73450,1,2,0:0:0:0:
192,192,73620,1,2,0:0:0:0:
448,192,73620,1,8,0:0:0:0:
320,192,73790,1,2,0:0:0:0:
64,192,74131,1,2,0:0:0:0:
192,192,74302,1,8,0:0:0:0:
320,192,74302,1,2,0:0:0:0:
448,192,74643,1,2,0:0:0:0:
320,192,74813,1,2,0:0:0:0:
64,192,74984,1,2,0:0:0:0:
192,192,74984,1,8,0:0:0:0:
320,192,75154,1,2,0:0:0:0:
64,192,75325,1,2,0:0:0:0:
448,192,75325,128,0,76347:0:0:0:0:
192,192,75665,1,8,0:0:0:0:
320,192,75665,1,2,0:0:0:0:
64,192,76006,1,2,0:0:0:0:
192,192,76177,1,2,0:0:0:0:
320,192,76347,1,2,0:0:0:0:
64,192,76347,1,8,0:0:0:0:
192,192,76518,1,4,0:0:0:0:
448,192,76518,1,2,0:0:0:0:
320,192,76859,1,2,0:0:0:0:
192,192,77029,1,0,0:0:0:0:
64,192,77029,1,2,0:0:0:0:
448,192,77200,1,2,0:0:0:0:
320,192,77370,1,2,0:0:0:0:
192,192,77370,1,8,0:0:0:0:
64,192,77540,1,2,0:0:0:0:
448,192,77711,1,2,0:0:0:0:
64,192,77881,1,8,0:0:0:0:
192,192,77967,1,8,0:0:0:0:
320,192,78052,1,4,0:0:0:0:
448,192,78052,1,2,0:0:0:0:
192,192,78393,1,2,0:0:0:0:
64,192,78393,1,8,0:0:0:0:
448,192,78563,1,2,0:0:0:0:
320,192,78904,1,2,0:0:0:0:
192,192,79075,1,8,0:0:0:0:
448,192,79075,1,2,0:0:0:0:
64,192,79415,1,2,0:0:0:0:
192,192,79756,1,2,0:0:0:0:
320,192,79756,1,8,0:0:0:0:
448,192,80268,1,2,0:0:0:0:
320,192,80438,1,2,0:0:0:0:
64,192,80438,1,8,0:0:0:0:
192,192,80779,1,2,0:0:0:0:
320,192,81120,1,2,0:0:0:0:
448,192,81120,1,8,0:0:0:0:
64,192,81290,1,0,0:0:0:0:
192,192,81631,1,2,0:0:0:0:
320,192,81802,1,2,0:0:0:0:
448,192,81802,1,8,0:0:0:0:
64,192,82143,1,2,0:0:0:0:
192,192,82484,1,2,0:0:0:0:
448,192,82484,1,8,0:0:0:0:
320,192,82654,1,0,0:0:0:0:
192,192,82995,1,2,0:0:0:0:
64,192,83165,1,8,0:0:0:0:
320,192,83165,1,2,0:0:0:0:
448,192,83506,128,2,84870:0:0:0:0:
192,192,83506,1,0,0:0:0:0:
64,192,83847,1,2,0:0:0:0:
320,192,83847,1,8,0:0:0:0:
192,192,84188,1,2,0:0:0:0:
64,192,84529,1,8,0:0:0:0:
192,192,84529,1,2,0:0:0:0:
320,192,84700,1,2,0:0:0:0:
64,192,84870,1,6,0:0:0:0:
192,192,84870,1,8,0:0:0:0:
64,192,85040,1,12,0:0:0:0:
320,192,85040,1,2,0:0:0:0:
448,192,85211,1,12,0:0:0:0:
64,192,85211,1,2,0:0:0:0:
448,192,86234,128,0,86404:0:0:0:0:
320,192,86404,1,2,0:0:0:0:
192,192,86404,1,4,0:0:0:0:
320,192,86745,128,0,86915:0:0:0:0:
64,192,86915,1,2,0:0:0:0:
192,192,86915,1,4,0:0:0:0:
192,192,87256,128,0,87427:0:0:0:0:
320,192,87427,1,2,0:0:0:0:
448,192,87427,1,4,0:0:0:0:
192,192,87768,1,4,0:0:0:0:
320,192,87768,1,2,0:0:0:0:
64,192,87938,1,4,0:0:0:0:
448,192,87938,1,2,0:0:0:0:
