osu file format v14

[General]
AudioFilename: audio.mp3
AudioLeadIn: 0
PreviewTime: 55381
Countdown: 0
SampleSet: Soft
StackLeniency: 0.7
Mode: 3
LetterboxInBreaks: 0
SpecialStyle: 0
WidescreenStoryboard: 0

[Editor]
DistanceSpacing: 2
BeatDivisor: 4
GridSize: 4
TimelineZoom: 1.700001

[Metadata]
Title:miele paradiso
TitleUnicode:miele paradiso
Artist:Iori Nomizu
ArtistUnicode:野水 いおり
Creator:Adinata28
Version:Insane
Source:魔装学園H×H
Tags:Masou Gakuen Hybrid x Heart Magias Academy Ataraxia Honey Paradise
BeatmapID:1024946
BeatmapSetID:477896

[Difficulty]
HPDrainRate:8.5
CircleSize:4
OverallDifficulty:8.5
ApproachRate:5
SliderMultiplier:1.4
SliderTickRate:1

[Events]
//Background and Video events
0,0,"Background.jpg",0,0
//Break Periods
//Storyboard Layer 0 (Background)
//Storyboard Layer 1 (Fail)
//Storyboard Layer 2 (Pass)
//Storyboard Layer 3 (Foreground)
//Storyboard Sound Samples

[TimingPoints]
325,340.909090909091,4,2,4,30,1,0
16347,-111.111111111111,4,2,4,10,0,0
26063,-100,4,2,4,30,0,0
55552,-200,4,2,4,30,0,0
55637,-333.333333333333,4,2,4,30,0,0
55722,-1000,4,2,4,30,0,0
55893,-333.333333333333,4,2,4,30,0,0
55978,-200,4,2,4,30,0,0
56063,-142.857142857143,4,2,4,30,0,0
56148,-111.111111111111,4,2,4,30,0,0
56234,-100,4,2,4,30,0,1
65609,-200,4,2,4,30,0,1
65779,-142.857142857143,4,2,4,30,0,1
65864,-111.111111111111,4,2,4,30,0,1
65950,-100,4,2,4,30,0,1
78052,-100,4,2,4,30,0,0

[HitObjects]
51,192,325,5,0,0:0:0:0:
358,192,325,1,2,0:0:0:0:
460,192,325,1,4,0:0:0:0:
320,192,495,1,2,0:0:0:0:
64,192,495,1,0,0:0:0:0:
448,192,495,1,4,0:0:0:0:
64,192,1518,1,2,0:0:0:0:
192,192,1518,1,4,0:0:0:0:
320,192,1518,1,0,0:0:0:0:
192,192,1859,1,2,0:0:0:0:
320,192,1859,1,0,0:0:0:0:
448,192,1859,1,4,0:0:0:0:
192,192,2029,1,2,0:0:0:0:
320,192,2029,1,0,0:0:0:0:
448,192,2029,1,4,0:0:0:0:
192,192,2540,1,2,0:0:0:0:
320,192,2626,1,2,0:0:0:0:
448,192,2711,1,8,0:0:0:0:
64,192,2711,1,0,0:0:0:0:
192,192,2881,128,0,3052:0:0:0:0:
64,192,3052,1,2,0:0:0:0:
320,192,3052,1,0,0:0:0:0:
448,192,3052,1,4,0:0:0:0:
64,192,3222,1,2,0:0:0:0:
320,192,3222,1,0,0:0:0:0:
448,192,3222,1,4,0:0:0:0:
192,192,4245,1,0,0:0:0:0:
320,192,4245,1,4,0:0:0:0:
64,192,4245,1,2,0:0:0:0:
192,192,4586,1,0,0:0:0:0:
320,192,4586,1,2,0:0:0:0:
448,192,4586,1,4,0:0:0:0:
320,192,4756,1,2,0:0:0:0:
448,192,4756,1,4,0:0:0:0:
64,192,4756,1,8,0:0:0:0:
192,192,4927,1,0,0:0:0:0:
320,192,4927,1,2,0:0:0:0:
64,192,5097,1,2,0:0:0:0:
448,192,5097,1,8,0:0:0:0:
192,192,5097,1,0,0:0:0:0:
320,192,5268,128,0,5779:0:0:0:0:
192,192,5268,128,0,5779:0:0:0:0:
64,192,5779,1,2,0:0:0:0:
448,192,5779,1,4,0:0:0:0:
192,192,5950,1,0,0:0:0:0:
64,192,6120,1,2,0:0:0:0:
320,192,6120,1,8,0:0:0:0:
448,192,6120,1,0,0:0:0:0:
448,192,6290,1,0,0:0:0:0:
64,192,6461,1,0,0:0:0:0:
192,192,6461,1,2,0:0:0:0:
320,192,6631,1,2,0:0:0:0:
448,192,6631,1,0,0:0:0:0:
192,192,6802,1,0,0:0:0:0:
64,192,6802,1,8,0:0:0:0:
448,192,6802,1,2,0:0:0:0:
320,192,6972,1,4,0:0:0:0:
192,192,6972,1,2,0:0:0:0:
64,192,6972,1,0,0:0:0:0:
448,192,6972,1,0,0:0:0:0:
64,192,7313,1,0,0:0:0:0:
448,192,7313,1,2,0:0:0:0:
320,192,7484,1,0,0:0:0:0:
192,192,7484,1,8,0:0:0:0:
64,192,7484,1,2,0:0:0:0:
448,192,7654,1,0,0:0:0:0:
448,192,7825,1,0,0:0:0:0:
192,192,7825,1,2,0:0:0:0:
64,192,7995,1,0,0:0:0:0:
320,192,7995,1,2,0:0:0:0:
192,192,8165,1,8,0:0:0:0:
448,192,8165,1,2,0:0:0:0:
64,192,8165,1,0,0:0:0:0:
320,192,8336,1,2,0:0:0:0:
192,192,8336,1,0,0:0:0:0:
320,192,8506,1,0,0:0:0:0:
448,192,8506,1,2,0:0:0:0:
64,192,8677,1,0,0:0:0:0:
64,192,8847,1,2,0:0:0:0:
192,192,8847,1,0,0:0:0:0:
448,192,8847,1,8,0:0:0:0:
192,192,9018,1,0,0:0:0:0:
320,192,9188,1,0,0:0:0:0:
448,192,9188,1,2,0:0:0:0:
192,192,9359,1,0,0:0:0:0:
320,192,9359,1,2,0:0:0:0:
64,192,9529,1,0,0:0:0:0:
192,192,9529,1,2,0:0:0:0:
448,192,9529,1,8,0:0:0:0:
320,192,9700,1,4,0:0:0:0:
448,192,9700,1,0,0:0:0:0:
192,192,9700,1,0,0:0:0:0:
64,192,9700,1,2,0:0:0:0:
192,192,10040,1,2,0:0:0:0:
64,192,10040,1,0,0:0:0:0:
64,192,10211,1,0,0:0:0:0:
320,192,10211,1,2,0:0:0:0:
448,192,10211,1,8,0:0:0:0:
448,192,10381,1,0,0:0:0:0:
192,192,10552,1,2,0:0:0:0:
320,192,10552,1,0,0:0:0:0:
192,192,10722,1,2,0:0:0:0:
320,192,10722,1,0,0:0:0:0:
64,192,10893,1,0,0:0:0:0:
192,192,10893,1,2,0:0:0:0:
448,192,10893,1,8,0:0:0:0:
320,192,11148,1,2,0:0:0:0:
448,192,11148,1,0,0:0:0:0:
64,192,11234,1,0,0:0:0:0:
192,192,11234,1,8,0:0:0:0:
448,192,11234,128,2,11745:0:0:0:0:
64,192,11404,1,0,0:0:0:0:
320,192,11404,1,2,0:0:0:0:
192,192,11575,1,0,0:0:0:0:
320,192,11575,1,2,0:0:0:0:
64,192,11745,128,2,12256:0:0:0:0:
192,192,11745,1,0,0:0:0:0:
320,192,11915,1,0,0:0:0:0:
448,192,11915,1,2,0:0:0:0:
192,192,12086,1,0,0:0:0:0:
448,192,12086,1,2,0:0:0:0:
192,192,12256,128,0,12597:0:0:0:0:
320,192,12256,1,2,0:0:0:0:
64,192,12427,1,2,0:0:0:0:
448,192,12427,1,0,0:0:0:0:
448,192,12597,128,0,13109:0:0:0:0:
320,192,12597,1,4,0:0:0:0:
64,192,12597,1,2,0:0:0:0:
320,192,12768,1,0,0:0:0:0:
192,192,12768,1,2,0:0:0:0:
192,192,12938,1,0,0:0:0:0:
64,192,12938,1,2,0:0:0:0:
320,192,13109,128,0,13620:0:0:0:0:
64,192,13109,1,2,0:0:0:0:
448,192,13279,1,0,0:0:0:0:
192,192,13279,1,2,0:0:0:0:
192,192,13450,1,2,0:0:0:0:
64,192,13450,1,0,0:0:0:0:
64,192,13620,128,0,13961:0:0:0:0:
448,192,13620,1,2,0:0:0:0:
192,192,13790,1,2,0:0:0:0:
448,192,13790,1,0,0:0:0:0:
448,192,13961,128,0,14472:0:0:0:0:
192,192,13961,1,2,0:0:0:0:
320,192,13961,1,4,0:0:0:0:
320,192,14131,1,2,0:0:0:0:
64,192,14131,1,0,0:0:0:0:
192,192,14302,1,2,0:0:0:0:
64,192,14302,1,0,0:0:0:0:
192,192,14472,1,2,0:0:0:0:
320,192,14472,128,0,14984:0:0:0:0:
192,192,14643,1,2,0:0:0:0:
64,192,14643,1,0,0:0:0:0:
64,192,14813,1,0,0:0:0:0:
448,192,14813,1,2,0:0:0:0:
192,192,14984,128,0,15325:0:0:0:0:
448,192,14984,1,2,0:0:0:0:
64,192,15154,1,0,0:0:0:0:
320,192,15154,1,2,0:0:0:0:
64,192,15325,1,0,0:0:0:0:
448,192,15325,1,8,0:0:0:0:
320,192,15325,1,2,0:0:0:0:
64,192,15495,5,0,0:0:0:0:
448,192,15495,1,8,0:0:0:0:
192,192,15495,1,2,0:0:0:0:
64,192,15665,1,0,0:0:0:0:
448,192,15665,1,8,0:0:0:0:
320,192,15665,1,2,0:0:0:0:
64,192,15836,1,0,0:0:0:0:
448,192,15836,1,8,0:0:0:0:
192,192,15836,1,2,0:0:0:0:
192,192,16603,5,0,0:0:0:0:
320,192,16646,1,0,0:0:0:0:
448,192,16688,1,0,0:0:0:0:
64,192,16688,128,0,18052:0:0:0:0:
192,192,16859,1,0,0:0:0:0:
448,192,17029,1,0,0:0:0:0:
448,192,17200,128,0,18052:0:0:0:0:
320,192,17200,1,0,0:0:0:0:
192,192,17370,1,0,0:0:0:0:
320,192,17540,1,0,0:0:0:0:
192,192,17711,1,0,0:0:0:0:
320,192,17881,1,0,0:0:0:0:
192,192,18052,128,0,19415:0:0:0:0:
320,192,18222,1,0,0:0:0:0:
64,192,18393,1,0,0:0:0:0:
320,192,18563,128,0,19415:0:0:0:0:
448,192,18563,1,0,0:0:0:0:
64,192,18734,1,0,0:0:0:0:
448,192,18904,1,0,0:0:0:0:
64,192,19075,1,0,0:0:0:0:
64,192,19415,128,0,20779:0:0:0:0:
448,192,19586,1,0,0:0:0:0:
320,192,19756,1,0,0:0:0:0:
320,192,19927,128,0,20779:0:0:0:0:
192,192,19927,1,0,0:0:0:0:
448,192,20097,1,0,0:0:0:0:
192,192,20268,1,0,0:0:0:0:
448,192,20438,1,0,0:0:0:0:
448,192,20779,128,0,22143:0:0:0:0:
64,192,20950,1,0,0:0:0:0:
192,192,21120,1,0,0:0:0:0:
192,192,21290,128,0,22143:0:0:0:0:
320,192,21290,1,0,0:0:0:0:
64,192,21461,1,0,0:0:0:0:
320,192,21631,1,0,0:0:0:0:
64,192,21717,1,0,0:0:0:0:
320,192,21802,1,0,0:0:0:0:
64,192,21972,1,0,0:0:0:0:
64,192,22143,1,2,0:0:0:0:
320,192,22143,128,0,23506:0:0:0:0:
448,192,22313,1,0,0:0:0:0:
64,192,22484,1,0,0:0:0:0:
64,192,22654,128,0,23506:0:0:0:0:
192,192,22825,1,0,0:0:0:0:
448,192,22995,1,0,0:0:0:0:
192,192,23165,1,0,0:0:0:0:
448,192,23336,1,0,0:0:0:0:
192,192,23506,128,2,24870:0:0:0:0:
64,192,23677,1,0,0:0:0:0:
448,192,23847,1,0,0:0:0:0:
448,192,24018,128,0,24870:0:0:0:0:
320,192,24018,1,0,0:0:0:0:
64,192,24188,1,0,0:0:0:0:
320,192,24359,1,0,0:0:0:0:
64,192,24529,1,0,0:0:0:0:
320,192,24700,1,0,0:0:0:0:
320,192,24870,128,2,25552:0:0:0:0:
64,192,24870,1,0,0:0:0:0:
448,192,25040,1,0,0:0:0:0:
192,192,25211,1,0,0:0:0:0:
64,192,25381,1,0,0:0:0:0:
64,192,25552,128,2,25893:0:0:0:0:
448,192,25552,1,0,0:0:0:0:
320,192,25722,1,0,0:0:0:0:
448,192,25893,5,2,0:0:0:0:
192,192,25893,1,8,0:0:0:0:
320,192,25893,1,0,0:0:0:0:
64,192,26063,1,4,0:0:0:0:
192,192,26063,1,0,0:0:0:0:
320,192,26063,1,0,0:0:0:0:
448,192,26063,1,2,0:0:0:0:
320,192,26404,1,2,0:0:0:0:
448,192,26404,1,0,0:0:0:0:
64,192,26489,1,0,0:0:0:0:
192,192,26489,1,2,0:0:0:0:
320,192,26575,1,2,0:0:0:0:
448,192,26575,1,0,0:0:0:0:
64,192,26660,1,0,0:0:0:0:
192,192,26660,1,2,0:0:0:0:
320,192,26745,1,2,0:0:0:0:
448,192,26745,1,0,0:0:0:0:
192,192,26830,1,2,0:0:0:0:
64,192,26830,1,0,0:0:0:0:
320,192,26915,1,2,0:0:0:0:
448,192,26915,1,0,0:0:0:0:
64,192,27001,1,0,0:0:0:0:
192,192,27001,1,2,0:0:0:0:
320,192,27086,1,2,0:0:0:0:
448,192,27086,1,0,0:0:0:0:
64,192,27171,1,0,0:0:0:0:
192,192,27171,1,2,0:0:0:0:
448,192,27256,1,0,0:0:0:0:
320,192,27256,1,2,0:0:0:0:
192,192,27342,1,2,0:0:0:0:
64,192,27342,1,0,0:0:0:0:
320,192,27427,1,2,0:0:0:0:
448,192,27427,1,0,0:0:0:0:
64,192,27512,1,0,0:0:0:0:
192,192,27512,1,2,0:0:0:0:
320,192,27597,1,2,0:0:0:0:
448,192,27597,1,4,0:0:0:0:
64,192,27597,1,0,0:0:0:0:
192,192,27768,1,0,0:0:0:0:
64,192,27938,1,2,0:0:0:0:
192,192,27938,1,0,0:0:0:0:
448,192,27938,1,8,0:0:0:0:
320,192,28109,1,0,0:0:0:0:
192,192,28279,1,0,0:0:0:0:
64,192,28279,1,2,0:0:0:0:
192,192,28450,1,2,0:0:0:0:
320,192,28450,1,0,0:0:0:0:
448,192,28620,1,8,0:0:0:0:
320,192,28620,1,2,0:0:0:0:
64,192,28620,1,0,0:0:0:0:
64,192,28790,1,0,0:0:0:0:
192,192,28790,1,4,0:0:0:0:
320,192,28790,1,0,0:0:0:0:
448,192,28790,1,2,0:0:0:0:
192,192,29131,1,2,0:0:0:0:
320,192,29131,1,0,0:0:0:0:
64,192,29302,1,2,0:0:0:0:
192,192,29302,1,0,0:0:0:0:
448,192,29302,1,8,0:0:0:0:
320,192,29472,1,0,0:0:0:0:
64,192,29643,1,0,0:0:0:0:
448,192,29643,1,2,0:0:0:0:
192,192,29813,1,0,0:0:0:0:
64,192,29984,1,2,0:0:0:0:
448,192,29984,1,8,0:0:0:0:
320,192,29984,1,0,0:0:0:0:
320,192,30154,1,0,0:0:0:0:
192,192,30154,1,2,0:0:0:0:
64,192,30325,1,2,0:0:0:0:
192,192,30325,1,0,0:0:0:0:
320,192,30495,1,0,0:0:0:0:
448,192,30665,1,8,0:0:0:0:
64,192,30665,1,0,0:0:0:0:
192,192,30665,1,2,0:0:0:0:
320,192,30836,1,0,0:0:0:0:
448,192,31006,1,0,0:0:0:0:
64,192,31006,1,2,0:0:0:0:
192,192,31177,1,2,0:0:0:0:
320,192,31177,1,0,0:0:0:0:
192,192,31347,1,0,0:0:0:0:
64,192,31347,1,2,0:0:0:0:
448,192,31347,1,8,0:0:0:0:
192,192,31518,1,4,0:0:0:0:
64,192,31518,1,0,0:0:0:0:
320,192,31518,1,2,0:0:0:0:
448,192,31518,1,0,0:0:0:0:
448,192,31859,1,0,0:0:0:0:
64,192,31859,1,2,0:0:0:0:
64,192,32029,1,0,0:0:0:0:
192,192,32029,1,2,0:0:0:0:
320,192,32114,1,2,0:0:0:0:
448,192,32114,1,0,0:0:0:0:
192,192,32200,1,2,0:0:0:0:
64,192,32200,1,0,0:0:0:0:
320,192,32285,1,0,0:0:0:0:
448,192,32370,1,2,0:0:0:0:
64,192,32370,1,0,0:0:0:0:
320,192,32540,1,2,0:0:0:0:
192,192,32540,1,0,0:0:0:0:
64,192,32711,1,0,0:0:0:0:
448,192,32711,1,2,0:0:0:0:
192,192,32881,1,0,0:0:0:0:
320,192,32881,1,2,0:0:0:0:
192,192,33052,1,0,0:0:0:0:
448,192,33052,1,2,0:0:0:0:
64,192,33052,128,0,33222:0:0:0:0:
192,192,33222,1,2,0:0:0:0:
448,192,33222,128,0,33393:0:0:0:0:
192,192,33393,1,0,0:0:0:0:
64,192,33393,1,8,0:0:0:0:
320,192,33393,1,2,0:0:0:0:
64,192,33563,1,0,0:0:0:0:
448,192,33734,1,2,0:0:0:0:
192,192,33734,128,0,33904:0:0:0:0:
320,192,33734,1,0,0:0:0:0:
448,192,33904,128,0,34075:0:0:0:0:
320,192,33904,1,2,0:0:0:0:
320,192,34075,1,0,0:0:0:0:
192,192,34075,1,8,0:0:0:0:
64,192,34075,1,2,0:0:0:0:
192,192,34245,1,0,0:0:0:0:
448,192,34415,1,0,0:0:0:0:
320,192,34415,128,0,34586:0:0:0:0:
64,192,34415,1,2,0:0:0:0:
448,192,34586,128,0,34756:0:0:0:0:
64,192,34586,1,2,0:0:0:0:
64,192,34756,1,0,0:0:0:0:
192,192,34756,1,2,0:0:0:0:
320,192,34756,1,8,0:0:0:0:
448,192,35097,128,0,35268:0:0:0:0:
320,192,35097,1,2,0:0:0:0:
192,192,35268,128,0,35438:0:0:0:0:
64,192,35268,1,2,0:0:0:0:
320,192,35438,128,0,35609:0:0:0:0:
448,192,35438,1,2,0:0:0:0:
64,192,35609,128,0,35779:0:0:0:0:
192,192,35609,1,2,0:0:0:0:
448,192,35779,128,0,35950:0:0:0:0:
320,192,35779,1,2,0:0:0:0:
192,192,35779,1,0,0:0:0:0:
64,192,35950,128,0,36120:0:0:0:0:
320,192,35950,1,2,0:0:0:0:
192,192,36120,1,8,0:0:0:0:
448,192,36120,1,0,0:0:0:0:
320,192,36120,1,2,0:0:0:0:
448,192,36290,1,0,0:0:0:0:
320,192,36461,128,0,36631:0:0:0:0:
64,192,36461,1,0,0:0:0:0:
192,192,36461,1,2,0:0:0:0:
64,192,36631,128,0,36802:0:0:0:0:
192,192,36631,1,2,0:0:0:0:
192,192,36802,1,2,0:0:0:0:
320,192,36802,1,0,0:0:0:0:
448,192,36802,1,8,0:0:0:0:
320,192,36972,1,0,0:0:0:0:
192,192,37143,128,0,37313:0:0:0:0:
64,192,37143,1,0,0:0:0:0:
448,192,37143,1,2,0:0:0:0:
64,192,37313,128,0,37484:0:0:0:0:
448,192,37313,1,2,0:0:0:0:
320,192,37484,1,0,0:0:0:0:
192,192,37484,1,8,0:0:0:0:
448,192,37484,1,2,0:0:0:0:
320,192,37654,1,0,0:0:0:0:
64,192,37825,1,0,0:0:0:0:
192,192,37825,1,8,0:0:0:0:
448,192,37825,1,2,0:0:0:0:
192,192,37995,1,0,0:0:0:0:
448,192,37995,1,2,0:0:0:0:
64,192,38080,1,0,0:0:0:0:
320,192,38080,1,2,0:0:0:0:
192,192,38165,1,2,0:0:0:0:
448,192,38165,1,0,0:0:0:0:
192,192,38336,1,8,0:0:0:0:
64,192,38336,1,0,0:0:0:0:
448,192,38336,1,2,0:0:0:0:
320,192,38506,1,0,0:0:0:0:
192,192,38506,1,2,0:0:0:0:
64,192,38506,1,4,0:0:0:0:
448,192,38506,128,0,39870:0:0:0:0:
320,192,38677,1,0,0:0:0:0:
192,192,38847,1,2,0:0:0:0:
64,192,38847,1,0,0:0:0:0:
320,192,38847,1,0,0:0:0:0:
64,192,39018,1,0,0:0:0:0:
192,192,39188,1,0,0:0:0:0:
320,192,39188,1,2,0:0:0:0:
64,192,39359,1,0,0:0:0:0:
192,192,39359,1,2,0:0:0:0:
64,192,39529,1,2,0:0:0:0:
192,192,39529,1,0,0:0:0:0:
320,192,39529,1,0,0:0:0:0:
320,192,39700,1,2,0:0:0:0:
64,192,39700,1,0,0:0:0:0:
192,192,39870,1,2,0:0:0:0:
64,192,39870,128,0,40552:0:0:0:0:
320,192,40040,1,0,0:0:0:0:
448,192,40211,1,8,0:0:0:0:
320,192,40211,1,2,0:0:0:0:
192,192,40211,1,0,0:0:0:0:
320,192,40381,1,0,0:0:0:0:
192,192,40552,128,0,41234:0:0:0:0:
448,192,40552,1,2,0:0:0:0:
320,192,40722,1,2,0:0:0:0:
64,192,40722,1,0,0:0:0:0:
64,192,40893,1,0,0:0:0:0:
320,192,40893,1,2,0:0:0:0:
448,192,40893,1,8,0:0:0:0:
448,192,41063,1,0,0:0:0:0:
320,192,41063,1,2,0:0:0:0:
64,192,41234,1,0,0:0:0:0:
448,192,41234,1,2,0:0:0:0:
320,192,41404,1,2,0:0:0:0:
192,192,41404,1,0,0:0:0:0:
64,192,41575,1,8,0:0:0:0:
192,192,41575,1,2,0:0:0:0:
448,192,41575,1,0,0:0:0:0:
64,192,41745,1,0,0:0:0:0:
320,192,41915,128,0,42427:0:0:0:0:
192,192,41915,1,2,0:0:0:0:
448,192,42086,1,0,0:0:0:0:
64,192,42086,1,2,0:0:0:0:
192,192,42256,1,8,0:0:0:0:
64,192,42256,1,2,0:0:0:0:
448,192,42256,1,0,0:0:0:0:
448,192,42427,128,0,42768:0:0:0:0:
192,192,42427,1,4,0:0:0:0:
64,192,42427,1,2,0:0:0:0:
64,192,42768,128,0,42938:0:0:0:0:
320,192,42768,1,2,0:0:0:0:
320,192,42938,128,0,43109:0:0:0:0:
192,192,42938,1,2,0:0:0:0:
448,192,42938,1,8,0:0:0:0:
192,192,43109,128,0,43279:0:0:0:0:
64,192,43109,1,2,0:0:0:0:
64,192,43279,128,0,43450:0:0:0:0:
448,192,43279,1,0,0:0:0:0:
320,192,43279,1,2,0:0:0:0:
192,192,43450,1,4,0:0:0:0:
320,192,43450,1,0,0:0:0:0:
448,192,43450,1,2,0:0:0:0:
448,192,43790,5,0,0:0:0:0:
192,192,43790,1,8,0:0:0:0:
64,192,43790,1,2,0:0:0:0:
192,192,43961,128,0,45154:0:0:0:0:
448,192,43961,1,0,0:0:0:0:
320,192,43961,1,4,0:0:0:0:
64,192,43961,1,2,0:0:0:0:
448,192,44131,1,0,0:0:0:0:
320,192,44302,1,0,0:0:0:0:
448,192,44472,5,2,0:0:0:0:
64,192,44472,1,0,0:0:0:0:
64,192,44643,1,8,0:0:0:0:
320,192,44643,1,0,0:0:0:0:
448,192,44643,1,2,0:0:0:0:
320,192,44813,1,0,0:0:0:0:
64,192,44984,5,0,0:0:0:0:
448,192,45154,128,0,46006:0:0:0:0:
320,192,45154,1,2,0:0:0:0:
192,192,45325,5,0,0:0:0:0:
64,192,45495,1,0,0:0:0:0:
320,192,45495,1,2,0:0:0:0:
192,192,45665,1,0,0:0:0:0:
64,192,45836,1,0,0:0:0:0:
320,192,45836,1,2,0:0:0:0:
64,192,46006,128,0,46688:0:0:0:0:
192,192,46006,1,8,0:0:0:0:
320,192,46006,1,2,0:0:0:0:
448,192,46177,1,0,0:0:0:0:
192,192,46177,1,2,0:0:0:0:
448,192,46347,1,0,0:0:0:0:
320,192,46518,1,0,0:0:0:0:
192,192,46518,1,2,0:0:0:0:
320,192,46688,128,0,47881:0:0:0:0:
448,192,46688,1,2,0:0:0:0:
192,192,46859,1,0,0:0:0:0:
448,192,47029,1,0,0:0:0:0:
64,192,47200,1,0,0:0:0:0:
192,192,47200,1,2,0:0:0:0:
192,192,47370,1,2,0:0:0:0:
64,192,47370,1,8,0:0:0:0:
448,192,47370,1,0,0:0:0:0:
448,192,47540,1,0,0:0:0:0:
64,192,47711,1,0,0:0:0:0:
192,192,47881,1,2,0:0:0:0:
448,192,47881,128,0,49415:0:0:0:0:
320,192,48052,1,0,0:0:0:0:
192,192,48222,1,2,0:0:0:0:
64,192,48222,1,0,0:0:0:0:
320,192,48393,1,0,0:0:0:0:
192,192,48563,1,2,0:0:0:0:
64,192,48563,1,0,0:0:0:0:
64,192,48734,1,8,0:0:0:0:
192,192,48734,1,2,0:0:0:0:
320,192,48734,1,0,0:0:0:0:
192,192,48904,1,2,0:0:0:0:
320,192,48904,1,0,0:0:0:0:
64,192,49075,1,0,0:0:0:0:
192,192,49075,1,2,0:0:0:0:
320,192,49075,128,0,49415:0:0:0:0:
64,192,49415,128,4,49756:0:0:0:0:
192,192,49415,1,2,0:0:0:0:
192,192,49586,1,0,0:0:0:0:
320,192,49586,1,2,0:0:0:0:
320,192,49756,1,0,0:0:0:0:
448,192,49756,1,2,0:0:0:0:
320,192,49927,128,0,50268:0:0:0:0:
64,192,49927,1,2,0:0:0:0:
448,192,49927,1,0,0:0:0:0:
192,192,50097,1,2,0:0:0:0:
64,192,50097,1,0,0:0:0:0:
448,192,50268,1,2,0:0:0:0:
192,192,50268,1,0,0:0:0:0:
192,192,50438,128,0,50779:0:0:0:0:
64,192,50438,1,2,0:0:0:0:
320,192,50438,1,0,0:0:0:0:
448,192,50609,1,0,0:0:0:0:
320,192,50609,1,2,0:0:0:0:
64,192,50779,1,0,0:0:0:0:
448,192,50779,1,2,0:0:0:0:
320,192,50950,1,2,0:0:0:0:
448,192,50950,128,0,51290:0:0:0:0:
192,192,50950,1,0,0:0:0:0:
192,192,51120,1,2,0:0:0:0:
64,192,51120,1,0,0:0:0:0:
64,192,51290,1,2,0:0:0:0:
320,192,51290,1,0,0:0:0:0:
448,192,51461,1,2,0:0:0:0:
64,192,51461,1,4,0:0:0:0:
192,192,51461,128,0,51631:0:0:0:0:
320,192,51546,1,2,0:0:0:0:
448,192,51631,1,2,0:0:0:0:
320,192,51717,1,2,0:0:0:0:
192,192,51802,1,2,0:0:0:0:
448,192,51802,1,0,0:0:0:0:
64,192,51802,128,0,51972:0:0:0:0:
320,192,51887,1,2,0:0:0:0:
192,192,51972,1,2,0:0:0:0:
320,192,52057,1,2,0:0:0:0:
64,192,52143,1,4,0:0:0:0:
448,192,52143,128,2,52484:0:0:0:0:
192,192,52143,1,0,0:0:0:0:
64,192,52398,1,2,0:0:0:0:
320,192,52484,1,0,0:0:0:0:
192,192,52484,1,2,0:0:0:0:
320,192,52654,128,0,52825:0:0:0:0:
64,192,52654,1,2,0:0:0:0:
192,192,52654,1,4,0:0:0:0:
192,192,52995,128,0,53165:0:0:0:0:
320,192,52995,1,2,0:0:0:0:
448,192,52995,1,4,0:0:0:0:
192,192,53336,1,2,0:0:0:0:
320,192,53336,1,4,0:0:0:0:
64,192,53336,128,0,54870:0:0:0:0:
448,192,53677,1,2,0:0:0:0:
320,192,53677,1,0,0:0:0:0:
192,192,53847,1,8,0:0:0:0:
320,192,53847,1,0,0:0:0:0:
448,192,53847,1,2,0:0:0:0:
192,192,54188,1,2,0:0:0:0:
192,192,54529,1,0,0:0:0:0:
448,192,54529,1,2,0:0:0:0:
192,192,54700,1,0,0:0:0:0:
320,192,54700,1,2,0:0:0:0:
448,192,54870,1,0,0:0:0:0:
320,192,54870,1,2,0:0:0:0:
320,192,54870,1,0,0:0:0:0:
192,192,54984,1,0,0:0:0:0:
64,192,54984,1,0,0:0:0:0:
192,192,55097,5,0,0:0:0:0:
320,192,55097,1,2,0:0:0:0:
320,192,55211,1,0,0:0:0:0:
448,192,55211,1,2,0:0:0:0:
192,192,55325,1,2,0:0:0:0:
64,192,55325,1,0,0:0:0:0:
192,192,55438,1,0,0:0:0:0:
320,192,55438,1,2,0:0:0:0:
448,192,55552,1,2,0:0:0:0:
320,192,55552,1,0,0:0:0:0:
320,192,56234,5,2,0:0:0:0:
448,192,56234,1,4,0:0:0:0:
192,192,56234,1,0,0:0:0:0:
64,192,56234,128,0,58109:0:0:0:0:
192,192,56404,1,0,0:0:0:0:
192,192,56575,1,0,0:0:0:0:
448,192,56575,1,8,0:0:0:0:
320,192,56575,1,2,0:0:0:0:
448,192,56745,1,0,0:0:0:0:
192,192,56915,1,0,0:0:0:0:
320,192,56915,1,2,0:0:0:0:
448,192,57086,1,0,0:0:0:0:
320,192,57086,1,2,0:0:0:0:
448,192,57256,1,0,0:0:0:0:
192,192,57256,1,8,0:0:0:0:
320,192,57256,1,2,0:0:0:0:
320,192,57427,1,2,0:0:0:0:
192,192,57427,1,0,0:0:0:0:
448,192,57597,1,0,0:0:0:0:
192,192,57768,1,0,0:0:0:0:
448,192,57768,1,2,0:0:0:0:
448,192,57938,1,0,0:0:0:0:
192,192,57938,1,2,0:0:0:0:
320,192,57938,1,8,0:0:0:0:
320,192,58109,1,2,0:0:0:0:
448,192,58109,128,0,58279:0:0:0:0:
64,192,58279,128,0,58450:0:0:0:0:
192,192,58279,1,2,0:0:0:0:
192,192,58450,128,0,58620:0:0:0:0:
320,192,58450,1,2,0:0:0:0:
320,192,58620,128,0,58790:0:0:0:0:
448,192,58620,1,2,0:0:0:0:
64,192,58620,1,8,0:0:0:0:
448,192,58790,128,0,58961:0:0:0:0:
192,192,58790,1,2,0:0:0:0:
64,192,58961,1,2,0:0:0:0:
320,192,58961,1,4,0:0:0:0:
192,192,58961,128,0,60836:0:0:0:0:
320,192,59131,1,0,0:0:0:0:
448,192,59302,1,2,0:0:0:0:
320,192,59302,1,0,0:0:0:0:
64,192,59302,1,8,0:0:0:0:
448,192,59472,1,0,0:0:0:0:
64,192,59643,1,0,0:0:0:0:
320,192,59643,1,2,0:0:0:0:
320,192,59813,1,2,0:0:0:0:
448,192,59813,1,0,0:0:0:0:
320,192,59984,1,2,0:0:0:0:
448,192,59984,1,8,0:0:0:0:
64,192,59984,1,0,0:0:0:0:
448,192,60154,1,0,0:0:0:0:
64,192,60154,1,2,0:0:0:0:
320,192,60325,1,0,0:0:0:0:
320,192,60495,1,0,0:0:0:0:
64,192,60495,1,2,0:0:0:0:
64,192,60665,1,0,0:0:0:0:
320,192,60665,1,8,0:0:0:0:
448,192,60665,1,2,0:0:0:0:
448,192,60836,1,2,0:0:0:0:
64,192,60836,128,0,61006:0:0:0:0:
448,192,61006,128,0,61177:0:0:0:0:
320,192,61006,1,2,0:0:0:0:
320,192,61177,128,0,61347:0:0:0:0:
192,192,61177,1,2,0:0:0:0:
192,192,61347,128,0,61518:0:0:0:0:
64,192,61347,1,2,0:0:0:0:
448,192,61347,1,8,0:0:0:0:
64,192,61518,128,0,61688:0:0:0:0:
320,192,61518,1,2,0:0:0:0:
192,192,61688,1,2,0:0:0:0:
320,192,61688,128,4,63563:0:0:0:0:
64,192,61859,1,2,0:0:0:0:
448,192,62029,1,8,0:0:0:0:
64,192,62029,1,0,0:0:0:0:
192,192,62029,1,2,0:0:0:0:
448,192,62200,1,0,0:0:0:0:
448,192,62370,1,0,0:0:0:0:
192,192,62370,1,2,0:0:0:0:
64,192,62540,1,2,0:0:0:0:
192,192,62540,1,0,0:0:0:0:
192,192,62711,1,0,0:0:0:0:
448,192,62711,1,8,0:0:0:0:
64,192,62711,1,2,0:0:0:0:
192,192,62881,1,2,0:0:0:0:
448,192,62881,1,0,0:0:0:0:
64,192,63052,1,0,0:0:0:0:
448,192,63222,1,0,0:0:0:0:
192,192,63222,1,2,0:0:0:0:
192,192,63393,1,0,0:0:0:0:
64,192,63393,1,2,0:0:0:0:
448,192,63393,1,8,0:0:0:0:
192,192,63563,128,0,63734:0:0:0:0:
64,192,63563,1,2,0:0:0:0:
448,192,63734,1,2,0:0:0:0:
320,192,63734,128,0,63904:0:0:0:0:
448,192,63904,128,0,64075:0:0:0:0:
64,192,63904,1,2,0:0:0:0:
64,192,64075,128,0,64245:0:0:0:0:
192,192,64075,1,8,0:0:0:0:
320,192,64075,1,2,0:0:0:0:
192,192,64245,128,0,64415:0:0:0:0:
320,192,64245,1,2,0:0:0:0:
64,192,64415,1,2,0:0:0:0:
448,192,64415,128,0,65609:0:0:0:0:
320,192,64586,1,0,0:0:0:0:
64,192,64756,1,0,0:0:0:0:
192,192,64756,1,2,0:0:0:0:
320,192,64756,1,8,0:0:0:0:
64,192,64927,1,0,0:0:0:0:
192,192,65097,1,2,0:0:0:0:
64,192,65097,1,0,0:0:0:0:
192,192,65268,1,2,0:0:0:0:
320,192,65268,1,0,0:0:0:0:
64,192,65438,1,0,0:0:0:0:
192,192,65438,1,2,0:0:0:0:
320,192,65438,1,8,0:0:0:0:
320,192,65609,1,2,0:0:0:0:
64,192,65609,128,4,65950:0:0:0:0:
320,192,65950,128,0,66120:0:0:0:0:
448,192,65950,1,2,0:0:0:0:
192,192,65950,1,8,0:0:0:0:
192,192,66120,128,0,66290:0:0:0:0:
64,192,66120,1,8,0:0:0:0:
448,192,66120,1,2,0:0:0:0:
64,192,66290,128,0,66461:0:0:0:0:
320,192,66290,1,2,0:0:0:0:
448,192,66461,128,0,66631:0:0:0:0:
320,192,66461,1,8,0:0:0:0:
192,192,66461,1,2,0:0:0:0:
320,192,66631,128,0,66802:0:0:0:0:
192,192,66631,1,2,0:0:0:0:
192,192,66802,128,0,66972:0:0:0:0:
448,192,66802,1,8,0:0:0:0:
64,192,66802,1,2,0:0:0:0:
64,192,66972,128,0,67143:0:0:0:0:
320,192,66972,1,2,0:0:0:0:
192,192,67143,1,2,0:0:0:0:
320,192,67143,1,4,0:0:0:0:
448,192,67143,128,0,68336:0:0:0:0:
64,192,67313,1,0,0:0:0:0:
64,192,67484,1,2,0:0:0:0:
320,192,67484,1,0,0:0:0:0:
192,192,67484,1,8,0:0:0:0:
320,192,67654,1,0,0:0:0:0:
192,192,67825,1,0,0:0:0:0:
64,192,67825,1,2,0:0:0:0:
192,192,67995,1,2,0:0:0:0:
320,192,67995,1,0,0:0:0:0:
64,192,68165,1,8,0:0:0:0:
192,192,68165,1,0,0:0:0:0:
320,192,68165,1,2,0:0:0:0:
192,192,68336,128,0,69188:0:0:0:0:
64,192,68336,1,4,0:0:0:0:
320,192,68336,1,2,0:0:0:0:
448,192,68506,1,0,0:0:0:0:
64,192,68677,1,0,0:0:0:0:
320,192,68677,1,2,0:0:0:0:
64,192,68847,1,0,0:0:0:0:
320,192,68847,1,2,0:0:0:0:
448,192,68847,1,8,0:0:0:0:
448,192,69018,1,0,0:0:0:0:
64,192,69188,128,0,69870:0:0:0:0:
320,192,69188,1,2,0:0:0:0:
192,192,69359,1,0,0:0:0:0:
448,192,69359,1,2,0:0:0:0:
448,192,69529,1,2,0:0:0:0:
320,192,69529,1,8,0:0:0:0:
192,192,69529,1,0,0:0:0:0:
320,192,69700,1,0,0:0:0:0:
192,192,69700,1,2,0:0:0:0:
320,192,69870,128,0,70893:0:0:0:0:
192,192,69870,1,2,0:0:0:0:
448,192,69870,1,4,0:0:0:0:
64,192,70040,1,0,0:0:0:0:
192,192,70211,1,0,0:0:0:0:
448,192,70211,1,8,0:0:0:0:
64,192,70211,1,2,0:0:0:0:
192,192,70381,1,0,0:0:0:0:
448,192,70552,1,0,0:0:0:0:
64,192,70552,1,2,0:0:0:0:
192,192,70722,1,2,0:0:0:0:
448,192,70722,1,0,0:0:0:0:
448,192,70893,1,2,0:0:0:0:
192,192,70893,1,0,0:0:0:0:
64,192,70893,1,8,0:0:0:0:
64,192,71063,1,2,0:0:0:0:
448,192,71063,1,0,0:0:0:0:
320,192,71063,1,4,0:0:0:0:
192,192,71063,128,0,71575:0:0:0:0:
320,192,71234,1,0,0:0:0:0:
448,192,71404,1,2,0:0:0:0:
64,192,71404,1,0,0:0:0:0:
64,192,71575,128,0,71915:0:0:0:0:
320,192,71575,1,2,0:0:0:0:
448,192,71575,1,8,0:0:0:0:
192,192,71745,1,0,0:0:0:0:
320,192,71915,128,0,72597:0:0:0:0:
448,192,71915,1,2,0:0:0:0:
64,192,72086,1,0,0:0:0:0:
192,192,72086,1,2,0:0:0:0:
64,192,72256,1,2,0:0:0:0:
192,192,72256,1,0,0:0:0:0:
448,192,72256,1,8,0:0:0:0:
64,192,72427,1,2,0:0:0:0:
192,192,72512,1,2,0:0:0:0:
64,192,72597,1,2,0:0:0:0:
448,192,72597,128,0,73620:0:0:0:0:
320,192,72768,1,0,0:0:0:0:
192,192,72938,1,8,0:0:0:0:
64,192,72938,1,0,0:0:0:0:
320,192,72938,1,2,0:0:0:0:
64,192,73109,1,0,0:0:0:0:
192,192,73279,1,0,0:0:0:0:
320,192,73279,1,2,0:0:0:0:
64,192,73450,1,0,0:0:0:0:
192,192,73450,1,2,0:0:0:0:
64,192,73620,1,2,0:0:0:0:
320,192,73620,1,0,0:0:0:0:
192,192,73620,1,8,0:0:0:0:
320,192,73790,1,2,0:0:0:0:
448,192,73790,1,4,0:0:0:0:
64,192,73790,1,0,0:0:0:0:
192,192,73961,1,0,0:0:0:0:
320,192,74131,1,2,0:0:0:0:
448,192,74131,1,0,0:0:0:0:
448,192,74302,1,0,0:0:0:0:
192,192,74302,1,2,0:0:0:0:
64,192,74302,1,8,0:0:0:0:
320,192,74472,1,0,0:0:0:0:
64,192,74643,1,2,0:0:0:0:
192,192,74643,1,0,0:0:0:0:
192,192,74813,1,2,0:0:0:0:
320,192,74813,1,0,0:0:0:0:
448,192,74984,1,8,0:0:0:0:
64,192,74984,1,0,0:0:0:0:
320,192,74984,1,2,0:0:0:0:
192,192,75154,1,2,0:0:0:0:
320,192,75154,1,0,0:0:0:0:
64,192,75325,128,0,76347:0:0:0:0:
448,192,75325,1,2,0:0:0:0:
320,192,75495,1,0,0:0:0:0:
192,192,75665,1,0,0:0:0:0:
320,192,75665,1,2,0:0:0:0:
448,192,75665,1,8,0:0:0:0:
192,192,75836,1,0,0:0:0:0:
448,192,76006,1,0,0:0:0:0:
320,192,76006,1,2,0:0:0:0:
192,192,76177,1,2,0:0:0:0:
320,192,76177,1,0,0:0:0:0:
448,192,76347,1,0,0:0:0:0:
320,192,76347,1,8,0:0:0:0:
192,192,76347,1,2,0:0:0:0:
448,192,76518,128,0,76859:0:0:0:0:
192,192,76518,1,2,0:0:0:0:
64,192,76518,1,4,0:0:0:0:
320,192,76688,1,2,0:0:0:0:
320,192,76859,128,0,77029:0:0:0:0:
192,192,76859,1,2,0:0:0:0:
192,192,77029,128,0,77200:0:0:0:0:
64,192,77029,1,2,0:0:0:0:
64,192,77200,128,0,77370:0:0:0:0:
320,192,77200,1,2,0:0:0:0:
448,192,77370,1,2,0:0:0:0:
192,192,77370,1,8,0:0:0:0:
320,192,77540,1,2,0:0:0:0:
64,192,77540,1,0,0:0:0:0:
448,192,77711,1,2,0:0:0:0:
192,192,77711,1,0,0:0:0:0:
320,192,77881,5,2,0:0:0:0:
448,192,77881,1,8,0:0:0:0:
64,192,77967,5,8,0:0:0:0:
192,192,77967,1,2,0:0:0:0:
64,192,78052,5,0,0:0:0:0:
320,192,78052,1,2,0:0:0:0:
448,192,78052,1,4,0:0:0:0:
320,192,78222,1,0,0:0:0:0:
64,192,78393,1,2,0:0:0:0:
192,192,78393,1,8,0:0:0:0:
448,192,78393,1,0,0:0:0:0:
192,192,78563,1,2,0:0:0:0:
320,192,78563,1,0,0:0:0:0:
64,192,78734,1,0,0:0:0:0:
448,192,78904,1,0,0:0:0:0:
320,192,78904,1,2,0:0:0:0:
64,192,79075,1,8,0:0:0:0:
192,192,79075,1,2,0:0:0:0:
448,192,79075,1,0,0:0:0:0:
320,192,79245,1,0,0:0:0:0:
448,192,79415,1,0,0:0:0:0:
64,192,79415,1,2,0:0:0:0:
192,192,79586,1,0,0:0:0:0:
64,192,79756,1,2,0:0:0:0:
320,192,79756,1,8,0:0:0:0:
448,192,79756,1,0,0:0:0:0:
192,192,79927,1,0,0:0:0:0:
320,192,80097,1,0,0:0:0:0:
448,192,80268,1,0,0:0:0:0:
192,192,80268,1,2,0:0:0:0:
320,192,80438,1,8,0:0:0:0:
448,192,80438,1,0,0:0:0:0:
64,192,80438,1,2,0:0:0:0:
64,192,80609,1,0,0:0:0:0:
448,192,80779,128,0,81120:0:0:0:0:
320,192,80779,1,2,0:0:0:0:
192,192,80950,1,0,0:0:0:0:
64,192,81120,128,0,81461:0:0:0:0:
192,192,81120,1,8,0:0:0:0:
320,192,81120,1,2,0:0:0:0:
448,192,81290,1,0,0:0:0:0:
192,192,81461,128,0,81802:0:0:0:0:
320,192,81461,1,0,0:0:0:0:
64,192,81631,1,0,0:0:0:0:
448,192,81631,1,2,0:0:0:0:
320,192,81802,128,0,82143:0:0:0:0:
64,192,81802,1,8,0:0:0:0:
448,192,81802,1,2,0:0:0:0:
192,192,81972,1,0,0:0:0:0:
448,192,82143,128,0,83165:0:0:0:0:
64,192,82143,1,2,0:0:0:0:
320,192,82313,1,0,0:0:0:0:
320,192,82484,1,2,0:0:0:0:
64,192,82484,1,0,0:0:0:0:
192,192,82484,1,8,0:0:0:0:
64,192,82654,1,0,0:0:0:0:
192,192,82825,1,0,0:0:0:0:
64,192,82995,1,0,0:0:0:0:
320,192,82995,1,2,0:0:0:0:
192,192,83165,1,8,0:0:0:0:
64,192,83165,1,0,0:0:0:0:
320,192,83165,1,2,0:0:0:0:
448,192,83336,1,0,0:0:0:0:
320,192,83506,1,2,0:0:0:0:
64,192,83506,128,0,84870:0:0:0:0:
192,192,83677,1,0,0:0:0:0:
192,192,83847,1,0,0:0:0:0:
448,192,83847,1,8,0:0:0:0:
320,192,83847,1,2,0:0:0:0:
448,192,84018,1,0,0:0:0:0:
448,192,84188,1,2,0:0:0:0:
192,192,84188,1,0,0:0:0:0:
320,192,84359,1,0,0:0:0:0:
192,192,84529,1,0,0:0:0:0:
448,192,84529,1,2,0:0:0:0:
320,192,84529,1,8,0:0:0:0:
448,192,84700,1,0,0:0:0:0:
192,192,84700,1,2,0:0:0:0:
192,192,84870,1,4,0:0:0:0:
448,192,84870,1,8,0:0:0:0:
320,192,84870,1,2,0:0:0:0:
64,192,85040,1,0,0:0:0:0:
192,192,85040,1,2,0:0:0:0:
320,192,85040,1,4,0:0:0:0:
448,192,85040,1,8,0:0:0:0:
64,192,85211,1,0,0:0:0:0:
192,192,85211,1,2,0:0:0:0:
320,192,85211,1,4,0:0:0:0:
448,192,85211,1,8,0:0:0:0:
448,192,86234,128,0,86404:0:0:0:0:
320,192,86404,1,2,0:0:0:0:
192,192,86404,1,0,0:0:0:0:
64,192,86404,1,4,0:0:0:0:
320,192,86745,128,0,86915:0:0:0:0:
192,192,86915,1,0,0:0:0:0:
64,192,86915,1,4,0:0:0:0:
448,192,86915,1,2,0:0:0:0:
192,192,87256,128,0,87427:0:0:0:0:
64,192,87427,1,4,0:0:0:0:
320,192,87427,1,0,0:0:0:0:
448,192,87427,1,2,0:0:0:0:
64,192,87768,1,4,0:0:0:0:
192,192,87768,1,0,0:0:0:0:
320,192,87768,1,0,0:0:0:0:
448,192,87768,1,2,0:0:0:0:
64,192,87938,1,4,0:0:0:0:
192,192,87938,1,0,0:0:0:0:
320,192,87938,1,0,0:0:0:0:
448,192,87938,1,2,0:0:0:0:
