osu file format v14

[General]
AudioFilename: Yuu.mp3
AudioLeadIn: 1900
PreviewTime: 64689
Countdown: 0
SampleSet: Soft
StackLeniency: 0.7
Mode: 0
LetterboxInBreaks: 0
WidescreenStoryboard: 0

[Editor]
DistanceSpacing: 0.9
BeatDivisor: 2
GridSize: 4
TimelineZoom: 1.4

[Metadata]
Title:Ma.Ka.Se.Te Tonight ~TV SIZE EDIT
TitleUnicode:魔・カ・セ・テ Tonight ~TV SIZE EDIT
Artist:Iori Nomizu
ArtistUnicode:野水いおり
Creator:Gaia
Version:Normal
Source:これはゾンビですか?
Tags:ashemu makasete 伊織 Koreha Zombie Desuka? Kore wa desu ka of the Dead opening op
BeatmapID:567599
BeatmapSetID:244026

[Difficulty]
HPDrainRate:4
CircleSize:3.5
OverallDifficulty:4
ApproachRate:6
SliderMultiplier:1.1
SliderTickRate:1

[Events]
//Background and Video events
Video,-8,"video.avi"
0,0,"EUUUUUU.jpg",0,0
//Break Periods
//Storyboard Layer 0 (Background)
//Storyboard Layer 1 (Fail)
//Storyboard Layer 2 (Pass)
//Storyboard Layer 3 (Foreground)
//Storyboard Sound Samples

[TimingPoints]
131,331.491712707182,4,2,1,40,1,0
5103,-100,4,2,1,60,0,0
5434,-100,4,2,1,70,0,0
16042,-100,4,2,1,60,0,0
26981,-100,4,2,1,50,0,0
31125,-100,4,2,1,60,0,0
42893,-100,4,2,1,50,0,0
47202,-100,4,2,1,60,0,0
47865,-100,4,2,1,50,0,0
58473,-100,4,2,1,40,0,0
61125,-100,4,2,1,50,0,0
63611,-100,4,2,1,80,0,0
64771,-100,4,2,1,40,0,0
65434,-100,4,2,1,70,0,0
65766,331.491712707182,4,2,1,70,1,0
87644,-100,4,2,1,60,0,0
88307,-100,4,2,1,70,0,0

[Colours]
Combo1 : 188,235,232
Combo2 : 135,61,235
Combo3 : 242,72,225
Combo4 : 242,24,57
Combo5 : 255,138,21

[HitObjects]
76,176,131,5,2,0:0:0:0:
76,176,296,2,0,L|208:160,1,110,2|2,0:0|0:0,0:0:0:0:
248,84,959,2,0,L|304:96,1,55,2|2,0:0|0:0,0:0:0:0:
344,120,1291,2,0,P|380:168|364:240,1,110,2|2,0:0|0:0,0:0:0:0:
348,312,1954,1,2,0:0:0:0:
348,312,2119,2,0,L|468:300,2,110,2|2|2,0:0|0:0|0:0,0:0:0:0:
304,336,2948,6,0,P|248:356|172:332,1,110,2|2,0:0|0:0,0:0:0:0:
124,284,3611,2,0,P|121:257|128:224,1,55,2|2,0:0|0:0,0:0:0:0:
152,188,3943,2,0,L|136:52,1,110,2|2,0:0|0:0,0:0:0:0:
220,24,4606,1,2,0:0:0:0:
220,24,4771,2,0,P|283:36|352:44,1,110,2|2,0:0|3:2,0:0:0:0:
376,128,5434,6,0,L|496:108,1,110,6|8,3:2|0:0,0:0:0:0:
476,208,6097,2,0,L|367:226,1,110,2|8,0:0|0:0,0:0:0:0:
320,216,6595,2,0,P|340:276|328:328,1,110,2|0,3:2|3:2,0:0:0:0:
288,344,7092,1,8,0:0:0:0:
192,328,7423,2,0,P|156:341|132:352,2,55,2|2|8,3:2|3:2|0:0,0:0:0:0:
140,244,8086,6,0,L|4:232,1,110,2|8,3:2|0:0,0:0:0:0:
4,140,8749,2,0,P|4:112|20:76,1,55,2|2,3:2|3:2,0:0:0:0:
52,56,9081,1,8,0:0:0:0:
52,56,9247,2,0,L|188:44,1,110,2|2,3:2|3:2,0:0:0:0:
200,76,9744,2,0,P|252:92|316:92,1,110,8|2,0:0|3:2,0:0:0:0:
352,76,10241,2,0,P|361:53|360:4,1,55,2|8,3:2|0:0,0:0:0:0:
460,40,10738,6,0,P|474:98|480:164,1,110,2|8,3:2|0:0,0:0:0:0:
396,204,11401,2,0,P|392:276|384:336,1,110,2|8,3:2|0:0,0:0:0:0:
348,340,11898,2,0,P|272:352|236:296,1,110,2|0,3:2|3:2,0:0:0:0:
236,288,12396,1,8,0:0:0:0:
284,200,12727,2,0,P|279:172|264:128,2,55,2|2|8,3:2|3:2|0:0,0:0:0:0:
184,200,13390,6,0,P|127:217|32:236,1,110,2|8,3:2|0:0,0:0:0:0:
24,312,14053,2,0,P|19:339|4:384,2,55,2|2|8,3:2|3:2|0:0,0:0:0:0:
60,220,14716,2,0,L|44:84,1,110,8|8,3:3|0:0,0:0:0:0:
72,68,15213,1,8,0:3:0:0:
72,68,15379,2,0,P|99:50|144:44,1,55,8|8,0:0|0:0,0:0:0:0:
168,64,15711,2,0,P|197:73|240:76,1,55,8|8,0:0|0:0,0:0:0:0:
272,76,16042,6,0,P|321:63|384:56,1,110,6|10,3:2|0:0,0:0:0:0:
464,112,16705,1,0,3:2:0:0:
464,112,16871,2,0,P|459:139|448:172,1,55,2|8,0:2|0:0,0:0:0:0:
416,200,17202,2,0,L|432:328,1,110,2|0,3:2|3:2,0:0:0:0:
412,356,17700,2,0,P|340:356|312:300,1,110,8|0,0:0|3:2,0:0:0:0:
268,248,18363,1,8,0:0:0:0:
172,224,18694,6,0,P|118:241|53:233,2,110,2|10|0,3:2|0:0|3:2,0:0:0:0:
204,188,19523,2,0,P|212:156|204:116,1,55,2|8,3:2|0:0,0:0:0:0:
172,100,19854,2,0,L|300:72,1,110,2|2,3:2|3:2,0:0:0:0:
328,88,20351,1,8,0:0:0:0:
416,132,20683,2,0,P|428:164|424:208,1,55,0|2,3:2|3:2,0:0:0:0:
404,228,21014,2,0,P|392:260|396:304,1,55,10|2,0:0|3:2,0:0:0:0:
416,324,21346,6,0,L|288:336,1,110,2|10,3:2|0:0,0:0:0:0:
216,372,22009,1,0,3:0:0:0:
216,372,22175,2,0,P|189:368|152:356,1,55,2|8,0:2|0:0,0:0:0:0:
132,320,22506,2,0,L|140:188,1,110,2|2,3:2|3:2,0:0:0:0:
144,160,23003,1,8,0:0:0:0:
84,80,23335,2,0,L|28:100,2,55,0|2|10,3:2|3:2|0:0,0:0:0:0:
164,20,23998,5,2,3:2:0:0:
260,52,24329,1,10,0:0:0:0:
352,88,24661,2,0,P|376:76|416:68,2,55,2|2|8,3:2|3:2|0:0,0:0:0:0:
340,136,25158,1,2,3:2:0:0:
340,136,25324,2,0,P|347:186|356:252,1,110,8|8,3:3|0:0,0:0:0:0:
332,340,25987,2,0,P|298:355|248:372,1,55,8|10,0:0|0:0,0:0:0:0:
232,352,26318,2,0,P|202:349|168:340,1,55,8|10,0:0|0:0,0:0:0:0:
148,304,26650,5,6,3:2:0:0:
92,224,26981,2,0,B|88:158|80:112|80:112|140:68,1,165,10|2,0:1|3:1,0:0:0:0:
168,60,27644,1,8,0:0:0:0:
264,36,27976,2,0,P|318:41|372:51,1,110,2|8,0:1|0:0,0:0:0:0:
448,120,28639,2,0,P|390:131|316:136,1,110,0|8,3:2|0:0,0:0:0:0:
256,192,29302,5,0,3:2:0:0:
340,248,29633,2,0,B|352:352|352:352|328:376|292:388,1,165,10|2,0:1|3:1,0:0:0:0:
252,376,30296,1,8,0:0:0:0:
180,304,30628,2,0,L|168:224,1,55,2|0,3:1|3:2,0:0:0:0:
136,212,30959,1,8,0:0:0:0:
136,212,31125,2,0,P|104:203|68:200,2,55,8|8|8,0:0|0:0|0:0,0:0:0:0:
164,172,31622,2,0,L|236:156,1,55,8|8,0:0|0:0,0:0:0:0:
252,124,31954,6,0,L|359:146,1,110,6|10,3:2|0:0,0:0:0:0:
456,176,32617,1,0,3:0:0:0:
456,176,32782,2,0,P|472:200|476:256,1,55,2|8,0:2|0:0,0:0:0:0:
464,272,33114,2,0,L|340:288,1,110,2|0,3:2|3:2,0:0:0:0:
308,296,33611,1,8,0:0:0:0:
220,340,33943,2,0,P|167:333|96:316,1,110,0|8,3:2|0:0,0:0:0:0:
52,240,34606,6,0,P|40:176|80:140,1,110,2|10,3:2|0:0,0:0:0:0:
108,56,35269,1,0,3:0:0:0:
108,56,35434,2,0,L|172:72,1,55,2|8,0:2|0:2,0:0:0:0:
204,92,35766,2,0,P|251:74|320:68,1,110,2|2,3:2|3:2,0:0:0:0:
356,80,36263,1,8,0:0:0:0:
440,132,36595,2,0,L|432:204,1,55,10|10,0:0|0:0,0:0:0:0:
400,224,36926,2,0,L|416:292,1,55,2|10,3:2|0:0,0:0:0:0:
420,328,37258,5,0,3:2:0:0:
336,380,37589,2,0,P|264:372|228:332,1,110,14|0,0:0|3:2,0:0:0:0:
220,300,38086,2,0,L|232:232,1,55,2|8,0:0|0:0,0:0:0:0:
228,196,38418,2,0,L|112:212,1,110,2|2,3:2|3:2,0:0:0:0:
72,196,38915,1,8,0:0:0:0:
36,104,39247,1,0,3:2:0:0:
108,36,39578,1,10,0:0:0:0:
204,60,39910,6,0,P|261:71|344:80,1,110,2|10,3:2|0:0,0:0:0:0:
408,60,40572,1,0,3:0:0:0:
408,60,40738,2,0,P|405:92|396:148,1,55,2|8,0:2|0:2,0:0:0:0:
376,156,41070,2,0,L|392:280,1,110,2|2,3:2|3:2,0:0:0:0:
400,312,41567,1,8,0:0:0:0:
308,348,41898,2,0,L|252:332,1,55,8|8,0:3|0:3,0:0:0:0:
208,316,42230,2,0,L|140:332,1,55,8|8,0:3|0:3,0:0:0:0:
108,340,42561,5,6,3:2:0:0:
40,268,42893,2,0,B|24:160|24:160|46:157|80:144,1,165,10|2,0:1|3:1,0:0:0:0:
128,136,43556,1,8,0:0:0:0:
208,192,43887,2,0,P|236:240|216:308,1,110,2|8,0:1|0:0,0:0:0:0:
308,348,44550,2,0,P|335:299|404:283,1,110,0|8,3:2|0:0,0:0:0:0:
480,252,45213,5,0,3:2:0:0:
428,168,45545,2,0,P|328:172|280:100,1,165,10|2,0:1|3:1,0:0:0:0:
292,80,46208,1,8,0:0:0:0:
216,16,46539,2,0,P|156:36|96:48,1,110,2|8,3:1|0:0,0:0:0:0:
56,128,47202,2,0,P|73:188|80:236,1,110,8|8,0:0|0:3,0:0:0:0:
52,332,47865,6,0,B|96:334|132:320|132:320|160:368|160:368|197:352|260:352,1,220,4|8,3:2|0:0,0:0:0:0:
336,376,48860,1,2,0:0:0:0:
336,376,49026,2,0,P|360:340|332:260,1,110,8|8,0:0|0:0,0:0:0:0:
316,240,49523,2,0,P|292:204|320:124,1,110,0|10,3:2|0:0,0:0:0:0:
360,60,50186,2,0,L|280:40,1,55,2|10,0:0|0:0,0:0:0:0:
264,24,50517,6,0,P|208:33|144:48,1,110,2|0,3:2|3:2,0:0:0:0:
64,76,51180,1,10,0:0:0:0:
64,76,51346,2,0,P|52:136|88:200,1,110,0|8,3:2|0:0,0:0:0:0:
124,260,52009,2,0,B|184:260|236:276|236:276|244:257|280:212,1,165,8|8,0:0|0:0,0:0:0:0:
302,141,52838,2,0,P|290:110|282:61,1,55,8|8,0:0|0:0,0:0:0:0:
306,46,53169,6,0,B|366:-2|462:31|462:31|438:114,1,220,2|8,3:2|0:0,0:0:0:0:
425,181,54164,1,2,0:0:0:0:
425,181,54329,2,0,P|435:231|445:301,1,110,8|8,0:0|0:0,0:0:0:0:
429,337,54827,2,0,P|365:361|317:333,1,110,0|8,3:2|0:0,0:0:0:0:
252,284,55490,2,0,P|217:288|180:312,1,55,2|8,0:0|0:0,0:0:0:0:
168,336,55821,6,0,B|40:316,1,110,0|0,3:2|3:2,0:0:0:0:
16,232,56484,1,8,0:0:0:0:
16,232,56650,2,0,P|4:164|60:128,1,110,0|8,3:2|0:0,0:0:0:0:
108,80,57313,2,0,B|168:72|204:104|204:104|210:69|236:40,1,165,8|8,0:0|0:0,0:0:0:0:
296,120,58142,2,0,P|308:152|308:208,1,55,8|8,0:0|0:0,0:0:0:0:
292,220,58473,5,0,3:2:0:0:
256,192,58639,12,0,61125,3:2:0:0:
256,192,61291,12,4,63611,3:0:0:0:
328,152,64771,6,0,P|385:140|448:132,2,110,2|2|4,0:0|0:0|3:0,0:0:0:0:
256,220,65766,6,0,P|280:272|268:352,1,110,6|8,3:1|0:0,0:0:0:0:
248,360,66263,2,0,L|120:340,1,110,2|2,0:1|3:1,0:0:0:0:
104,308,66760,1,8,0:0:0:0:
104,308,66926,2,0,P|80:256|92:176,1,110,2|0,3:1|0:0,0:0:0:0:
108,164,67423,1,10,0:1:0:0:
176,96,67754,2,0,L|284:112,1,110,2|10,3:1|0:1,0:0:0:0:
364,52,68417,6,0,P|388:100|368:164,1,110,2|10,3:1|0:0,0:0:0:0:
344,192,68915,2,0,P|320:240|340:304,1,110,2|2,0:1|3:1,0:0:0:0:
368,328,69412,1,8,0:0:0:0:
368,328,69578,2,0,P|321:338|228:348,1,110,2|2,3:1|3:1,0:0:0:0:
212,328,70075,1,8,0:0:0:0:
140,260,70406,2,0,P|131:214|124:140,1,110,2|10,3:1|0:1,0:0:0:0:
140,52,71069,6,0,P|160:36|200:28,1,55,2|2,3:1|0:2,0:0:0:0:
236,40,71401,1,8,0:0:0:0:
236,40,71567,2,0,L|360:56,1,110,2|2,0:1|3:1,0:0:0:0:
392,64,72064,1,8,0:0:0:0:
464,132,72395,2,0,P|452:196|452:252,1,110,2|8,3:1|0:0,0:0:0:0:
424,284,72893,2,0,L|314:298,1,110,2|2,0:1|3:1,0:0:0:0:
264,304,73390,1,8,0:0:0:0:
188,240,73721,6,0,L|76:228,1,110,2|8,3:1|0:0,0:0:0:0:
48,188,74219,1,2,0:1:0:0:
48,188,74384,2,0,P|41:164|40:112,1,55,0|2,3:2|3:1,0:0:0:0:
64,88,74716,1,8,0:0:0:0:
64,88,74882,2,0,L|176:76,1,110,6|8,3:1|0:0,0:0:0:0:
224,72,75379,1,8,0:0:0:0:
296,4,75710,2,0,L|360:16,1,55,10|8,0:1|0:0,0:0:0:0:
372,60,76042,2,0,L|440:48,1,55,10|8,0:1|0:0,0:0:0:0:
472,64,76373,6,0,P|504:108|476:180,1,110,6|8,3:1|0:0,0:0:0:0:
464,196,76870,2,0,L|480:316,1,110,2|2,0:1|3:1,0:0:0:0:
448,344,77368,1,8,0:0:0:0:
448,344,77533,2,0,P|400:340|312:312,1,110,2|0,3:1|0:0,0:0:0:0:
300,292,78031,1,10,0:1:0:0:
200,292,78362,2,0,P|147:306|92:311,1,110,2|10,3:1|0:1,0:0:0:0:
28,236,79025,6,0,L|16:120,1,110,2|10,3:1|0:0,0:0:0:0:
12,76,79522,2,0,P|60:40|128:64,1,110,2|2,0:1|3:1,0:0:0:0:
144,80,80020,1,8,0:0:0:0:
144,80,80185,2,0,L|155:189,1,110,2|2,3:1|3:1,0:0:0:0:
164,240,80683,1,8,0:0:0:0:
240,300,81014,2,0,P|280:288|308:264,1,55,2|2,3:1|3:2,0:0:0:0:
324,244,81346,1,10,0:1:0:0:
328,144,81677,6,0,P|303:130|277:124,1,55,2|2,3:1|0:2,0:0:0:0:
236,100,82009,1,8,0:0:0:0:
236,100,82174,2,0,P|181:111|112:120,1,110,2|2,0:1|3:1,0:0:0:0:
80,124,82672,1,8,0:0:0:0:
80,124,82837,2,0,P|40:180|64:228,1,110,6|2,3:1|3:2,0:0:0:0:
88,248,83335,2,0,P|100:277|104:324,1,55,8|2,0:0|0:1,0:0:0:0:
192,348,83832,2,0,P|197:321|208:295,1,55,2|8,3:1|0:0,0:0:0:0:
252,276,84163,6,0,L|388:260,1,110,6|2,3:1|3:2,0:0:0:0:
412,256,84661,1,8,0:0:0:0:
472,176,84992,2,0,P|466:147|452:112,1,55,0|2,3:2|3:1,0:0:0:0:
420,88,85324,1,8,0:0:0:0:
420,88,85489,2,0,P|356:96|304:56,1,110,6|2,3:1|3:2,0:0:0:0:
292,32,85986,1,10,0:1:0:0:
192,20,86318,2,0,P|171:38|164:76,1,55,10|10,0:1|0:0,0:0:0:0:
148,112,86649,1,8,0:0:0:0:
148,112,86815,6,0,L|168:240,1,110,6|2,3:1|3:1,0:0:0:0:
176,268,87312,1,10,0:2:0:0:
264,316,87644,2,0,P|298:312|340:292,1,55,8|8,0:0|0:0,0:0:0:0:
348,268,87975,2,0,P|392:271|420:284,1,55,8|8,0:0|0:0,0:0:0:0:
436,308,88307,5,6,3:2:0:0:
