osu file format v14

[General]
AudioFilename: Yuu.mp3
AudioLeadIn: 1900
PreviewTime: 64689
Countdown: 0
SampleSet: Soft
StackLeniency: 0.7
Mode: 0
LetterboxInBreaks: 0
WidescreenStoryboard: 0

[Editor]
Bookmarks: 72064
DistanceSpacing: 1
BeatDivisor: 4
GridSize: 4
TimelineZoom: 1.4

[Metadata]
Title:Ma.Ka.Se.Te Tonight ~TV SIZE EDIT
TitleUnicode:魔・カ・セ・テ Tonight ~TV SIZE EDIT
Artist:Iori Nomizu
ArtistUnicode:野水いおり
Creator:Gaia
Version:Easy
Source:これはゾンビですか?
Tags:ashemu makasete 伊織 Koreha Zombie Desuka? Kore wa desu ka of the Dead opening op
BeatmapID:567763
BeatmapSetID:244026

[Difficulty]
HPDrainRate:3
CircleSize:3
OverallDifficulty:3
ApproachRate:4
SliderMultiplier:0.9
SliderTickRate:1

[Events]
//Background and Video events
Video,-8,"video.avi"
0,0,"EUUUUUU.jpg",0,0
//Break Periods
//Storyboard Layer 0 (Background)
//Storyboard Layer 1 (Fail)
//Storyboard Layer 2 (Pass)
//Storyboard Layer 3 (Foreground)
//Storyboard Sound Samples

[TimingPoints]
131,331.491712707182,4,2,1,40,1,0
5103,-100,4,2,1,60,0,0
5434,-100,4,2,1,70,0,0
16042,-100,4,2,1,60,0,0
26981,-100,4,2,1,50,0,0
31125,-100,4,2,1,60,0,0
42893,-100,4,2,1,50,0,0
47202,-100,4,2,1,60,0,0
47865,-100,4,2,1,50,0,0
58473,-100,4,2,1,40,0,0
61125,-100,4,2,1,50,0,0
63611,-100,4,2,1,80,0,0
65434,-100,4,2,1,70,0,0
65766,331.491712707182,4,2,1,70,1,0
87644,-100,4,2,1,60,0,0
88307,-100,4,2,1,70,0,0

[Colours]
Combo1 : 188,235,232
Combo2 : 135,61,235
Combo3 : 242,72,225
Combo4 : 242,24,57
Combo5 : 255,138,21

[HitObjects]
28,136,131,6,0,P|54:93|148:76,1,135,2|2,0:0|0:0,0:0:0:0:
220,100,959,2,0,B|268:124|268:124|412:100,1,180,2|2,0:0|0:0,0:0:0:0:
464,48,1954,2,0,P|440:108|456:200,1,135,2|2,0:0|0:0,0:0:0:0:
368,224,2782,6,0,P|400:296|388:352,1,135,2|2,0:0|0:0,0:0:0:0:
312,300,3611,2,0,B|228:328|228:328|184:284|128:280,1,180,2|2,0:0|0:0,0:0:0:0:
68,248,4606,2,0,L|48:104,1,135,2|2,0:0|3:2,0:0:0:0:
100,40,5434,5,6,3:2:0:0:
180,76,5766,2,0,P|284:100|348:64,1,180,8|8,0:0|0:0,0:0:0:0:
436,64,6760,2,0,P|452:112|432:160,1,90,0|8,0:0|0:0,0:0:0:0:
364,192,7423,2,0,P|348:240|368:288,1,90,2|8,3:2|0:0,0:0:0:0:
424,336,8086,5,2,3:2:0:0:
348,380,8418,2,0,B|232:352|232:352|230:308|212:268,1,180,8|8,0:0|0:0,0:0:0:0:
192,208,9412,1,0,0:0:0:0:
112,168,9744,2,0,P|66:180|32:224,2,90,8|2|8,0:0|3:2|0:0,0:0:0:0:
188,120,10738,5,2,3:2:0:0:
268,160,11070,2,0,B|324:192|388:172|388:172|408:92,1,180,8|8,0:0|0:0,0:0:0:0:
352,44,12064,2,0,L|252:68,1,90,0|8,0:0|0:0,0:0:0:0:
188,120,12727,2,0,L|88:96,1,90,2|8,3:2|0:0,0:0:0:0:
28,48,13390,5,2,3:2:0:0:
76,124,13722,2,0,P|120:204|76:308,1,180,8|8,0:0|0:0,0:0:0:0:
128,372,14716,2,0,L|228:352,1,90,8|8,3:3|0:0,0:0:0:0:
268,280,15379,2,0,L|368:260,1,90,8|8,0:0|0:0,0:0:0:0:
444,284,16042,5,6,3:2:0:0:
492,208,16374,2,0,P|488:136|416:104,1,135,10|2,0:0|0:0,0:0:0:0:
352,132,17202,2,0,B|260:148|260:148|196:120,1,135,2|8,3:2|0:0,0:0:0:0:
132,120,18031,2,0,P|104:168|116:220,1,90,0|8,3:2|0:0,0:0:0:0:
96,292,18694,5,2,3:2:0:0:
172,340,19026,2,0,L|344:324,1,135,10|2,0:0|3:2,0:0:0:0:
392,352,19854,2,0,P|428:320|412:216,1,135,2|8,3:2|0:0,0:0:0:0:
352,188,20683,2,0,P|344:150|376:86,1,90,0|10,3:2|0:0,0:0:0:0:
432,48,21346,5,2,3:2:0:0:
344,72,21677,2,0,P|270:91|184:96,1,135,10|2,0:0|0:0,0:0:0:0:
140,40,22506,2,0,P|156:86|172:180,1,135,2|8,3:2|0:0,0:0:0:0:
240,228,23335,2,0,P|201:221|148:216,1,90,0|10,3:2|0:0,0:0:0:0:
60,204,23998,5,2,3:2:0:0:
4,276,24329,2,0,P|28:344|108:344,1,135,10|2,0:0|3:2,0:0:0:0:
168,328,25158,2,0,B|261:308|261:308|278:335|296:352,1,135,2|8,3:2|0:0,0:0:0:0:
376,348,25987,2,0,L|352:244,1,90,8|8,0:0|0:0,0:0:0:0:
292,196,26650,5,6,3:2:0:0:
368,148,26981,2,0,P|441:157|524:160,2,135,10|2|2,0:1|3:1|0:1,0:0:0:0:
316,72,28307,2,0,P|271:85|212:92,1,90,8|0,0:0|3:2,0:0:0:0:
148,48,28970,6,0,P|103:34|44:28,1,90,8|0,0:0|3:2,0:0:0:0:
84,116,29633,2,0,P|120:188|116:272,2,135,10|2|2,0:1|3:1|3:1,0:0:0:0:
28,188,30959,2,0,P|104:208|224:168,1,180,8|8,0:0|0:0,0:0:0:0:
256,112,31954,5,6,3:2:0:0:
324,168,32285,2,0,B|339:255|339:255|295:308,1,135,10|2,0:0|0:0,0:0:0:0:
268,372,33114,2,0,L|132:348,1,135,2|8,3:2|0:0,0:0:0:0:
68,288,33943,2,0,P|56:244|80:192,1,90,0|8,3:2|0:0,0:0:0:0:
120,128,34606,5,2,3:2:0:0:
194,186,34937,2,0,L|342:166,1,135,10|2,0:0|3:2,0:0:0:0:
368,88,35766,2,0,P|348:48|256:52,1,135,2|8,3:2|0:0,0:0:0:0:
184,84,36595,2,0,P|144:78|76:60,1,90,10|2,0:0|3:2,0:0:0:0:
24,12,37258,5,0,3:2:0:0:
76,88,37589,2,0,P|93:154|104:240,1,135,14|2,0:0|0:0,0:0:0:0:
96,312,38418,2,0,P|152:244|216:268,1,135,2|8,3:2|0:0,0:0:0:0:
252,316,39247,2,0,P|240:278|232:208,1,90,0|10,3:2|0:0,0:0:0:0:
304,176,39910,1,2,3:2:0:0:
352,252,40241,6,0,P|427:265|492:268,1,135,10|2,0:0|3:2,0:0:0:0:
468,180,41070,2,0,P|451:125|436:36,1,135,2|8,3:2|0:0,0:0:0:0:
352,20,41898,2,0,B|260:0|268:64|176:36,1,180,8|6,0:3|3:2,0:0:0:0:
112,96,42893,6,0,P|208:100|240:148,2,135,10|2|2,0:1|3:1|0:1,0:0:0:0:
24,116,44219,2,0,L|40:20,2,90,8|0|8,0:0|3:2|0:0,0:0:0:0:
84,184,45213,1,0,3:2:0:0:
112,272,45545,6,0,B|18:266|18:266|-8:328,2,135,10|2|2,0:1|3:1|3:1,0:0:0:0:
196,236,46871,1,8,0:0:0:0:
248,312,47202,2,0,B|364:300|364:300|392:232,1,180,8|4,0:0|3:2,0:0:0:0:
444,76,48528,6,0,P|384:124|308:108,1,135,8|8,0:0|0:0,0:0:0:0:
268,52,49357,2,0,B|180:44|180:44|168:72|148:104,1,135,8|10,0:0|0:0,0:0:0:0:
72,112,50186,2,0,P|86:169|88:208,1,90,2|2,0:0|3:2,0:0:0:0:
0,360,51180,6,0,L|140:340,1,135,10|8,0:0|0:0,0:0:0:0:
184,264,52009,2,0,L|324:284,1,135,8|8,0:0|0:0,0:0:0:0:
392,336,52838,2,0,P|436:324|468:288,1,90,8|2,0:0|3:2,0:0:0:0:
448,112,53832,6,0,P|412:76|312:108,1,135,8|8,0:0|0:0,0:0:0:0:
264,140,54661,2,0,B|120:120,1,135,8|8,0:0|0:0,0:0:0:0:
48,88,55490,2,0,P|42:145|64:188,1,90,2|0,0:0|3:2,0:0:0:0:
165,317,56484,6,0,P|176:250|189:184,1,135,8|8,0:0|0:0,0:0:0:0:
264,140,57313,2,0,B|352:124|352:124|369:157|376:200,1,135,8|8,0:0|0:0,0:0:0:0:
380,256,58142,6,0,P|420:272|472:272,1,90,8|4,0:0|3:0,0:0:0:0:
256,192,58639,12,4,63611,3:3:0:0:
40,80,65434,5,4,3:0:0:0:
120,40,65766,5,6,3:1:0:0:
172,112,66097,2,0,P|184:180|128:260,1,135,8|2,0:0|3:1,0:0:0:0:
176,324,66926,2,0,B|212:344|212:344|255:330|312:324,1,135,2|10,3:1|0:1,0:0:0:0:
388,352,67754,2,0,L|392:252,1,90,2|10,3:1|0:1,0:0:0:0:
456,200,68417,5,2,3:1:0:0:
392,136,68749,2,0,P|328:164|260:168,1,135,10|2,0:0|3:1,0:0:0:0:
208,96,69578,2,0,B|120:76|120:76|103:100|84:120,1,135,2|8,3:1|0:0,0:0:0:0:
8,136,70406,2,0,L|28:228,1,90,2|10,3:1|0:1,0:0:0:0:
96,280,71069,5,2,3:1:0:0:
120,368,71401,2,0,P|72:332|-16:352,2,135,8|2|2,0:0|0:1|3:1,0:0:0:0:
208,356,72727,2,0,B|304:344|304:344|336:292,2,135,8|2|2,0:0|0:1|3:1,0:0:0:0:
212,264,74053,2,0,P|188:224|228:136,1,135,8|2,0:0|3:1,0:0:0:0:
272,76,74882,2,0,B|359:91|359:91|368:152,1,135,6|8,3:1|0:0,0:0:0:0:
428,204,75710,2,0,P|404:244|352:256,1,90,10|10,0:1|0:1,0:0:0:0:
292,200,76373,5,6,3:1:0:0:
216,244,76705,2,0,B|196:336|196:336|220:354|228:368,1,135,8|2,0:0|3:1,0:0:0:0:
316,364,77533,2,0,P|379:351|468:320,1,135,2|10,3:1|0:1,0:0:0:0:
492,240,78362,2,0,P|488:196|468:144,1,90,2|10,3:1|0:1,0:0:0:0:
416,80,79025,6,0,P|410:164|400:244,1,135,2|2,3:1|0:1,0:0:0:0:
336,276,79854,1,2,3:1:0:0:
268,220,80185,2,0,P|196:200|120:232,1,135,2|8,3:1|0:0,0:0:0:0:
104,300,81014,2,0,P|96:263|80:200,1,90,2|10,3:1|0:1,0:0:0:0:
8,164,81677,5,2,3:1:0:0:
48,84,82009,2,0,P|121:100|204:108,1,135,8|2,0:0|3:1,0:0:0:0:
252,52,82837,2,0,B|332:32|332:32|356:44|368:80,2,135,6|8|2,3:1|0:0|3:1,0:0:0:0:
292,132,84163,6,0,P|303:202|312:284,2,135,6|8|2,3:1|0:0|3:1,0:0:0:0:
368,84,85489,1,6,3:1:0:0:
256,192,85655,12,4,88307,0:0:0:0:
