osu file format v14

[General]
AudioFilename: Yuu.mp3
AudioLeadIn: 1900
PreviewTime: 64689
Countdown: 0
SampleSet: Soft
StackLeniency: 0.7
Mode: 0
LetterboxInBreaks: 0
WidescreenStoryboard: 0

[Editor]
DistanceSpacing: 1
BeatDivisor: 4
GridSize: 4
TimelineZoom: 1.4

[Metadata]
Title:Ma.Ka.Se.Te Tonight ~TV SIZE EDIT
TitleUnicode:魔・カ・セ・テ Tonight ~TV SIZE EDIT
Artist:Iori Nomizu
ArtistUnicode:野水いおり
Creator:Gaia
Version:Insane
Source:これはゾンビですか?
Tags:ashemu makasete 伊織 Koreha Zombie Desuka? Kore wa desu ka of the Dead opening op
BeatmapID:565648
BeatmapSetID:244026

[Difficulty]
HPDrainRate:6
CircleSize:4
OverallDifficulty:8
ApproachRate:9
SliderMultiplier:1.6
SliderTickRate:2

[Events]
//Background and Video events
Video,-8,"video.avi"
0,0,"EUUUUUU.jpg",0,0
//Break Periods
//Storyboard Layer 0 (Background)
//Storyboard Layer 1 (Fail)
//Storyboard Layer 2 (Pass)
//Storyboard Layer 3 (Foreground)
//Storyboard Sound Samples

[TimingPoints]
131,331.491712707182,4,2,1,40,1,0
5103,-100,4,2,1,60,0,0
5434,-100,4,2,1,70,0,0
16042,-100,4,2,1,60,0,0
26981,-100,4,2,1,50,0,0
31125,-100,4,2,1,60,0,0
42893,-100,4,2,1,50,0,0
47202,-83.3333333333333,4,2,1,60,0,0
47865,-125,4,2,1,50,0,0
58473,-100,4,2,1,40,0,0
59799,-100,4,2,1,30,0,0
60462,-100,4,2,1,40,0,0
61125,-100,4,2,1,50,0,0
62119,-100,4,2,1,50,0,0
62782,-100,4,2,1,50,0,0
63611,-100,4,2,1,80,0,0
63694,-100,4,2,1,50,0,0
65434,-100,4,2,1,70,0,0
65766,331.491712707182,4,2,1,70,1,0
65766,-90.9090909090909,4,2,1,70,0,0
87644,-90.9090909090909,4,2,1,60,0,0
88307,-90.9090909090909,4,2,1,70,0,0

[Colours]
Combo1 : 188,235,232
Combo2 : 135,61,235
Combo3 : 242,72,225
Combo4 : 242,24,57
Combo5 : 255,138,21

[HitObjects]
128,120,131,5,2,0:0:0:0:
192,196,296,1,2,0:0:0:0:
192,196,628,1,2,0:0:0:0:
192,196,959,5,2,0:0:0:0:
128,120,1125,1,2,0:0:0:0:
232,104,1291,1,2,0:0:0:0:
232,104,1622,1,2,0:0:0:0:
232,104,1954,5,2,0:0:0:0:
100,204,2119,2,0,P|59:215|12:220,1,80,2|0,0:0|0:0,0:0:0:0:
244,272,2451,2,0,P|283:276|321:288,1,80,2|0,0:0|0:0,0:0:0:0:
264,364,2782,5,2,0:0:0:0:
312,196,2948,1,2,0:0:0:0:
312,196,3280,1,2,0:0:0:0:
312,196,3611,5,2,0:0:0:0:
244,272,3777,1,2,0:0:0:0:
344,296,3943,1,2,0:0:0:0:
344,296,4274,1,2,0:0:0:0:
344,296,4606,5,2,0:0:0:0:
144,252,4771,1,2,0:0:0:0:
144,252,5103,5,2,3:2:0:0:
114,213,5185,1,2,0:0:0:0:
113,163,5268,1,2,0:0:0:0:
142,124,5351,1,2,0:0:0:0:
189,110,5434,6,0,B|249:110|304:124|304:124|316:100|356:68,1,160,6|8,3:2|0:0,0:0:0:0:
448,168,5932,2,0,P|500:208|484:320,1,160,2|2,0:0|3:2,0:0:0:0:
376,348,6429,1,8,0:0:0:0:
268,192,6595,6,0,P|257:110|240:4,1,160,2|0,3:2|3:2,0:0:0:0:
113,163,7092,2,0,P|106:258|104:328,1,160,8|2,0:0|3:2,0:0:0:0:
244,212,7589,1,2,3:2:0:0:
12,184,7755,2,0,P|3:230|0:284,1,80,8|2,0:0|0:0,0:0:0:0:
208,300,8086,6,0,P|287:286|384:272,1,160,2|8,3:2|0:0,0:0:0:0:
476,168,8584,1,2,0:0:0:0:
268,192,8749,2,0,P|229:188|176:176,1,80,2|2,3:2|3:2,0:0:0:0:
144,72,9081,1,8,0:0:0:0:
352,92,9247,6,0,P|360:183|372:260,1,160,2|2,3:2|3:2,0:0:0:0:
195,332,9744,2,0,P|179:268|243:212,1,160,8|2,0:0|3:2,0:0:0:0:
476,168,10241,1,2,3:2:0:0:
268,192,10406,2,0,P|229:188|176:176,1,80,8|0,0:0|0:0,0:0:0:0:
40,88,10738,6,0,P|68:44|184:52,1,160,2|8,3:2|0:0,0:0:0:0:
296,176,11235,1,2,0:0:0:0:
156,284,11401,2,0,L|164:180,1,80,0|2,3:2|3:2,0:0:0:0:
204,60,11733,1,8,0:0:0:0:
348,240,11898,6,0,P|336:179|324:76,1,160,2|0,3:2|3:2,0:0:0:0:
189,179,12396,2,0,P|121:231|13:231,1,160,8|2,0:0|3:2,0:0:0:0:
80,128,12893,1,2,3:2:0:0:
248,292,13059,2,0,P|273:330|288:384,1,80,8|2,0:0|0:0,0:0:0:0:
348,240,13390,6,0,P|384:184|488:220,1,160,2|8,3:2|0:0,0:0:0:0:
448,328,13887,1,2,0:0:0:0:
268,192,14053,2,0,P|258:165|248:80,1,80,2|2,3:2|3:2,0:0:0:0:
156,260,14385,2,0,L|148:360,1,80,8|2,0:0|0:0,0:0:0:0:
48,376,14716,5,8,3:3:0:0:
48,376,15048,1,8,0:0:0:0:
172,320,15213,1,8,0:3:0:0:
32,128,15379,5,8,0:0:0:0:
80,376,15545,1,8,0:0:0:0:
204,140,15711,5,8,0:0:0:0:
188,344,15876,1,8,0:0:0:0:
360,232,16042,6,0,P|312:237|264:252,1,80,6|0,3:2|0:0,0:0:0:0:
32,128,16374,2,0,P|108:148|200:156,1,160,10|0,0:0|3:2,0:0:0:0:
324,56,16871,2,0,P|306:98|304:152,1,80,2|8,0:0|0:0,0:0:0:0:
188,344,17202,6,0,P|216:300|152:224,1,160,2|2,3:2|3:2,0:0:0:0:
166,80,17700,2,0,P|245:70|338:52,1,160,8|0,0:0|3:2,0:0:0:0:
456,124,18197,1,2,3:2:0:0:
348,196,18363,2,0,P|318:188|256:184,1,80,8|0,0:0|0:0,0:0:0:0:
68,68,18694,6,0,P|88:109|100:160,1,80,2|0,3:2|0:0,0:0:0:0:
36,304,19026,2,0,B|140:316|140:316|160:296|164:248,1,160,10|0,0:0|3:2,0:0:0:0:
216,96,19523,1,2,3:2:0:0:
80,172,19689,1,8,0:0:0:0:
216,96,19854,6,0,L|408:76,1,160,2|2,3:2|3:2,0:0:0:0:
444,256,20351,2,0,P|426:248|352:236,1,80,8|2,0:0|0:0,0:0:0:0:
200,280,20683,1,0,3:2:0:0:
368,112,20849,1,2,3:2:0:0:
392,328,21014,1,10,0:0:0:0:
375,79,21180,1,2,3:2:0:0:
186,201,21346,6,0,P|193:242|202:301,1,80,2|0,3:2|0:0,0:0:0:0:
32,176,21677,2,0,P|16:104|100:40,1,160,10|0,0:0|3:2,0:0:0:0:
100,272,22175,2,0,P|58:287|0:296,1,80,2|8,0:0|0:0,0:0:0:0:
180,176,22506,6,0,L|340:192,1,160,2|2,3:2|3:2,0:0:0:0:
484,304,23003,2,0,P|444:352|344:328,1,160,8|0,0:0|3:2,0:0:0:0:
268,144,23501,1,2,3:2:0:0:
236,304,23666,2,0,P|242:355|252:392,1,80,10|0,0:0|0:0,0:0:0:0:
372,196,23998,6,0,P|380:156|385:117,1,80,2|0,3:2|0:0,0:0:0:0:
224,160,24329,2,0,P|145:179|40:196,1,160,10|2,0:0|3:2,0:0:0:0:
204,28,24827,2,0,P|249:31|308:40,1,80,2|8,3:2|0:0,0:0:0:0:
436,128,25158,1,2,3:2:0:0:
224,160,25324,5,8,3:3:0:0:
372,312,25490,1,2,3:2:0:0:
372,312,25572,1,2,0:0:0:0:
372,312,25655,1,8,0:0:0:0:
344,108,25821,1,2,3:2:0:0:
144,280,25987,5,8,0:0:0:0:
396,224,26153,1,10,0:0:0:0:
76,152,26318,1,8,0:0:0:0:
436,128,26484,1,10,0:0:0:0:
188,180,26650,5,6,3:2:0:0:
188,180,26981,2,0,P|181:101|168:4,1,160,10|0,0:1|3:2,0:0:0:0:
300,100,27479,1,2,3:1:0:0:
288,240,27644,2,0,P|283:282|276:324,1,80,8|0,0:0|3:2,0:0:0:0:
67,299,27976,6,0,P|93:288|159:279,1,80,2|0,0:1|3:2,0:0:0:0:
368,212,28307,2,0,P|303:208|192:188,1,160,8|0,0:0|3:2,0:0:0:0:
68,92,28805,1,2,3:2:0:0:
68,92,28970,2,0,P|80:128|88:180,1,80,8|2,0:0|0:0,0:0:0:0:
208,360,29302,6,0,L|224:276,1,80,0|0,3:2|0:0,0:0:0:0:
336,88,29633,2,0,B|296:124|296:124|253:106|180:92,1,160,10|0,0:1|3:2,0:0:0:0:
4,160,30130,1,2,3:1:0:0:
209,192,30296,1,8,0:0:0:0:
120,24,30462,1,0,3:2:0:0:
140,248,30628,5,2,3:1:0:0:
272,40,30793,1,0,3:2:0:0:
40,152,30959,1,8,0:0:0:0:
248,200,31125,1,8,0:0:0:0:
272,204,31208,1,8,0:0:0:0:
296,208,31291,1,8,0:0:0:0:
320,212,31374,1,8,0:0:0:0:
344,216,31456,1,8,0:0:0:0:
436,96,31622,2,0,P|428:67|416:36,2,40,8|8|8,0:0|0:0|0:0,0:0:0:0:
404,300,31954,6,0,P|356:316|308:316,1,80,6|0,3:2|0:0,0:0:0:0:
83,234,32285,2,0,P|131:178|219:202,1,160,10|0,0:0|3:2,0:0:0:0:
353,136,32782,2,0,P|347:177|341:240,1,80,2|8,0:0|0:0,0:0:0:0:
232,376,33114,6,0,P|225:322|212:196,1,160,2|0,3:2|3:2,0:0:0:0:
308,56,33611,2,0,B|408:32|408:32|428:52|424:104,1,160,8|0,0:0|3:2,0:0:0:0:
332,216,34108,1,2,3:2:0:0:
476,332,34274,2,0,P|450:326|396:320,1,80,8|0,0:0|0:0,0:0:0:0:
136,228,34606,6,0,P|175:224|214:216,1,80,2|0,3:2|0:0,0:0:0:0:
308,56,34937,2,0,P|356:88|336:192,1,160,10|0,0:0|3:2,0:0:0:0:
124,208,35434,1,2,3:2:0:0:
40,92,35600,1,8,0:0:0:0:
136,228,35766,6,0,P|215:233|292:244,1,120,2|0,3:2|0:0,0:0:0:0:
332,216,36097,1,2,3:2:0:0:
196,316,36263,1,8,0:0:0:0:
240,112,36429,1,2,0:0:0:0:
440,232,36595,1,10,0:0:0:0:
255,238,36760,1,10,0:0:0:0:
360,72,36926,1,2,3:2:0:0:
416,324,37092,1,10,0:0:0:0:
400,328,37175,1,10,0:0:0:0:
384,332,37258,5,0,3:2:0:0:
456,232,37423,1,0,3:2:0:0:
332,216,37589,2,0,P|254:207|136:188,1,160,14|0,0:0|3:2,0:0:0:0:
12,84,38086,2,0,L|24:176,1,80,2|8,0:0|0:0,0:0:0:0:
128,360,38418,6,0,B|136:242|136:242|153:238|184:216,1,160,2|2,3:2|3:2,0:0:0:0:
316,90,38915,2,0,P|277:104|216:114,1,80,8|2,0:0|0:0,0:0:0:0:
344,240,39247,2,0,P|359:278|360:328,1,80,0|2,3:2|3:2,0:0:0:0:
452,148,39578,2,0,P|464:114|460:60,1,80,10|0,0:0|0:0,0:0:0:0:
237,78,39910,6,0,P|276:86|317:90,1,80,2|0,3:2|0:0,0:0:0:0:
173,223,40241,2,0,P|129:175|33:191,1,160,10|2,0:0|3:2,0:0:0:0:
144,360,40738,2,0,L|244:344,1,80,2|8,3:2|0:0,0:0:0:0:
344,240,41070,6,0,P|340:198|320:72,1,160,2|2,3:2|3:2,0:0:0:0:
160,12,41567,2,0,P|132:48|172:136,1,120,8|10,0:0|0:0,0:0:0:0:
173,223,41898,2,0,P|212:208|280:208,1,80,8|8,0:3|0:3,0:0:0:0:
344,240,42147,1,8,0:3:0:0:
344,240,42230,2,0,L|440:256,1,80,8|8,0:3|0:3,0:0:0:0:
508,272,42479,1,8,0:3:0:0:
508,272,42561,5,6,3:2:0:0:
508,272,42893,2,0,P|443:277|328:292,1,160,10|0,0:1|3:2,0:0:0:0:
173,223,43390,1,2,3:1:0:0:
324,152,43556,2,0,P|372:153|424:168,1,80,8|0,0:0|3:2,0:0:0:0:
264,364,43887,6,0,P|259:331|247:285,1,80,2|0,0:1|3:2,0:0:0:0:
120,80,44219,2,0,P|88:144|148:220,1,160,8|0,0:0|3:2,0:0:0:0:
304,180,44716,1,2,3:2:0:0:
116,308,44882,1,8,0:0:0:0:
188,144,45048,1,2,0:0:0:0:
247,286,45213,6,0,P|289:295|335:302,1,80,0|0,3:2|0:0,0:0:0:0:
346,120,45545,2,0,P|268:134|182:144,1,160,10|0,0:1|3:2,0:0:0:0:
52,56,46042,1,2,3:1:0:0:
173,223,46208,2,0,P|189:260|197:319,1,80,8|0,0:0|3:2,0:0:0:0:
48,176,46539,6,0,L|52:84,1,80,2|0,3:1|3:2,0:0:0:0:
244,12,46871,2,0,P|316:4|356:56,1,120,8|2,0:0|0:0,0:0:0:0:
346,120,47202,6,0,L|430:100,2,63.9999980468751,8|8|8,0:0|0:0|0:0,0:0:0:0:
276,216,47534,2,0,L|340:232,2,63.9999980468751,8|8|8,0:3|0:3|0:3,0:0:0:0:
173,223,47865,6,0,B|116:212|72:252|72:252|36:208|84:176,1,192,4|0,3:2|3:2,0:0:0:0:
128,116,48445,1,0,3:2:0:0:
128,116,48528,2,0,P|93:128|0:148,1,128,8|2,0:0|0:0,0:0:0:0:
4,147,49026,5,8,0:0:0:0:
4,147,49357,1,8,0:0:0:0:
77,180,49523,5,0,3:2:0:0:
128,116,49689,1,0,3:2:0:0:
52,76,49854,1,10,0:0:0:0:
156,120,50020,2,0,P|224:132|300:136,1,128,0|10,3:2|0:0,0:0:0:0:
324,224,50434,1,10,0:0:0:0:
324,224,50517,6,0,B|468:200,1,128,2|0,3:2|3:2,0:0:0:0:
488,108,51014,1,0,3:2:0:0:
420,36,51180,1,10,0:0:0:0:
328,52,51346,1,0,3:2:0:0:
328,52,51677,5,8,0:0:0:0:
328,52,52009,1,8,0:0:0:0:
420,36,52175,5,0,3:2:0:0:
488,108,52340,1,0,3:2:0:0:
450,202,52506,1,8,0:0:0:0:
450,202,52838,5,8,0:0:0:0:
420,36,53003,1,8,0:0:0:0:
282,135,53169,6,0,B|268:200|312:264|312:264|272:268|248:304,1,192,2|0,3:2|3:2,0:0:0:0:
324,352,53749,1,0,3:2:0:0:
324,352,53832,1,8,0:0:0:0:
176,376,53998,2,0,L|100:360,1,64,0|2,3:0|0:0,0:0:0:0:
113,362,54329,5,8,0:0:0:0:
113,362,54661,1,8,0:0:0:0:
168,288,54827,5,0,3:2:0:0:
84,240,54992,1,0,3:2:0:0:
32,316,55158,1,8,0:0:0:0:
184,272,55324,2,0,P|212:232|188:136,1,128,0|8,3:2|0:0,0:0:0:0:
160,84,55738,1,8,0:0:0:0:
160,84,55821,6,0,P|216:124|296:116,1,128,0|0,3:2|3:2,0:0:0:0:
360,68,56318,1,0,3:2:0:0:
456,100,56484,1,8,0:0:0:0:
472,200,56650,1,0,3:2:0:0:
472,200,56981,5,8,0:0:0:0:
472,200,57313,1,8,0:0:0:0:
456,100,57479,5,0,3:2:0:0:
360,68,57644,1,0,3:2:0:0:
273,124,57810,1,8,0:0:0:0:
388,264,58142,5,8,0:0:0:0:
372,164,58307,1,8,0:0:0:0:
372,164,58390,1,8,0:0:0:0:
372,164,58473,5,0,3:2:0:0:
273,124,58639,1,0,3:2:0:0:
172,176,58805,1,0,3:2:0:0:
168,284,58970,1,0,3:2:0:0:
264,228,59136,5,0,3:2:0:0:
172,176,59302,1,0,3:2:0:0:
276,220,59468,1,0,3:2:0:0:
152,180,59633,1,0,3:2:0:0:
273,124,59799,5,8,0:0:0:0:
264,228,59965,1,8,0:0:0:0:
368,284,60130,1,8,0:0:0:0:
448,208,60296,1,8,0:0:0:0:
276,220,60462,5,8,0:0:0:0:
304,352,60628,1,8,0:0:0:0:
192,172,60793,1,8,0:0:0:0:
164,320,60959,1,8,0:0:0:0:
288,212,61125,5,8,0:0:0:0:
96,232,61291,1,8,0:0:0:0:
300,328,61456,1,8,0:0:0:0:
48,368,61622,1,8,0:0:0:0:
380,260,61788,1,8,0:0:0:0:
176,292,61954,1,8,0:0:0:0:
273,120,62119,5,8,0:0:0:0:
311,110,62202,1,8,0:0:0:0:
351,110,62285,1,8,0:0:0:0:
389,121,62368,1,8,0:0:0:0:
423,142,62451,1,8,3:2:0:0:
463,142,62534,1,8,0:0:0:0:
489,112,62617,1,8,0:0:0:0:
489,71,62700,1,8,0:0:0:0:
457,47,62782,5,8,3:2:0:0:
417,51,62865,1,8,0:0:0:0:
389,80,62948,1,8,0:0:0:0:
389,121,63031,1,8,0:0:0:0:
412,153,63114,1,8,3:2:0:0:
436,184,63197,1,8,0:0:0:0:
452,220,63280,1,8,0:0:0:0:
456,259,63363,1,8,0:0:0:0:
437,296,63445,1,8,3:2:0:0:
399,317,63528,1,8,0:0:0:0:
359,310,63611,5,4,3:3:0:0:
256,192,63694,12,4,65434,3:3:0:0:
208,252,65766,6,0,P|119:270|22:288,1,176.000005371094,6|8,3:1|0:0,0:0:0:0:
112,100,66263,2,0,P|127:148|136:208,1,88.000002685547,2|0,0:1|3:0,0:0:0:0:
140,360,66594,1,2,3:1:0:0:
28,180,66760,1,8,0:0:0:0:
224,152,66926,6,0,L|412:176,1,176.000005371094,2|0,3:1|0:0,0:0:0:0:
424,368,67423,2,0,P|352:360|320:260,1,176.000005371094,10|2,0:1|3:1,0:0:0:0:
348,54,67920,1,2,3:2:0:0:
398,174,68086,2,0,P|410:212|418:274,1,88.000002685547,10|2,0:1|0:0,0:0:0:0:
192,360,68417,6,0,L|212:184,1,176.000005371094,2|10,3:1|0:0,0:0:0:0:
116,28,68915,2,0,P|96:76|124:128,1,88.000002685547,2|0,0:1|3:0,0:0:0:0:
316,272,69246,2,0,P|325:229|305:191,1,88.000002685547,2|8,3:1|0:0,0:0:0:0:
204,88,69578,6,0,B|268:91|330:100|330:100|356:36,1,176.000005371094,2|2,3:1|3:1,0:0:0:0:
480,144,70075,2,0,P|487:205|496:344,1,176.000005371094,8|2,0:0|3:1,0:0:0:0:
352,208,70572,1,2,3:2:0:0:
352,208,70738,2,0,P|350:254|344:304,1,88.000002685547,10|2,0:1|0:2,0:0:0:0:
276,116,71069,6,0,P|310:102|380:84,1,88.000002685547,2|2,3:1|0:2,0:0:0:0:
236,256,71401,1,8,0:0:0:0:
128,176,71567,2,0,P|88:172|32:156,1,88.000002685547,2|0,0:1|3:2,0:0:0:0:
112,8,71898,2,0,L|104:96,1,88.000002685547,2|8,3:1|0:0,0:0:0:0:
152,276,72230,1,2,3:2:0:0:
276,116,72395,6,0,P|285:209|292:308,1,176.000005371094,2|8,3:1|0:0,0:0:0:0:
407,183,72893,2,0,P|447:147|495:147,1,88.000002685547,2|0,0:1|3:2,0:0:0:0:
152,276,73224,2,0,P|109:269|56:256,1,88.000002685547,2|8,3:1|0:0,0:0:0:0:
240,136,73556,1,0,3:2:0:0:
312,320,73721,6,0,B|436:304|436:304|439:280|452:244,1,176.000005371094,2|8,3:1|0:0,0:0:0:0:
326,118,74219,2,0,L|210:142,1,88.000002685547,2|0,0:1|3:2,0:0:0:0:
152,276,74550,2,0,P|109:269|56:256,1,88.000002685547,2|8,3:1|0:0,0:0:0:0:
44,48,74882,6,0,P|104:48|120:160,1,176.000005371094,6|8,3:1|0:0,0:0:0:0:
88,356,75379,1,8,0:0:0:0:
224,220,75545,1,0,3:2:0:0:
24,264,75710,5,10,0:1:0:0:
308,272,75876,1,8,0:0:0:0:
20,136,76042,1,10,0:1:0:0:
304,80,76207,1,8,0:0:0:0:
304,80,76290,1,8,0:0:0:0:
304,80,76373,6,0,B|428:64|428:64|434:32|448:0,1,176.000005371094,6|8,3:1|0:0,0:0:0:0:
464,168,76870,2,0,P|470:212|480:264,1,88.000002685547,2|0,0:1|3:0,0:0:0:0:
322,358,77202,2,0,P|315:313|306:262,1,88.000002685547,2|8,3:1|0:0,0:0:0:0:
200,116,77533,6,0,P|140:104|88:196,1,176.000005371094,2|0,3:1|0:0,0:0:0:0:
216,284,78031,2,0,P|325:259|400:244,1,176.000005371094,10|2,0:1|3:1,0:0:0:0:
492,88,78528,1,2,3:2:0:0:
304,80,78694,2,0,P|308:125|328:196,1,88.000002685547,10|2,0:1|0:0,0:0:0:0:
172,368,79025,6,0,P|196:284|148:172,1,176.000005371094,2|10,3:1|0:0,0:0:0:0:
24,56,79522,2,0,P|58:78|112:92,1,88.000002685547,2|0,0:1|3:0,0:0:0:0:
404,151,79854,2,0,L|294:170,1,88.000002685547,2|8,3:1|0:0,0:0:0:0:
172,368,80185,6,0,B|148:284|208:280|164:176,1,176.000005371094,2|2,3:1|3:1,0:0:0:0:
296,28,80683,2,0,P|301:75|312:144,1,88.000002685547,8|2,0:0|0:0,0:0:0:0:
368,312,81014,1,2,3:1:0:0:
404,151,81180,1,2,3:2:0:0:
171,195,81346,2,0,P|128:204|67:211,1,88.000002685547,10|2,0:1|0:2,0:0:0:0:
256,328,81677,6,0,P|299:333|351:344,2,88.000002685547,2|2|8,3:1|0:2|0:0,0:0:0:0:
307,115,82174,2,0,P|311:150|319:211,1,88.000002685547,2|0,0:1|3:2,0:0:0:0:
152,384,82506,2,0,P|147:348|140:288,1,88.000002685547,2|8,3:1|0:0,0:0:0:0:
229,128,82837,6,0,P|297:138|429:152,1,176.000005371094,6|2,3:1|3:2,0:0:0:0:
344,40,83335,1,8,0:0:0:0:
384,260,83500,2,0,P|423:257|484:248,1,88.000002685547,2|0,0:1|3:2,0:0:0:0:
237,242,83832,2,0,P|249:289|257:350,1,88.000002685547,2|8,3:1|0:0,0:0:0:0:
204,104,84163,6,0,P|128:96|80:196,1,176.000005371094,6|2,3:1|3:2,0:0:0:0:
168,308,84661,1,8,0:0:0:0:
320,160,84826,2,0,P|324:116|328:68,1,88.000002685547,2|0,0:1|3:2,0:0:0:0:
108,16,85158,2,0,P|111:59|115:103,1,88.000002685547,2|8,3:1|0:0,0:0:0:0:
237,242,85489,6,0,P|309:194|413:218,1,176.000005371094,6|2,3:1|3:2,0:0:0:0:
256,364,85986,2,0,P|223:354|164:344,1,88.000002685547,10|2,2:1|3:2,0:0:0:0:
176,164,86318,2,0,P|139:175|84:184,1,88.000002685547,10|10,0:1|0:0,0:0:0:0:
272,68,86649,1,8,0:0:0:0:
411,222,86815,6,0,P|317:228|231:242,1,176.000005371094,6|2,3:1|3:1,0:0:0:0:
82,151,87312,1,10,0:2:0:0:
86,167,87395,1,10,0:0:0:0:
90,183,87478,1,8,3:3:0:0:
160,356,87644,5,8,0:0:0:0:
276,108,87810,1,8,0:0:0:0:
328,348,87975,1,8,0:0:0:0:
172,72,88141,1,8,0:0:0:0:
236,240,88307,5,6,3:2:0:0:
