osu file format v14

[General]
AudioFilename: audio.mp3
AudioLeadIn: 0
PreviewTime: 57764
Countdown: 1
SampleSet: Soft
StackLeniency: 0.7
Mode: 0
LetterboxInBreaks: 0
WidescreenStoryboard: 1

[Editor]
DistanceSpacing: 0.8
BeatDivisor: 4
GridSize: 32
TimelineZoom: 6.349996

[Metadata]
Title:Chi
TitleUnicode:ちッ
Artist:Iori Nomizu
ArtistUnicode:野水いおり
Creator:Shocko Moo
Version:Extra
Source:魔装学園H×H
Tags:
BeatmapID:2160903
BeatmapSetID:1033479

[Difficulty]
HPDrainRate:6
CircleSize:4.5
OverallDifficulty:8
ApproachRate:9.3
SliderMultiplier:1.6
SliderTickRate:1

[Events]
//Background and Video events
0,0,"bg.png",0,0
//Break Periods
2,81835,83500
2,140221,142049
//Storyboard Layer 0 (Background)
//Storyboard Layer 1 (Fail)
//Storyboard Layer 2 (Pass)
//Storyboard Layer 3 (Foreground)
//Storyboard Layer 4 (Overlay)
//Storyboard Sound Samples

[TimingPoints]
345,322.58064516129,4,2,1,70,1,0
345,-133.333333333333,4,2,1,30,0,0
5022,-66.6666666666667,4,2,1,40,0,0
5183,-200,4,2,1,50,0,0
5506,-100,4,2,1,70,0,0
15828,-133.333333333333,4,2,1,70,0,0
16312,-100,4,2,1,70,0,0
17119,-133.333333333333,4,2,1,70,0,0
27441,-100,4,2,1,70,0,0
29377,-200,4,2,1,70,0,0
30022,-133.333333333333,4,2,1,70,0,0
35828,-100,4,2,1,70,0,0
36151,-133.333333333333,4,2,1,70,0,0
39054,-90.9090909090909,4,2,1,70,0,0
39269,-100,4,2,1,70,0,0
39484,-111.111111111111,4,2,1,70,0,0
39699,-133.333333333333,4,2,1,70,0,0
40344,-100,4,2,1,70,0,0
42925,-250,4,2,1,70,0,0
44538,-100,4,2,1,70,0,0
45506,-133.333333333333,4,2,1,70,0,0
50667,-111.111111111111,4,2,1,70,0,0
52603,-100,4,2,1,30,0,0
52925,-83.3333333333333,4,2,1,70,0,0
53248,-250,4,2,2,30,0,0
55183,-200,4,2,2,40,0,0
55506,-166.666666666667,4,2,2,50,0,0
55828,-166.666666666667,4,2,1,20,0,0
55990,-166.666666666667,4,2,1,20,0,0
56151,-166.666666666667,4,2,1,30,0,0
56474,-166.666666666667,4,2,1,50,0,0
57119,-66.6666666666667,4,2,1,70,0,0
58409,-100,4,2,1,70,0,1
67441,-100,4,2,1,70,0,0
68732,-111.111111111111,4,2,1,70,0,1
76474,-90.9090909090909,4,2,1,70,0,1
77764,-166.666666666667,4,2,1,70,0,1
79054,-166.666666666667,4,2,1,70,0,0
84215,-100,4,2,1,70,0,0
89377,-133.333333333333,4,2,1,70,0,0
98409,-100,4,2,1,70,0,0
99699,-100,4,2,1,70,0,0
102280,-250,4,2,1,70,0,0
103893,-133.333333333333,4,2,1,70,0,0
103894,-100,4,2,1,70,0,0
104861,-133.333333333333,4,2,1,70,0,0
110022,-111.111111111111,4,2,1,70,0,0
111957,-100,4,2,1,30,0,0
112280,-83.3333333333333,4,2,1,70,0,0
112603,-250,4,2,2,70,0,0
114538,-200,4,2,2,70,0,0
114861,-166.666666666667,4,2,2,70,0,0
115183,-166.666666666667,4,2,1,20,0,0
115344,-166.666666666667,4,2,1,20,0,0
115506,-166.666666666667,4,2,1,30,0,0
115828,-166.666666666667,4,2,1,50,0,0
116474,-66.6666666666667,4,2,1,70,0,0
117764,-100,4,2,1,70,0,1
126796,-100,4,2,1,70,0,0
128086,-111.111111111111,4,2,1,70,0,1
135828,-90.9090909090908,4,2,1,70,0,1
138409,-200,4,2,1,70,0,0
145183,-133.333333333333,4,2,1,70,0,0
146474,-100,4,2,1,70,0,0
147441,-83.3333333333333,4,2,1,70,0,0
156796,322.58064516129,4,2,1,70,1,0
160667,-133.333333333333,3,2,1,70,0,0
169054,-100,3,2,1,70,0,0
171312,-250,3,2,1,70,0,0
176796,-100,3,2,1,70,0,1
185183,-100,3,2,1,70,0,0
187764,-100,3,2,1,70,0,1
198086,-100,3,2,1,70,0,0

[Colours]
Combo1 : 113,113,255
Combo2 : 128,0,64
Combo3 : 192,192,192
Combo4 : 185,0,92

[HitObjects]
10,98,345,5,2,0:0:0:0:
44,13,506,1,2,0:0:0:0:
103,106,667,1,2,0:0:0:0:
100,119,747,1,2,0:0:0:0:
99,134,828,1,2,0:0:0:0:
97,149,908,1,2,0:0:0:0:
95,164,989,1,2,0:0:0:0:
162,208,1151,1,2,0:0:0:0:
30,261,1312,6,0,L|-3:258,4,30.0000011444092,2|0|0|0|2,0:0|0:0|0:0|0:0|0:0,0:0:0:0:
48,236,1796,1,2,0:0:0:0:
156,299,1957,2,0,L|189:296,4,30.0000011444092,2|0|0|0|2,0:0|0:0|0:0|0:0|0:0,0:0:0:0:
138,274,2441,1,2,0:0:0:0:
35,353,2603,6,0,L|2:350,4,30.0000011444092,2|0|0|0|2,0:0|0:0|0:0|0:0|0:0,0:0:0:0:
53,328,3087,1,2,0:0:0:0:
177,369,3248,1,2,0:0:0:0:
190,366,3328,1,2,0:0:0:0:
205,365,3409,1,2,0:0:0:0:
220,363,3489,1,2,0:0:0:0:
235,361,3570,1,2,0:0:0:0:
292,298,3732,1,2,0:0:0:0:
410,343,3893,6,0,L|411:379,4,30.0000011444092,2|0|0|0|2,0:0|0:0|0:0|0:0|0:0,0:0:0:0:
425,325,4377,1,2,0:0:0:0:
351,232,4538,2,0,L|352:196,3,30.0000011444092,2|0|0|0,0:0|0:0|0:0|0:0,0:0:0:0:
437,248,4861,6,0,L|483:245,1,45.0000017166138,2|0,0:1|1:0,0:0:0:0:
508,223,5022,6,0,B|521:177|521:177|505:125,1,90.0000034332277,2|0,0:1|1:0,0:0:0:0:
477,116,5183,6,0,P|470:82|476:49,1,60,2|0,0:1|1:0,0:0:0:0:
268,130,5506,6,0,L|264:209,1,80,6|0,3:2|0:0,0:0:0:0:
356,121,5828,2,0,L|352:42,1,80,10|0,0:0|0:0,0:0:0:0:
169,95,6151,1,2,3:2:0:0:
169,95,6312,1,0,3:0:0:0:
268,24,6474,1,8,0:0:0:0:
193,185,6635,6,0,P|151:187|109:164,1,80,2|0,0:0|3:0,0:0:0:0:
43,50,6957,2,0,L|40:138,1,80,2|8,0:0|0:0,0:0:0:0:
45,308,7280,1,2,0:0:0:0:
148,273,7441,1,2,3:2:0:0:
78,229,7603,1,2,3:2:0:0:
113,349,7764,2,0,L|243:343,1,120,10|0,0:0|1:0,0:0:0:0:
279,288,8086,6,0,L|274:371,1,80,2|0,3:2|0:0,0:0:0:0:
369,243,8409,2,0,L|364:160,1,80,10|0,0:0|0:0,0:0:0:0:
291,363,8732,1,2,3:2:0:0:
291,363,8893,1,0,3:0:0:0:
266,196,9054,1,8,0:0:0:0:
420,314,9215,6,0,L|515:306,2,80,2|2|2,0:0|3:2|0:0,0:0:0:0:
287,272,9699,1,8,0:0:0:0:
451,235,9861,1,2,0:0:0:0:
451,235,9941,1,2,0:0:0:0:
451,235,10022,1,2,3:2:0:0:
379,118,10183,2,0,P|369:160|373:201,1,80,2|8,3:2|0:0,0:0:0:0:
478,148,10506,1,2,3:2:0:0:
361,34,10667,6,0,L|260:43,1,80,2|0,3:2|0:0,0:0:0:0:
156,96,10990,2,0,L|257:105,1,80,10|0,0:0|0:0,0:0:0:0:
298,179,11312,1,2,3:2:0:0:
298,179,11474,1,0,3:0:0:0:
274,28,11635,1,8,0:0:0:0:
175,163,11796,6,0,P|169:202|172:242,1,80,2|0,0:0|3:0,0:0:0:0:
78,118,12119,2,0,P|83:78|80:38,1,80,2|8,0:0|0:0,0:0:0:0:
65,226,12441,1,2,0:0:0:0:
188,148,12603,1,2,3:2:0:0:
10,120,12764,1,2,3:2:0:0:
36,311,12925,2,0,P|75:314|112:301,1,80,10|8,0:0|0:3,0:0:0:0:
132,291,13167,1,8,0:3:0:0:
148,279,13248,5,2,3:2:0:0:
181,159,13409,1,0,3:0:0:0:
239,364,13570,2,0,B|299:363|299:363|332:331|332:331|389:331,1,160,14|2,0:0|3:2,0:0:0:0:
479,233,14054,1,0,3:0:0:0:
311,244,14215,1,8,0:0:0:0:
462,334,14377,6,0,L|479:256,2,80,2|2|2,0:0|3:2|0:0,0:0:0:0:
300,235,14861,1,8,0:0:0:0:
380,116,15022,1,2,0:0:0:0:
380,116,15103,1,2,0:0:0:0:
380,116,15183,2,0,P|422:104|462:109,1,80,10|0,0:3|0:0,0:0:0:0:
477,116,15425,1,8,0:0:0:0:
488,127,15506,1,8,0:0:0:0:
423,17,15667,1,10,0:3:0:0:
241,184,15828,6,0,L|70:175,1,150.000005722046,6|0,3:2|1:0,0:0:0:0:
54,122,16312,2,0,P|61:146|59:167,1,40,2|2,0:0|0:0,0:0:0:0:
43,356,16474,1,6,3:2:0:0:
43,356,17119,6,0,L|110:352,1,60.0000022888184,0|0,3:0|0:0,0:0:0:0:
140,277,17441,2,0,L|190:321,1,60.0000022888184,8|0,0:0|0:0,0:0:0:0:
263,286,17764,2,0,L|266:353,1,60.0000022888184,0|0,3:0|3:0,0:0:0:0:
340,231,18086,1,8,0:0:0:0:
374,344,18248,2,0,P|403:345|433:340,1,60.0000022888184,0|0,0:0|3:0,0:0:0:0:
496,225,18570,1,0,0:0:0:0:
496,225,18732,2,0,L|491:290,1,60.0000022888184,8|0,0:0|0:0,0:0:0:0:
406,176,19054,2,0,L|410:235,1,60.0000022888184,0|0,3:0|3:0,0:0:0:0:
488,120,19377,2,0,P|492:88|483:60,1,60.0000022888184,8|0,0:0|0:0,0:0:0:0:
280,72,19699,6,0,P|349:88|404:72,1,120.000004577637,0|8,3:0|0:0,0:0:0:0:
316,183,20183,1,0,0:0:0:0:
316,183,20344,2,0,L|252:180,1,60.0000022888184,0|0,3:0|3:0,0:0:0:0:
197,85,20667,1,8,0:0:0:0:
158,186,20828,2,0,P|157:215|164:245,2,60.0000022888184,0|0|0,0:0|3:0|0:0,0:0:0:0:
210,70,21312,2,0,P|219:41|216:11,1,60.0000022888184,8|0,0:0|0:0,0:0:0:0:
76,74,21635,1,0,3:0:0:0:
76,74,21796,1,0,3:0:0:0:
83,168,21957,1,8,0:0:0:0:
83,168,22119,1,0,3:0:0:0:
0,301,22280,6,0,P|32:300|65:289,1,60.0000022888184,0|0,3:0|0:0,0:0:0:0:
102,367,22603,2,0,P|123:343|139:312,1,60.0000022888184,8|0,0:0|0:0,0:0:0:0:
218,331,22925,2,0,P|216:299|206:266,1,60.0000022888184,0|0,3:0|3:0,0:0:0:0:
297,244,23248,1,8,0:0:0:0:
332,362,23409,2,0,L|393:357,1,60.0000022888184,0|0,0:0|3:0,0:0:0:0:
453,297,23732,1,0,0:0:0:0:
453,297,23893,2,0,P|461:268|459:229,1,60.0000022888184,8|0,0:0|0:0,0:0:0:0:
372,182,24215,2,0,L|304:188,1,60.0000022888184,0|0,3:0|3:0,0:0:0:0:
443,122,24538,2,0,L|502:127,1,60.0000022888184,8|0,0:0|0:0,0:0:0:0:
308,8,24861,6,0,P|286:63|293:122,1,120.000004577637,0|8,3:0|0:0,0:0:0:0:
229,242,25344,2,0,P|235:182|214:127,1,120.000004577637,0|0,0:0|3:0,0:0:0:0:
129,16,25828,1,8,0:0:0:0:
218,54,25990,1,0,0:0:0:0:
58,93,26151,2,0,L|-1:81,1,60.0000022888184,0|0,3:0|0:0,0:0:0:0:
141,162,26474,1,8,0:0:0:0:
141,162,26635,1,0,0:0:0:0:
58,228,26796,2,0,P|46:199|46:169,1,60.0000022888184,0|0,3:0|3:0,0:0:0:0:
144,250,27119,2,0,L|152:318,1,60.0000022888184,8|0,0:0|0:0,0:0:0:0:
138,333,27361,1,8,0:0:0:0:
138,333,27441,5,12,0:0:0:0:
336,201,27603,1,0,3:0:0:0:
359,344,27764,1,0,3:0:0:0:
467,147,27925,5,8,0:3:0:0:
269,279,28087,1,0,3:0:0:0:
246,136,28248,1,0,3:0:0:0:
424,238,28409,5,8,0:3:0:0:
301,38,28570,1,0,3:0:0:0:
218,212,28732,1,0,3:0:0:0:
178,34,28893,5,4,0:3:0:0:
326,219,29054,1,0,3:0:0:0:
397,47,29215,1,0,3:0:0:0:
397,47,29377,6,0,L|396:67,1,20,0|0,1:0|1:0,0:0:0:0:
396,66,30022,6,0,B|345:51|345:51|270:73,1,120.000004577637,4|0,3:2|0:0,0:0:0:0:
262,143,30506,1,0,3:0:0:0:
159,14,30667,2,0,B|174:91|174:91|158:129,1,120.000004577637,8|0,0:0|0:0,0:0:0:0:
31,99,31151,2,0,B|28:67|28:67|38:42,1,60.0000022888184
92,160,31474,1,0,0:0:0:0:
92,160,31635,2,0,B|95:192|95:192|85:217,1,60.0000022888184,0|0,3:0|3:0,0:0:0:0:
84,354,31957,1,8,0:0:0:0:
6,326,32119,2,0,L|71:331,1,60.0000022888184,0|0,3:0|0:0,0:0:0:0:
102,227,32441,1,8,0:0:0:0:
209,359,32603,6,0,B|254:358|254:358|280:340|280:340|323:340,1,120.000004577637,0|0,3:0|0:0,0:0:0:0:
434,306,33086,1,0,3:0:0:0:
434,306,33248,2,0,L|428:379,2,60.0000022888184,8|0|8,0:0|0:0|0:0,0:0:0:0:
360,253,33732,2,0,B|330:248|330:248|296:254,1,60.0000022888184,0|0,3:0|0:0,0:0:0:0:
439,201,34054,1,8,0:0:0:0:
439,201,34215,2,0,B|469:206|469:206|503:200,1,60.0000022888184,0|0,3:0|3:0,0:0:0:0:
363,114,34538,2,0,L|356:177,1,60.0000022888184,8|0,0:0|0:0,0:0:0:0:
462,87,34861,1,8,0:3:0:0:
304,36,35022,1,8,0:0:0:0:
304,36,35103,1,8,0:0:0:0:
304,36,35183,6,0,B|272:60|272:60|186:50,1,120.000004577637,0|0,3:0|0:0,0:0:0:0:
46,25,35667,2,0,L|46:69,1,30.0000011444092,0|0,3:0|3:0,0:0:0:0:
79,138,35828,6,0,P|99:70|39:87,1,160,12|0,0:0|0:0,0:0:0:0:
108,210,36312,2,0,B|137:204|137:204|173:208,1,60.0000022888184
95,280,36635,1,8,0:0:0:0:
95,280,36796,2,0,B|66:286|66:286|35:282,1,60.0000022888184,0|0,3:0|3:0,0:0:0:0:
236,289,37119,1,8,0:0:0:0:
211,359,37280,2,0,L|215:287,1,60.0000022888184,0|0,3:0|0:0,0:0:0:0:
248,217,37603,1,8,0:0:0:0:
316,344,37764,6,0,L|452:338,1,120.000004577637,0|0,3:0|0:0,0:0:0:0:
482,251,38248,1,0,3:0:0:0:
397,182,38409,2,0,B|390:213|390:213|394:244,2,60.0000022888184,8|0|0,0:0|3:0|0:0,0:0:0:0:
466,114,38893,1,0,3:0:0:0:
320,188,39054,6,0,P|290:188|260:180,1,58.6666684570313,8|0,0:0|1:0,0:0:0:0:
145,158,39269,2,0,P|175:158|206:149,1,53.3333333333333,8|0,0:3|1:0,0:0:0:0:
306,113,39484,2,0,P|280:113|254:106,1,47.9999985351563,4|0,0:3|1:0,0:0:0:0:
208,16,39699,6,0,L|205:143,1,120.000004577637,8|0,0:0|0:0,0:0:0:0:
61,192,40344,5,12,0:0:0:0:
214,275,40506,1,0,3:0:0:0:
320,188,40667,1,0,3:0:0:0:
35,274,40828,5,8,0:3:0:0:
164,200,40990,1,0,3:0:0:0:
296,284,41151,1,0,3:0:0:0:
128,294,41312,5,8,0:3:0:0:
368,247,41474,1,0,3:0:0:0:
256,362,41635,1,0,3:0:0:0:
465,325,41796,5,4,0:3:0:0:
245,209,41957,1,0,3:0:0:0:
331,359,42119,1,0,3:0:0:0:
476,248,42280,6,0,P|483:209|472:171,1,80,8|0,0:0|3:0,0:0:0:0:
418,0,42603,2,0,P|407:38|414:77,1,80,8|0,0:3|3:0,0:0:0:0:
381,292,42925,6,0,B|353:228|356:151|356:151|341:192|298:211,1,224,4|0,3:2|3:0,0:0:0:0:
288,215,44135,1,0,3:0:0:0:
273,219,44215,1,8,0:0:0:0:
169,33,44538,5,8,0:3:0:0:
169,33,44646,2,8,L|239:26,1,53.3333333333333,8|8,0:3|0:3,0:3:0:0:
263,136,44861,5,8,0:3:0:0:
257,151,45076,1,8,0:3:0:0:
187,177,45183,1,4,0:3:0:0:
121,155,45291,1,4,0:3:0:0:
102,127,45398,1,4,0:3:0:0:
93,105,45506,6,0,L|96:197,1,80.0000030517579,4|0,3:2|0:0,0:0:0:0:
39,261,45828,2,0,P|80:254|128:266,1,80.0000030517579,8|0,0:0|0:0,0:0:0:0:
117,345,46151,2,0,P|158:352|206:340,1,80.0000030517579,0|0,3:0|0:0,0:0:0:0:
271,262,46474,2,0,L|272:361,1,80.0000030517579,8|0,0:0|0:0,0:0:0:0:
377,339,46796,5,0,3:0:0:0:
471,283,47011,1,0,0:0:0:0:
487,292,47119,1,8,0:0:0:0:
384,234,47334,1,0,3:0:0:0:
384,234,47441,2,0,L|391:144,1,80.0000030517579,0|0,3:0|0:0,0:0:0:0:
457,71,47764,2,0,L|464:161,1,80.0000030517579,8|0,0:0|0:0,0:0:0:0:
380,56,48086,6,0,L|297:50,1,80.0000030517579,0|0,3:0|0:0,0:0:0:0:
311,152,48409,2,0,L|228:158,1,80.0000030517579,8|0,0:0|0:0,0:0:0:0:
160,45,48732,2,0,P|142:80|143:132,1,90.0000034332277,0|0,3:0|0:0,0:0:0:0:
48,141,49054,2,0,P|66:176|65:228,1,80.0000030517579,8|0,0:0|0:0,0:0:0:0:
87,314,49377,6,0,L|7:321,1,80.0000030517579,0|0,3:0|0:0,0:0:0:0:
156,217,49699,1,8,0:0:0:0:
171,361,49914,1,0,3:0:0:0:
171,361,50022,2,0,P|211:369|263:355,1,80.0000030517579,0|0,3:0|0:0,0:0:0:0:
268,234,50344,2,0,P|306:226|346:233,1,80.0000030517579,8|0,0:0|0:0,0:0:0:0:
484,355,50667,6,0,L|475:246,1,95.9999970703126,0|0,3:0|0:0,0:0:0:0:
420,103,50990,2,0,L|411:212,1,95.9999970703126,8|0,3:2|0:0,0:0:0:0:
352,368,51312,2,0,L|343:259,1,95.9999970703126,0|0,3:0|0:0,0:0:0:0:
295,66,51635,2,0,L|286:175,1,95.9999970703126,8|0,3:2|0:0,0:0:0:0:
200,345,51957,5,8,3:0:0:0:
16,180,52172,1,0,0:0:0:0:
5,187,52280,1,8,3:0:0:0:
208,100,52495,1,0,0:0:0:0:
208,100,52603,6,0,L|214:158,1,53.3333333333333,0|8,3:0|0:0,0:0:0:0:
224,238,52818,1,8,0:0:0:0:
98,124,52925,2,0,L|91:191,1,63.9999980468751,0|8,3:0|0:0,0:0:0:0:
81,282,53140,1,8,0:0:0:0:
5,91,53248,5,2,0:0:0:0:
68,28,53409,1,2,0:0:0:0:
72,47,53570,1,2,0:0:0:0:
151,58,53732,1,2,0:0:0:0:
159,39,53893,1,2,0:0:0:0:
166,21,54054,1,2,0:0:0:0:
242,41,54215,2,0,P|261:43|288:37,3,32,2|2|2|2,0:0|0:0|0:0|0:0,0:0:0:0:
386,13,54861,6,0,L|389:48,1,32,2|2,0:0|0:0,0:0:0:0:
451,70,55183,6,0,L|432:107,1,40,2|2,0:0|0:0,0:0:0:0:
490,144,55506,6,0,L|449:173,1,47.9999985351563,2|2,0:0|0:0,0:0:0:0:
427,288,55828,6,0,L|394:285,1,23.9999992675781,0|0,0:0|1:0,0:0:0:0:
378,284,55990,1,8,0:0:0:0:
378,284,56070,1,8,0:0:0:0:
378,284,56151,1,8,0:0:0:0:
378,305,56232,1,8,0:0:0:0:
380,326,56312,1,8,0:0:0:0:
381,347,56393,1,8,0:0:0:0:
382,368,56474,5,8,0:0:0:0:
340,350,56554,1,8,0:0:0:0:
295,338,56635,1,8,0:0:0:0:
249,336,56715,1,8,0:0:0:0:
205,349,56796,1,8,0:0:0:0:
161,374,56877,1,8,0:0:0:0:
115,375,56957,1,8,0:0:0:0:
71,360,57038,1,8,0:0:0:0:
41,326,57119,6,0,B|34:286|46:250|46:250|84:239|84:239|138:147|73:47|73:47|26:100|26:100|52:134|38:185,1,480.000018310548,4|0,3:1|0:0,0:0:0:0:
309,117,58409,6,0,P|311:77|302:38,1,80,4|0,3:2|0:0,0:0:0:0:
154,104,58732,1,8,0:0:0:0:
242,204,58893,2,0,L|323:211,1,80,0|0,0:0|3:0,0:0:0:0:
471,109,59215,2,0,L|391:116,1,80,0|8,3:0|0:0,0:0:0:0:
496,279,59538,6,0,P|499:240|484:200,1,80,0|0,0:0|3:0,0:0:0:0:
334,293,59861,2,0,P|320:330|322:369,1,80,0|8,0:0|0:0,0:0:0:0:
505,266,60183,2,0,P|508:227|493:187,1,80,0|0,0:0|3:0,0:0:0:0:
440,342,60506,1,0,3:0:0:0:
372,203,60667,2,0,P|332:201|294:215,1,80,8|0,0:0|0:0,0:0:0:0:
215,378,60990,6,0,L|224:297,1,80,0|0,3:0|0:0,0:0:0:0:
120,246,61312,2,0,L|129:327,1,80,8|0,0:0|0:0,0:0:0:0:
192,130,61635,1,0,3:0:0:0:
192,130,61796,1,0,3:0:0:0:
32,183,61957,2,0,L|23:264,1,80,8|0,0:0|0:0,0:0:0:0:
100,24,62280,2,0,P|60:16|21:23,1,80,0|0,3:0|0:0,0:0:0:0:
102,149,62603,2,0,P|141:156|180:149,1,80,8|0,0:0|0:0,0:0:0:0:
426,74,62925,5,0,3:0:0:0:
334,266,63086,1,0,3:0:0:0:
250,34,63248,1,8,0:0:0:0:
512,127,63409,1,0,3:0:0:0:
265,202,63570,6,0,P|257:162|264:122,1,80,4|0,3:2|0:0,0:0:0:0:
431,177,63893,1,8,0:0:0:0:
319,283,64054,2,0,L|236:276,1,80,0|0,0:0|3:0,0:0:0:0:
414,372,64377,2,0,L|497:365,1,80,0|8,3:0|0:0,0:0:0:0:
419,172,64699,6,0,P|411:211|417:251,1,80,0|0,0:0|3:0,0:0:0:0:
323,382,65022,2,0,P|331:343|326:303,1,80,0|8,0:0|0:0,0:0:0:0:
275,200,65344,2,0,P|235:194|196:203,1,80,0|0,0:0|3:0,0:0:0:0:
29,255,65667,1,0,3:0:0:0:
132,332,65828,2,0,L|132:212,1,120,8|0,0:0|1:0,0:0:0:0:
160,141,66151,6,0,P|113:165|13:136,1,160,0|8,3:0|0:0,0:0:0:0:
90,58,66635,1,0,0:0:0:0:
164,160,66796,1,0,3:0:0:0:
164,160,66957,1,0,3:0:0:0:
264,42,67119,2,0,P|224:34|184:35,1,80,8|0,0:0|0:0,0:0:0:0:
363,168,67441,6,0,L|379:2,1,160,0|8,3:0|0:0,0:0:0:0:
259,142,67925,1,0,3:0:0:0:
471,121,68086,1,0,3:0:0:0:
482,118,68248,1,8,0:0:0:0:
263,217,68409,1,8,0:0:0:0:
301,71,68570,1,0,3:0:0:0:
427,269,68732,6,0,P|462:261|505:259,1,71.9999978027344,4|0,3:2|0:0,0:0:0:0:
378,192,69054,1,8,0:0:0:0:
378,192,69215,1,0,0:0:0:0:
302,344,69377,2,0,P|337:352|380:354,1,71.9999978027344,0|0,3:0|0:0,0:0:0:0:
292,215,69699,1,8,0:0:0:0:
292,215,69860,1,0,0:0:0:0:
172,289,70022,6,0,L|166:360,1,71.9999978027344,0|0,3:0|0:0,0:0:0:0:
185,376,70264,1,0,0:0:0:0:
185,376,70344,1,8,0:0:0:0:
151,202,70506,1,0,0:0:0:0:
81,332,70667,2,0,P|42:337|0:325,1,71.9999978027344,0|0,3:0|0:0,0:0:0:0:
197,281,70990,1,8,0:0:0:0:
40,222,71151,1,0,0:0:0:0:
172,84,71312,6,0,P|190:143|165:224,1,143.999995605469,0|8,3:0|0:0,0:0:0:0:
67,149,71796,1,0,0:0:0:0:
105,21,71957,2,0,P|139:12|175:10,1,71.9999978027344,0|0,3:0|0:0,0:0:0:0:
240,145,72280,1,8,0:0:0:0:
240,145,72441,1,0,0:0:0:0:
356,89,72603,6,0,L|348:17,1,71.9999978027344,0|0,3:0|0:0,0:0:0:0:
459,168,72925,2,0,L|466:96,1,71.9999978027344,8|0,0:0|0:0,0:0:0:0:
322,197,73248,1,0,3:0:0:0:
495,239,73409,1,0,0:0:0:0:
360,351,73570,1,8,0:0:0:0:
360,351,73893,6,0,P|323:358|282:347,1,71.9999978027344,0|0,3:0|0:0,0:0:0:0:
249,221,74215,1,8,0:0:0:0:
249,221,74377,1,0,0:0:0:0:
204,368,74538,2,0,P|168:355|138:325,1,71.9999978027344,0|0,3:0|0:0,0:0:0:0:
167,183,74861,1,8,0:0:0:0:
167,183,75022,1,0,0:0:0:0:
51,246,75183,6,0,L|61:326,1,71.9999978027344,0|0,3:0|0:0,0:0:0:0:
50,353,75425,1,0,0:0:0:0:
50,353,75506,1,8,0:0:0:0:
176,167,75667,1,0,0:0:0:0:
75,91,75828,2,0,P|36:85|2:94,1,71.9999978027344,0|0,3:0|0:0,0:0:0:0:
189,29,76151,1,8,0:0:0:0:
189,29,76232,1,8,0:0:0:0:
189,29,76312,2,0,L|187:70,1,35.9999989013672,8|0,0:3|0:0,0:0:0:0:
165,156,76474,6,0,L|257:152,1,88.000002685547,4|0,3:2|0:0,0:0:0:0:
473,199,76796,2,0,L|381:195,1,88.000002685547,8|0,0:0|0:0,0:0:0:0:
263,40,77119,1,0,3:0:0:0:
296,293,77280,1,8,0:0:0:0:
382,110,77441,1,8,0:0:0:0:
216,235,77603,1,0,3:0:0:0:
401,316,77764,6,0,P|448:306|503:308,1,95.9999970703126,4|0,3:2|0:0,0:0:0:0:
209,376,78248,5,8,0:3:0:0:
209,376,78328,1,4,0:3:0:0:
209,376,78409,2,0,P|147:369|108:302,1,143.999995605469,4|0,3:2|0:0,0:0:0:0:
200,82,79054,5,4,3:2:0:0:
256,192,79135,12,0,81635,0:0:0:0:
176,127,84054,5,2,3:2:0:0:
79,176,84215,2,0,L|-8:172,1,80,2|0,3:2|0:0,0:0:0:0:
170,258,84538,2,0,L|257:254,1,80,10|0,0:0|0:0,0:0:0:0:
171,139,84861,1,2,3:2:0:0:
171,139,85022,1,0,3:0:0:0:
84,278,85183,1,8,0:0:0:0:
39,68,85344,6,0,P|78:69|117:80,1,80,2|0,0:0|3:0,0:0:0:0:
271,33,85667,2,0,P|230:44|177:43,1,80,2|8,0:0|0:0,0:0:0:0:
93,175,85990,1,2,0:0:0:0:
288,136,86151,1,2,3:2:0:0:
179,27,86312,1,2,3:2:0:0:
182,220,86474,2,0,L|265:210,1,80,10|0,0:0|0:0,0:0:0:0:
284,209,86715,1,8,0:0:0:0:
306,206,86796,5,2,3:2:0:0:
349,34,86957,1,0,3:0:0:0:
408,243,87119,2,0,P|488:221|474:158,1,160,10|2,0:0|3:2,0:0:0:0:
306,206,87603,1,0,3:0:0:0:
486,320,87764,1,8,0:0:0:0:
333,346,87925,1,2,0:0:0:0:
333,346,88006,1,2,0:0:0:0:
333,346,88086,6,0,L|290:343,1,40,10|0,0:0|0:0,0:0:0:0:
177,217,88248,2,0,L|216:214,1,40,8|0,0:3|0:0,0:0:0:0:
335,175,88409,2,0,L|332:218,1,40,8|0,0:3|0:0,0:0:0:0:
200,354,88570,2,0,L|197:311,1,40,4|0,0:3|0:0,0:0:0:0:
168,54,88732,5,10,0:0:0:0:
160,41,89377,6,0,B|205:21|205:21|274:41,1,120.000004577637,4|0,3:2|0:0,0:0:0:0:
283,145,89861,1,0,3:0:0:0:
67,24,90022,2,0,L|59:144,1,120.000004577637,8|0,0:0|0:0,0:0:0:0:
225,207,90506,1,0,3:0:0:0:
61,324,90828,2,0,P|35:315|-4:313,2,60.0000022888184,0|0|0,0:0|3:0|0:0,0:0:0:0:
255,362,91312,1,8,0:0:0:0:
278,357,91635,1,0,0:0:0:0:
300,351,91957,6,0,L|308:218,1,120.000004577637,0|0,3:0|0:0,0:0:0:0:
366,123,92441,1,0,3:0:0:0:
438,253,92603,2,0,B|412:262|412:262|379:258,1,60.0000022888184,8|0,0:0|0:0,0:0:0:0:
444,132,92925,2,0,B|477:128|477:128|502:137,1,60.0000022888184,0|0,0:0|3:0,0:0:0:0:
345,27,93248,1,0,0:0:0:0:
332,14,93570,1,0,3:0:0:0:
139,73,93732,1,0,3:0:0:0:
230,150,93893,2,0,B|248:95|248:95|237:31,1,120.000004577637,8|0,0:0|0:0,0:0:0:0:
161,244,94538,6,0,L|31:237,1,120.000004577637,0|0,3:0|0:0,0:0:0:0:
126,141,95022,1,0,3:0:0:0:
264,241,95183,2,0,B|277:303|277:303|248:362,1,120.000004577637,8|0,0:0|0:0,0:0:0:0:
175,221,95667,1,0,3:0:0:0:
132,364,95990,2,0,P|102:367|73:361,2,60.0000022888184,0|0|0,0:0|3:0|0:0,0:0:0:0:
365,336,96474,1,8,0:0:0:0:
370,319,96796,1,0,0:0:0:0:
376,301,97119,6,0,B|471:288|471:288|454:325,1,120.000004577637,0|0,3:0|0:0,0:0:0:0:
435,158,97603,1,0,3:0:0:0:
255,292,97764,2,0,B|160:279|160:279|177:316,1,120.000004577637,8|0,0:0|0:0,0:0:0:0:
212,54,98247,1,0,3:0:0:0:
212,54,98328,1,0,3:0:0:0:
212,54,98409,6,0,L|220:24,1,26.6666666666667,0|0,3:2|1:0,0:0:0:0:
196,175,98624,2,0,L|217:196,1,26.6666666666667,0|0,3:2|1:0,0:0:0:0:
118,108,98839,2,0,L|88:116,1,26.6666666666667,0|0,3:2|1:0,0:0:0:0:
402,76,99054,5,8,0:0:0:0:
411,64,99215,2,0,L|408:35,3,26.6666666666667,8|8|4|0,0:3|0:3|0:3|3:0,0:0:0:0:
312,341,99699,5,12,0:0:0:0:
432,165,99861,1,0,3:0:0:0:
488,288,100022,1,0,3:0:0:0:
345,178,100183,5,8,0:3:0:0:
225,354,100345,1,0,3:0:0:0:
169,231,100506,1,0,3:0:0:0:
359,277,100667,5,8,0:3:0:0:
123,326,100828,1,0,3:0:0:0:
228,163,100990,1,0,3:0:0:0:
24,195,101151,5,4,0:3:0:0:
260,244,101312,1,0,3:0:0:0:
155,81,101474,1,0,3:0:0:0:
108,317,101635,6,0,P|103:275|105:237,1,80,8|0,0:0|3:0,0:0:0:0:
172,6,101957,2,0,P|177:48|174:85,1,80,8|0,0:3|3:0,0:0:0:0:
42,196,102280,6,0,B|126:154|202:201|202:201|178:199|137:211,1,224,4|0,3:2|3:0,0:0:0:0:
128,221,103490,1,0,3:0:0:0:
115,235,103570,1,8,0:0:0:0:
296,337,103893,5,8,0:3:0:0:
296,337,104000,2,0,L|352:330,1,53.3333333333333,8|8,0:0|0:0,0:0:0:0:
444,261,104215,5,8,0:0:0:0:
456,272,104323,2,0,L|489:273,2,26.6666666666667,0|0|8,0:0|0:0|0:0,0:0:0:0:
429,144,104538,1,4,0:3:0:0:
433,131,104646,1,4,0:3:0:0:
437,119,104753,1,4,0:3:0:0:
438,107,104861,6,0,P|400:120|360:112,1,80.0000030517579,4|0,3:2|0:0,0:0:0:0:
273,37,105183,2,0,P|311:29|349:42,1,80.0000030517579,8|0,0:0|0:0,0:0:0:0:
274,187,105506,2,0,L|263:107,1,80.0000030517579,0|0,3:0|0:0,0:0:0:0:
194,22,105828,2,0,L|183:101,1,80.0000030517579,8|0,0:0|0:0,0:0:0:0:
50,123,106151,5,0,3:0:0:0:
177,188,106366,1,0,0:0:0:0:
197,184,106474,1,8,0:0:0:0:
52,279,106689,1,0,3:0:0:0:
52,279,106796,2,0,P|46:241|58:196,1,80.0000030517579,0|0,3:0|0:0,0:0:0:0:
139,340,107119,2,0,P|148:301|142:262,1,80.0000030517579,8|0,0:0|0:0,0:0:0:0:
230,255,107441,6,0,L|317:267,1,80.0000030517579,0|0,3:0|0:0,0:0:0:0:
321,360,107764,2,0,L|408:348,1,80.0000030517579,8|0,0:0|0:0,0:0:0:0:
400,178,108086,2,0,L|389:260,1,80.0000030517579,0|0,3:0|0:0,0:0:0:0:
487,334,108409,2,0,L|476:252,1,80.0000030517579,8|0,0:0|0:0,0:0:0:0:
254,172,108732,5,0,3:0:0:0:
504,143,109054,1,8,0:0:0:0:
363,20,109269,1,0,3:0:0:0:
363,20,109377,2,0,P|320:16|283:27,1,80.0000030517579,0|0,3:0|0:0,0:0:0:0:
260,163,109699,2,0,P|220:167|182:157,1,80.0000030517579,8|0,0:0|0:0,0:0:0:0:
90,61,110022,6,0,P|102:104|96:172,1,95.9999970703126,0|0,3:0|0:0,0:0:0:0:
38,299,110344,2,0,P|26:256|32:188,1,95.9999970703126,8|0,3:2|0:0,0:0:0:0:
186,42,110667,2,0,P|198:85|192:153,1,95.9999970703126,0|0,3:0|0:0,0:0:0:0:
155,329,110989,2,0,P|143:286|149:218,1,95.9999970703126,8|0,3:2|0:0,0:0:0:0:
296,104,111312,5,8,3:0:0:0:
249,339,111527,1,0,0:0:0:0:
253,361,111635,1,8,3:0:0:0:
441,218,111850,1,0,0:0:0:0:
441,218,111957,6,0,P|446:247|442:271,1,53.3333333333333,0|8,3:0|0:0,0:0:0:0:
422,357,112172,1,8,0:0:0:0:
318,179,112280,2,0,P|311:215|316:244,1,63.9999980468751,0|8,3:0|0:0,0:0:0:0:
334,345,112495,1,8,0:0:0:0:
475,52,112603,5,2,0:0:0:0:
414,104,112764,1,2,0:0:0:0:
399,99,112925,1,2,0:0:0:0:
347,33,113086,1,2,0:0:0:0:
331,38,113248,1,2,0:0:0:0:
316,44,113409,1,2,0:0:0:0:
253,111,113570,2,0,L|250:78,3,32,2|2|2|2,0:0|0:0|0:0|0:0,0:0:0:0:
88,27,114215,6,0,P|73:17|52:9,1,32,2|2,0:0|0:0,0:0:0:0:
119,107,114538,6,0,P|134:99|151:85,1,40,2|2,0:0|0:0,0:0:0:0:
35,88,114861,6,0,P|33:109|38:135,1,47.9999985351563,2|2,0:0|0:0,0:0:0:0:
49,291,115183,6,0,L|89:288,1,23.9999992675781,0|0,0:0|1:0,0:0:0:0:
101,285,115344,1,8,0:0:0:0:
101,285,115425,1,8,0:0:0:0:
101,285,115506,1,8,0:0:0:0:
108,304,115586,1,8,0:0:0:0:
110,325,115667,1,8,0:0:0:0:
106,346,115748,1,8,0:0:0:0:
100,366,115828,5,8,0:0:0:0:
143,381,115909,1,8,0:0:0:0:
184,362,115990,1,8,0:0:0:0:
221,336,116070,1,8,0:0:0:0:
265,326,116151,1,8,0:0:0:0:
310,328,116232,1,8,0:0:0:0:
355,337,116312,1,8,0:0:0:0:
394,364,116393,1,8,0:0:0:0:
439,363,116474,6,0,B|477:192|477:192|461:120|461:120|423:118|384:97|384:97|405:188|405:188|392:248,1,480.000018310548,4|0,3:1|3:0,0:0:0:0:
281,16,117361,5,8,0:0:0:0:
281,16,117441,1,8,0:0:0:0:
74,66,117603,1,8,0:0:0:0:
270,192,117764,6,0,P|270:152|256:114,1,80,4|0,3:2|0:0,0:0:0:0:
157,32,118086,1,8,0:0:0:0:
79,147,118248,2,0,L|-1:143,1,80,0|0,0:0|3:0,0:0:0:0:
192,218,118570,2,0,L|271:214,1,80,0|8,3:0|0:0,0:0:0:0:
62,218,118893,6,0,P|47:255|49:294,1,80,0|0,0:0|3:0,0:0:0:0:
210,310,119215,2,0,P|184:279|149:260,1,80,0|8,0:0|0:0,0:0:0:0:
57,384,119538,2,0,P|96:377|129:356,1,80,0|0,0:0|3:0,0:0:0:0:
179,192,119861,1,0,3:0:0:0:
280,284,120022,2,0,L|374:275,1,80,8|0,0:0|0:0,0:0:0:0:
428,98,120344,6,0,P|421:137|424:177,1,80,0|0,3:0|0:0,0:0:0:0:
380,346,120667,2,0,P|382:306|376:266,1,80,8|0,0:0|0:0,0:0:0:0:
351,90,120990,1,0,3:0:0:0:
351,90,121151,1,0,3:0:0:0:
262,201,121312,2,0,L|182:200,1,80,8|0,0:0|0:0,0:0:0:0:
147,44,121635,2,0,P|184:32|224:36,1,80,0|0,3:0|0:0,0:0:0:0:
91,155,121957,2,0,P|51:158|13:147,1,80,8|0,0:0|3:0,0:0:0:0:
292,103,122280,5,0,3:0:0:0:
108,168,122441,1,0,3:0:0:0:
305,212,122603,1,8,0:0:0:0:
214,47,122764,1,0,3:0:0:0:
126,248,122925,6,0,P|87:239|47:241,1,80,4|0,3:2|0:0,0:0:0:0:
79,363,123248,1,8,0:0:0:0:
209,241,123409,2,0,L|205:161,1,80,0|0,0:0|3:0,0:0:0:0:
262,355,123732,2,0,P|221:371|174:361,1,80,0|8,3:0|0:0,0:0:0:0:
362,244,124054,2,0,P|321:228|274:238,1,80,0|0,0:0|3:0,0:0:0:0:
440,373,124377,2,0,L|447:293,1,80,0|8,0:0|0:0,0:0:0:0:
370,158,124699,2,0,L|377:237,1,80,0|0,0:0|3:0,0:0:0:0:
484,173,125022,1,0,3:0:0:0:
362,58,125183,2,0,P|308:84|246:68,1,120,8|0,0:0|1:0,0:0:0:0:
224,14,125506,6,0,L|229:184,1,160,0|8,3:0|0:0,0:0:0:0:
17,114,125990,1,0,0:0:0:0:
152,60,126151,1,0,3:0:0:0:
152,60,126312,1,0,3:0:0:0:
90,226,126474,2,0,P|84:186|92:147,1,80,8|0,0:0|0:0,0:0:0:0:
185,306,126796,6,0,L|5:300,1,160,0|8,3:0|0:0,0:0:0:0:
184,191,127280,1,0,3:0:0:0:
243,363,127441,2,0,P|282:367|326:351,1,80,0|8,3:0|0:0,0:0:0:0:
373,175,127764,1,8,0:0:0:0:
271,276,127925,1,0,3:0:0:0:
466,289,128086,6,0,P|465:250|473:209,1,71.9999978027344,4|0,3:2|0:0,0:0:0:0:
479,97,128409,1,8,0:0:0:0:
479,97,128570,1,0,0:0:0:0:
363,263,128732,2,0,P|364:224|356:183,1,71.9999978027344,0|0,3:0|0:0,0:0:0:0:
327,44,129055,1,8,0:0:0:0:
327,44,129216,1,0,0:0:0:0:
160,124,129377,6,0,L|246:119,1,71.9999978027344,0|0,3:0|0:0,0:0:0:0:
264,118,129619,1,0,0:0:0:0:
264,118,129699,1,8,0:0:0:0:
216,9,129861,1,0,0:0:0:0:
46,109,130022,2,0,P|59:161|55:214,1,107.999996704102,0|0,3:0|0:0,0:0:0:0:
43,240,130344,1,8,0:0:0:0:
171,113,130506,1,0,0:0:0:0:
161,363,130667,6,0,L|13:352,2,143.999995605469,0|8|0,3:0|0:0|3:0,0:0:0:0:
244,247,131474,1,0,0:0:0:0:
301,352,131635,2,0,P|338:357|378:346,1,71.9999978027344,8|0,0:0|0:0,0:0:0:0:
465,217,131957,6,0,P|466:251|470:289,1,71.9999978027344,0|0,3:0|0:0,0:0:0:0:
351,152,132280,2,0,P|349:187|346:223,1,71.9999978027344,8|0,0:0|0:0,0:0:0:0:
493,71,132603,1,0,3:0:0:0:
452,205,132764,1,0,0:0:0:0:
313,50,132925,1,8,0:0:0:0:
313,50,133248,6,0,P|264:69|205:61,1,107.999996704102,0|0,3:0|0:0,0:0:0:0:
161,13,133570,2,0,L|171:88,1,71.9999978027344,8|0,0:0|0:0,0:0:0:0:
0,209,133893,2,0,P|49:228|108:220,1,107.999996704102,0|0,3:0|0:0,0:0:0:0:
152,172,134215,2,0,L|142:247,1,71.9999978027344,8|0,0:0|0:0,0:0:0:0:
267,244,134538,5,0,3:0:0:0:
267,244,134699,1,0,0:0:0:0:
108,345,134861,1,8,0:0:0:0:
136,164,135022,1,0,0:0:0:0:
255,332,135183,2,0,P|290:324|325:319,1,71.9999978027344,0|8,3:0|0:3,0:0:0:0:
343,181,135506,1,8,0:3:0:0:
446,331,135667,1,0,0:0:0:0:
446,331,135748,1,8,0:0:0:0:
446,331,135828,6,0,L|457:226,1,88.000002685547,4|0,3:2|0:0,0:0:0:0:
318,104,136151,2,0,L|327:191,1,88.000002685547,8|0,0:0|0:0,0:0:0:0:
509,153,136474,2,0,P|465:153|422:143,1,88.000002685547,0|0,3:0|0:0,0:0:0:0:
279,308,136796,2,0,P|321:297|365:298,1,88.000002685547,8|0,0:0|0:0,0:0:0:0:
234,224,137119,5,4,3:2:0:0:
212,245,137226,2,0,P|182:252|152:251,1,58.6666684570313,8|8,0:3|0:3,0:0:0:0:
162,340,137441,1,8,0:3:0:0:
131,339,137548,2,0,P|104:322|84:300,1,58.6666684570313,8|8,0:3|0:3,0:0:0:0:
20,160,137764,5,0,3:3:0:0:
67,152,137871,1,4,0:3:0:0:
113,143,137979,1,4,0:3:0:0:
207,94,138086,1,4,0:3:0:0:
171,88,138193,1,4,0:3:0:0:
137,81,138301,1,8,0:0:0:0:
43,8,138409,6,0,B|49:64|30:123|30:123|63:168|63:168|41:212|48:263|48:263|14:296|14:296|21:335|13:389,1,400,4|0,3:1|0:0,0:0:0:0:
431,84,142603,5,0,3:0:0:0:
224,38,142764,1,0,3:0:0:0:
435,157,142925,6,0,P|463:19|357:74,1,320,4|0,3:2|0:0,0:0:0:0:
328,362,144861,5,0,0:0:0:0:
328,362,144941,1,0,0:0:0:0:
328,362,145022,1,8,0:0:0:0:
328,362,145103,1,8,0:0:0:0:
328,362,145183,6,0,B|267:346|267:346|213:363,1,120.000004577637,4|0,3:2|0:0,0:0:0:0:
44,370,145667,2,0,B|100:358|100:358|145:314,1,120.000004577637,4|0,3:2|0:0,0:0:0:0:
194,206,146151,2,0,L|201:277,1,60.0000022888184,4|0,3:2|0:0,0:0:0:0:
82,40,146474,5,8,0:0:0:0:
82,40,146554,1,8,0:0:0:0:
82,40,146635,1,8,0:0:0:0:
82,40,146715,1,8,0:0:0:0:
82,40,146796,2,0,P|62:42|42:46,1,40,8|0,0:3|0:0,0:0:0:0:
149,143,146957,2,0,P|129:138|109:136,1,40,8|8,0:0|0:0,0:0:0:0:
189,25,147119,2,0,P|193:44|195:64,1,40,4|0,0:3|0:0,0:0:0:0:
261,151,147280,2,0,P|263:131|267:111,1,40,8|8,0:0|0:0,0:0:0:0:
444,29,147441,6,0,P|438:76|440:133,1,95.9999970703126,4|0,3:2|3:0,0:0:0:0:
258,170,147764,1,8,0:0:0:0:
409,239,147925,2,0,P|456:233|513:235,1,95.9999970703126,0|0,0:0|3:0,0:0:0:0:
358,139,148248,1,0,3:0:0:0:
320,332,148409,2,0,L|224:329,1,95.9999970703126,8|0,0:0|0:0,0:0:0:0:
13,271,148732,2,0,L|109:268,1,95.9999970703126,0|0,3:0|0:0,0:0:0:0:
218,92,149054,1,8,0:0:0:0:
45,196,149215,5,2,3:2:0:0:
45,196,149296,1,2,0:0:0:0:
45,196,149377,1,2,0:0:0:0:
45,196,149457,1,2,0:0:0:0:
45,196,149538,2,0,P|30:149|40:89,1,95.9999970703126,2|8,3:2|0:0,0:0:0:0:
130,31,149861,1,0,0:0:0:0:
177,199,150022,5,0,3:0:0:0:
177,199,150183,1,0,0:0:0:0:
322,59,150344,2,0,L|226:53,1,95.9999970703126,8|0,0:0|0:0,0:0:0:0:
374,200,150667,2,0,P|387:148|386:103,1,95.9999970703126,0|0,3:0|0:0,0:0:0:0:
185,178,150990,1,8,0:0:0:0:
317,322,151151,6,0,L|418:309,1,95.9999970703126,2|0,0:0|3:0,0:0:0:0:
175,259,151474,1,2,0:0:0:0:
434,326,151635,1,8,0:0:0:0:
298,150,151796,1,0,3:0:0:0:
177,354,151957,6,0,B|113:349|93:309|93:309|68:350|8:345,2,191.999994140625,6|8|0,3:2|0:0|3:0,0:0:0:0:
