osu file format v14

[General]
AudioFilename: audio.mp3
AudioLeadIn: 0
PreviewTime: 1121
Countdown: 0
SampleSet: Soft
StackLeniency: 0.3
Mode: 0
LetterboxInBreaks: 0
WidescreenStoryboard: 1

[Editor]
Bookmarks: 17577,38548,57189,75830,99859,101461,101464,120101,120177,138742,176024,234276,293110,306509
DistanceSpacing: 1.1
BeatDivisor: 4
GridSize: 32
TimelineZoom: 1.5

[Metadata]
Title:Bukiyou na Otoko
TitleUnicode:不器用な男
Artist:Iori Kanzaki
ArtistUnicode:カンザキイオリ
Creator:AirinCat
Version:Normal
Source:
Tags:fuju japanese rock jrock clumsy man bukiyo KAMITSUBAKI STUDIO
BeatmapID:3555176
BeatmapSetID:1655854

[Difficulty]
HPDrainRate:3
CircleSize:3.6
OverallDifficulty:4
ApproachRate:6
SliderMultiplier:0.9
SliderTickRate:1

[Events]
//Background and Video events
Video,0,"shinitakunai.mp4"
0,0,"bg.png",0,0
//Break Periods
2,122634,137143
2,234471,252912
//Storyboard Layer 0 (Background)
//Storyboard Layer 1 (Fail)
//Storyboard Layer 2 (Pass)
//Storyboard Layer 3 (Foreground)
//Storyboard Layer 4 (Overlay)
//Storyboard Sound Samples

[TimingPoints]
1266,291.26213592233,4,2,1,30,1,0
1266,-100,4,2,1,30,0,0
9906,-125,4,2,1,30,0,0
10586,-125,4,2,1,30,0,0
16702,-111.111111111111,4,2,1,40,0,0
17576,-100,4,2,1,60,0,0
22236,-100,4,2,1,60,0,0
22528,-100,4,2,1,60,0,0
27770,267.857142857143,4,2,1,60,1,0
27770,-100,4,2,1,60,0,0
27903,288.461538461538,4,2,1,60,1,0
27903,-100,4,2,1,60,0,0
29227,291.26213592233,4,2,1,60,1,0
29227,-100,4,2,1,60,0,0
38547,-111.111111111111,4,2,1,40,0,0
57188,289.156626506025,4,2,1,60,1,0
57188,-100,4,2,1,60,0,0
58344,294.840294840295,4,2,1,60,1,0
58344,-100,4,2,1,60,0,0
59523,291.26213592233,4,2,1,60,1,0
59523,-100,4,2,1,60,0,0
65343,285.714285714286,4,2,1,60,1,0
65343,-100,4,2,1,60,0,0
66485,293.398533007335,4,2,1,60,1,0
66485,-100,4,2,1,60,0,0
67658,295.566502463054,4,2,1,60,1,0
67658,-100,4,2,1,60,0,0
68840,291.26213592233,4,2,1,60,1,0
68840,-100,4,2,1,60,0,0
71168,291.26213592233,4,2,1,60,1,0
71168,-100,4,2,1,60,0,0
73498,291.970802919707,4,2,1,70,1,0
73498,-100,4,2,1,70,0,0
75833,291.26213592233,4,2,1,70,1,1
75833,-100,4,2,1,70,0,1
101464,-100,4,2,1,60,0,0
120173,-100,4,2,1,20,0,0
129420,-111.111111111111,4,2,1,30,0,0
137575,309.278350515464,4,2,1,40,1,0
137575,-100,4,2,1,40,0,0
138193,277.777777777778,4,2,1,40,1,0
138193,-111.111111111111,4,2,1,40,0,0
138748,285.714285714286,4,2,1,40,1,0
138748,-111.111111111111,4,2,1,40,0,0
139319,297.029702970297,4,2,1,40,1,0
139319,-111.111111111111,4,2,1,40,0,0
139913,290.768112430337,4,2,1,40,1,0
139913,-111.111111111111,4,2,1,40,0,0
143402,291.26213592233,4,2,1,40,1,0
143402,-111.111111111111,4,2,1,40,0,0
155052,-100,4,2,1,60,0,0
155926,-100,4,2,1,60,0,0
156806,285.714285714286,4,2,1,50,1,0
156806,-100,4,2,1,50,0,0
157377,289.855072463768,4,2,1,60,1,0
157377,-105.263157894737,4,2,1,60,0,0
158536,291.616038882138,4,2,1,60,1,0
158536,-105.263157894737,4,2,1,60,0,0
162035,291.26213592233,4,2,1,60,1,0
162035,-105.263157894737,4,2,1,60,0,0
166695,293.757649938801,4,2,1,60,1,0
166695,-105.263157894737,4,2,1,60,0,0
167870,290.697674418605,4,2,1,60,1,0
167870,-105.263157894737,4,2,1,60,0,0
171357,-100,4,2,1,50,0,0
171358,291.26213592233,4,2,1,50,1,0
171358,-100,4,2,1,50,0,0
172522,-100,4,2,1,60,0,0
173105,300,4,2,1,60,1,0
173105,-100,4,2,1,60,0,0
173687,-100,4,2,1,70,0,0
173705,284.360189573459,4,2,1,70,1,0
173705,-100,4,2,1,70,0,0
174131,291.26213592233,4,2,1,70,1,0
174131,-100,4,2,1,70,0,0
174567,295.566502463054,4,2,1,70,1,0
174567,-100,4,2,1,70,0,0
175010,288.461538461538,4,2,1,70,1,0
175010,-100,4,2,1,70,0,0
176019,291.26213592233,4,2,1,70,1,1
176019,-100,4,2,1,70,0,1
201650,-100,4,2,1,60,0,0
201941,-100,4,2,1,60,0,0
202232,-100,4,2,1,60,0,0
220290,-100,4,2,1,60,0,0
220580,-100,4,2,1,60,0,0
220873,-100,4,2,1,60,0,0
224659,-111.111111111111,4,2,1,60,0,0
224951,-100,4,2,1,60,0,0
230630,-100,4,2,1,20,0,0
254368,-100,4,2,1,60,0,0
255249,291.970802919708,4,2,1,70,1,1
255249,-100,4,2,1,70,0,1
257584,291.26213592233,4,2,1,70,1,1
257584,-100,4,2,1,70,0,1
259914,289.156626506024,4,2,1,70,1,1
259914,-100,4,2,1,70,0,1
261938,297.029702970297,4,2,1,70,1,1
261938,-100,4,2,1,70,0,1
262235,310.880829015544,4,2,1,70,1,1
262235,-100,4,2,1,70,0,1
262545,283.018867924528,4,2,1,70,1,1
262545,-100,4,2,1,70,0,1
263252,297.029702970297,4,2,1,70,1,1
263394,-100,4,2,1,70,0,1
263994,285.714285714286,4,2,1,70,1,1
263994,-100,4,2,1,70,0,1
264565,291.26213592233,4,2,1,70,1,1
264565,-100,4,2,1,70,0,1
265730,-100,4,2,1,70,0,1
266895,291.26213592233,4,2,1,70,1,1
266895,-100,4,2,1,70,0,1
286700,-100,4,2,1,70,0,0
287283,-100,4,2,1,46,0,1
287865,-100,4,2,1,60,0,0
304176,294.117647058824,4,2,1,60,1,0
305646,279.06976744186,4,2,1,60,1,0
305925,306.122448979592,4,2,1,60,1,0
306511,291.26213592233,4,2,1,30,1,0
306511,-125,4,2,1,30,0,0
314811,-125,4,2,1,10,0,0
319180,-125,4,2,1,5,0,0

[Colours]
Combo1 : 202,224,230
Combo2 : 230,199,231
Combo3 : 221,188,174
Combo4 : 218,214,186
Combo5 : 197,214,192

[HitObjects]
122,358,10586,6,0,L|81:363,1,36,2|0,1:2|0:2,0:2:0:0:
52,340,10877,2,0,L|38:258,1,72,0|0,1:2|1:2,0:2:0:0:
69,195,11460,1,8,1:1:0:0:
144,218,11751,2,0,L|223:204,1,72,2|0,1:2|1:2,0:2:0:0:
292,222,12333,1,0,1:2:0:0:
279,300,12625,2,0,L|290:344,1,36,8|0,1:1|0:2,0:0:0:0:
321,355,12916,5,2,1:2:0:0:
390,317,13207,2,0,L|369:232,1,72,0|0,1:2|1:2,0:2:0:0:
421,184,13790,1,8,1:1:0:0:
354,141,14081,2,0,L|276:160,1,72,2|8,1:2|1:1,0:2:0:0:
238,223,14664,2,0,L|156:207,1,72,8|8,1:1|1:1,0:0:0:0:
102,163,15246,6,0,L|112:120,1,36,2|0,1:2|0:2,0:0:0:0:
94,91,15537,1,0,1:2:0:0:
153,38,15829,2,0,L|237:55,1,72,0|8,1:2|1:1,0:2:0:0:
286,99,16411,1,2,1:2:0:0:
239,175,16702,1,12,0:2:0:0:
322,207,16994,2,0,L|375:194,1,40.4999987640381,8|8,0:2|0:2,0:0:0:0:
384,159,17285,2,0,L|434:166,1,40.4999987640381,8|8,0:2|0:2,0:0:0:0:
470,182,17576,6,0,P|463:225|457:280,1,90,4|8,1:1|0:2,0:2:0:0:
373,323,18159,2,0,L|361:277,2,45,0|2|8,1:2|1:2|0:2,0:0:0:0:
335,355,18596,2,0,P|284:363|235:376,1,90,4|2,1:2|1:2,0:0:0:0:
197,377,19032,1,8,0:2:0:0:
111,326,19324,1,0,1:2:0:0:
123,227,19615,1,8,1:2:0:0:
221,223,19906,6,0,L|326:194,1,90,6|14,1:2|0:2,0:2:0:0:
374,125,20489,2,0,L|358:77,2,45,2|0|2,1:2|1:2|0:2,0:0:0:0:
425,142,20926,1,8,0:2:0:0:
425,142,21071,1,2,0:2:0:0:
484,221,21363,1,8,0:2:0:0:
432,305,21654,2,0,L|381:319,1,45,0|0,1:2|1:2,0:0:0:0:
341,300,21945,1,10,0:2:0:0:
258,355,22236,6,0,P|231:316|245:265,1,90,2|10,1:2|0:2,0:0:0:0:
288,190,22819,2,0,L|337:201,2,45,2|0|2,1:2|1:2|0:2,0:0:0:0:
278,145,23256,1,8,0:2:0:0:
278,145,23401,1,2,0:2:0:0:
181,170,23693,1,8,0:2:0:0:
94,122,23984,2,0,L|47:112,1,45,2|0,1:2|1:2,0:0:0:0:
22,71,24275,1,8,0:2:0:0:
88,0,24566,6,0,P|134:8|182:18,1,90,6|10,1:2|0:2,0:0:0:0:
269,51,25149,2,0,L|318:40,2,45,2|0|2,1:2|1:2|0:2,0:0:0:0:
246,96,25586,1,8,0:2:0:0:
246,96,25732,1,2,0:2:0:0:
249,194,26023,1,8,0:2:0:0:
342,225,26314,2,0,L|404:209,1,45,0|0,1:2|1:2,0:0:0:0:
404,167,26605,1,10,0:2:0:0:
491,213,26897,6,0,L|512:300,1,90,6|8,1:2|0:2,0:2:0:0:
482,339,27333,2,0,L|389:362,1,90,2|0,0:2|1:2,0:2:0:0:
346,335,27770,1,2,0:2:0:0:
212,382,28191,1,2,1:2:0:0:
212,382,28335,1,12,0:2:0:0:
164,295,28624,2,0,B|161:223|199:230|202:167,1,135,0|8,1:2|0:2,0:0:0:0:
227,115,29227,6,0,P|189:108|135:100,1,90,6|14,1:2|0:2,0:2:0:0:
50,145,29809,2,0,L|40:208,2,45,2|2|2,1:2|1:2|0:2,0:0:0:0:
27,106,30246,1,8,0:2:0:0:
27,106,30392,1,2,0:2:0:0:
43,8,30683,1,8,0:2:0:0:
141,3,30974,2,0,L|191:13,1,45,0|0,1:2|1:2,0:0:0:0:
219,47,31265,1,10,0:2:0:0:
311,82,31557,6,0,L|398:62,1,90,2|14,1:2|0:2,0:0:0:0:
467,133,32139,2,0,L|517:123,2,45,0|0|2,1:2|1:2|0:2,0:0:0:0:
451,182,32576,1,8,0:2:0:0:
451,182,32722,1,2,0:2:0:0:
505,264,33013,1,8,0:2:0:0:
438,337,33304,2,0,L|383:350,1,45,2|0,1:2|1:2,0:0:0:0:
349,326,33595,1,8,0:2:0:0:
272,263,33887,6,0,P|262:212|251:155,1,90,6|10,1:2|0:2,0:0:0:0:
297,85,34469,2,0,L|345:78,2,45,0|0|2,1:2|1:2|0:2,0:0:0:0:
258,63,34906,1,8,0:2:0:0:
258,63,35052,1,2,0:2:0:0:
159,53,35343,1,8,0:2:0:0:
96,129,35634,2,0,L|43:137,1,45,0|0,1:2|1:2,0:0:0:0:
16,171,35926,1,10,0:2:0:0:
72,252,36217,6,0,L|166:231,1,90,2|10,1:2|0:2,0:2:0:0:
231,164,36799,2,0,L|285:176,1,45,0|8,1:2|0:2,0:0:0:0:
308,217,37091,1,10,0:2:0:0:
308,217,37236,1,4,1:2:0:0:
377,146,37527,1,6,1:2:0:0:
465,201,37819,1,6,1:2:0:0:
465,201,37964,2,0,B|513:253|513:253|484:310,1,135,2|4,0:2|0:3,0:0:0:0:
475,354,38547,6,0,P|421:343|347:331,1,121.499996292114,4|0,1:2|1:2,0:2:0:0:
311,338,39129,1,2,0:0:0:0:
259,264,39421,1,8,0:1:0:0:
314,194,39712,2,0,P|326:136|292:87,1,121.499996292114,2|0,0:2|0:2,0:0:0:0:
257,59,40294,2,0,L|169:85,1,80.9999975280763,2|8,1:2|0:1,0:2:0:0:
143,106,40731,1,0,0:2:0:0:
143,106,40877,5,2,1:2:0:0:
61,69,41168,2,0,L|50:29,2,40.4999987640381,2|0|0,0:2|1:2|0:0,0:0:0:0:
16,146,41751,1,8,0:1:0:0:
83,204,42042,2,0,P|106:196|135:189,2,40.4999987640381,0|0|0,0:0|1:2|0:0,0:0:0:0:
39,282,42625,1,0,1:2:0:0:
71,364,42916,1,8,0:1:0:0:
159,372,43207,6,0,P|221:354|276:339,1,121.499996292114,2|0,1:2|1:2,0:2:0:0:
307,307,43790,2,0,P|352:313|393:318,1,80.9999975280763,2|8,0:0|0:1,0:0:0:0:
468,280,44372,2,0,P|502:231|478:177,1,121.499996292114,2|0,0:2|0:2,0:0:0:0:
459,139,44955,2,0,L|381:162,1,80.9999975280763,2|8,1:2|0:1,0:2:0:0:
350,194,45392,1,0,0:2:0:0:
350,194,45537,5,2,1:2:0:0:
271,152,45828,2,0,L|262:107,2,40.4999987640381,2|0|0,0:2|1:2|0:0,0:0:0:0:
233,233,46411,1,8,0:1:0:0:
150,214,46702,1,2,0:2:0:0:
150,214,46848,2,0,P|111:222|56:238,1,80.9999975280763,2|8,1:2|0:3,0:2:0:0:
33,256,47285,2,0,L|43:303,2,40.4999987640381,8|8|4,0:3|0:3|0:3,0:0:0:0:
15,168,47867,6,0,L|-2:80,1,80.9999975280763,6|0,1:2|1:2,0:2:0:0:
27,53,48304,2,0,P|70:45|113:38,1,80.9999975280763,8|2,0:1|0:2,0:2:0:0:
143,64,48741,1,8,1:1:0:0:
224,29,49032,1,2,1:2:0:0:
302,72,49324,2,0,L|309:119,1,40.4999987640381,0|8,1:2|0:1,0:0:0:0:
284,149,49615,2,0,L|204:163,1,80.9999975280763,2|8,1:2|1:1,0:0:0:0:
178,200,50052,1,0,0:2:0:0:
178,200,50197,5,2,1:2:0:0:
143,282,50489,2,0,L|96:291,2,40.4999987640381,8|8|0,1:1|0:1|1:2,0:2:0:0:
209,341,51071,1,8,1:1:0:0:
284,294,51362,2,0,P|325:284|367:278,1,80.9999975280763,2|0,1:2|1:2,0:2:0:0:
406,303,51799,1,8,0:1:0:0:
406,303,51945,1,2,1:2:0:0:
477,250,52236,1,8,1:1:0:0:
452,164,52527,5,2,1:2:0:0:
369,129,52819,2,0,L|374:85,2,40.4999987640381,2|8|0,1:2|0:1|1:2,0:2:0:0:
299,184,53401,1,8,1:1:0:0:
231,125,53693,2,0,P|189:120|138:111,1,80.9999975280763,2|0,1:2|1:2,0:2:0:0:
117,93,54129,1,8,0:1:0:0:
117,93,54275,1,2,1:2:0:0:
36,131,54566,1,8,1:1:0:0:
40,220,54858,5,2,1:2:0:0:
104,281,55149,2,0,P|98:298|93:325,2,40.4999987640381,2|8|0,1:2|0:1|1:2,0:2:0:0:
180,236,55731,1,2,1:3:0:0:
248,293,56023,2,0,P|266:299|286:305,1,40.4999987640381,2|0,1:2|1:2,0:0:0:0:
322,331,56314,2,0,P|363:318|413:311,1,80.9999975280763,12|10,0:2|0:2,0:0:0:0:
485,338,56896,1,4,0:3:0:0:
510,240,57188,6,0,P|496:197|486:153,1,90,6|8,1:2|0:2,0:2:0:0:
501,58,57766,1,2,1:2:0:0:
501,58,57910,2,0,P|459:66|409:79,1,90,0|8,1:2|0:2,0:2:0:0:
380,112,58344,2,0,P|338:104|285:99,1,90,2|8,0:2|0:2,0:2:0:0:
199,135,58933,1,2,1:2:0:0:
141,54,59228,1,10,0:2:0:0:
45,85,59523,6,0,P|34:126|22:187,1,90,2|8,1:2|0:2,0:2:0:0:
75,257,60105,2,0,P|70:279|67:308,1,45,0|0,1:2|1:2,0:0:0:0:
85,347,60396,2,0,P|108:353|131:359,1,45,2|8,0:2|0:2,0:2:0:0:
176,345,60688,2,0,P|186:301|190:256,1,90,2|8,0:2|0:2,0:0:0:0:
248,176,61270,2,0,P|242:152|239:124,2,45,2|0|10,1:2|1:2|0:2,0:2:0:0:
336,221,61853,6,0,P|375:209|423:200,1,90,2|8,1:2|0:2,0:2:0:0:
490,127,62435,1,2,1:2:0:0:
490,127,62581,2,0,P|476:80|467:36,1,90,0|8,1:2|0:2,0:0:0:0:
425,14,63018,2,0,B|382:5|382:5|345:34,1,90,2|8,0:2|0:2,0:2:0:0:
262,86,63600,1,2,1:2:0:0:
188,20,63891,6,0,P|147:26|90:37,1,90,10|0,0:2|1:2,0:2:0:0:
27,104,64474,2,0,P|35:145|42:199,1,90,10|0,0:2|1:2,0:2:0:0:
85,225,64911,1,0,1:2:0:0:
85,225,65056,1,2,0:2:0:0:
17,300,65343,5,2,0:2:0:0:
93,361,65628,1,12,0:2:0:0:
180,314,65914,2,0,P|202:316|224:321,1,45,8|8,0:2|0:2,0:0:0:0:
262,353,66200,2,0,P|285:352|312:348,1,45,8|8,0:2|0:2,0:0:0:0:
337,312,66485,6,0,P|328:262|320:223,1,90,6|8,1:2|0:2,0:2:0:0:
336,128,67071,1,2,1:2:0:0:
336,128,67218,2,0,B|370:98|370:98|413:107,1,90,0|8,1:2|0:2,0:2:0:0:
458,85,67658,2,0,P|466:129|478:172,1,90,2|8,0:2|0:2,0:2:0:0:
469,271,68249,2,0,P|472:292|480:323,1,45,0|0,1:2|1:2,0:2:0:0:
452,357,68544,1,10,0:2:0:0:
367,302,68840,5,0,1:2:0:0:
277,345,69131,1,8,0:2:0:0:
197,286,69422,1,0,1:2:0:0:
104,320,69713,2,0,P|78:316|47:308,1,45,2|8,0:2|0:2,0:0:0:0:
22,278,70005,2,0,P|14:322|4:365,2,90,2|8|0,3:2|0:2|1:2,0:0:0:0:
97,213,70878,1,10,0:2:0:0:
21,149,71168,6,0,P|9:106|4:60,1,90,6|10,1:2|0:2,0:2:0:0:
93,15,71750,1,2,1:2:0:0:
93,15,71896,2,0,P|136:4|181:0,1,90,0|8,1:2|0:2,0:2:0:0:
230,7,72333,2,0,P|240:45|249:105,1,90,2|8,0:2|0:2,0:0:0:0:
205,183,72915,2,0,P|186:187|150:189,2,45,2|0|8,1:2|1:2|0:2,0:2:0:0:
280,247,73498,6,0,P|326:253|383:266,1,90,14|0,0:2|1:2,0:0:0:0:
412,236,73935,2,0,P|417:213|423:185,1,45,14|0,0:2|1:2,0:0:0:0:
491,121,74373,2,0,P|486:98|481:76,1,45,14|0,0:2|1:2,0:0:0:0:
402,26,74811,1,10,0:2:0:0:
402,26,74957,1,10,0:2:0:0:
304,51,75249,2,0,B|259:41|259:41|216:76,1,90,10|8,0:2|0:2,0:0:0:0:
176,152,75833,6,0,P|184:196|192:240,1,90,4|10,1:1|0:2,0:2:0:0:
170,285,76269,2,0,P|132:307|88:299,1,90,2|0,0:2|1:2,0:0:0:0:
48,325,76706,1,10,0:2:0:0:
48,325,76852,2,0,P|37:281|29:237,1,90,2|0,1:2|1:2,0:2:0:0:
2,195,77289,1,8,0:2:0:0:
43,105,77580,1,2,1:2:0:0:
141,119,77871,1,10,0:2:0:0:
196,201,78163,6,0,P|202:223|210:258,1,45,2|0,1:2|1:2,0:0:0:0:
194,292,78454,1,10,0:2:0:0:
289,318,78745,2,0,P|296:341|301:377,2,45,2|2|10,1:2|1:2|0:2,0:0:0:0:
320,279,79182,2,0,P|366:261|407:255,1,90,2|0,1:2|1:2,0:2:0:0:
455,278,79619,1,8,0:2:0:0:
455,278,79765,1,2,3:2:0:0:
510,196,80056,2,0,P|502:170|496:143,1,45,2|10,1:2|0:2,0:0:0:0:
462,126,80347,1,2,0:2:0:0:
462,126,80493,6,0,P|417:130|373:142,1,90,4|10,1:2|0:2,0:0:0:0:
337,175,80930,1,2,0:2:0:0:
240,154,81221,2,0,P|234:130|231:104,1,45,2|10,1:2|0:2,0:0:0:0:
196,75,81512,2,0,P|152:69|114:92,1,90,2|2,1:2|1:2,0:2:0:0:
91,136,81949,2,0,P|68:132|36:125,1,45,10|2,0:2|0:2,0:0:0:0:
5,155,82240,1,2,1:2:0:0:
5,253,82532,1,10,0:2:0:0:
90,302,82823,6,0,P|116:295|144:288,1,45,2|0,1:2|1:2,0:0:0:0:
174,262,83114,2,0,P|198:266|224:271,1,45,10|2,0:2|0:2,0:0:0:0:
252,306,83405,1,2,1:2:0:0:
353,292,83697,1,10,0:2:0:0:
353,292,83842,2,0,P|389:236|365:168,1,135,6|8,1:2|0:2,0:2:0:0:
381,126,84425,2,0,P|337:137|294:149,1,90,4|2,1:2|1:2,0:2:0:0:
254,179,84862,2,0,P|231:176|209:171,1,45,10|10,0:2|0:2,0:2:0:0:
188,126,85153,5,6,1:2:0:0:
247,48,85444,1,12,0:2:0:0:
247,48,85590,2,0,B|313:42|296:18|375:12,1,135,2|10,0:2|0:2,0:2:0:0:
425,10,86172,2,0,B|459:41|459:41|443:83,1,90,2|0,1:2|1:2,0:2:0:0:
407,115,86609,1,8,0:2:0:0:
479,182,86900,1,2,1:2:0:0:
453,277,87192,1,10,0:2:0:0:
356,299,87483,6,0,P|332:296|304:292,1,45,0|2,1:2|0:2,0:0:0:0:
284,250,87774,1,10,0:2:0:0:
199,302,88066,2,0,P|153:305|101:323,1,90,2|10,1:2|0:2,0:2:0:0:
63,305,88502,2,0,P|29:245|46:180,1,135,2|8,1:2|0:2,0:2:0:0:
107,108,89231,1,2,1:2:0:0:
196,150,89522,1,10,0:2:0:0:
270,84,89813,5,4,1:2:0:0:
270,84,89959,2,0,P|314:79|368:67,1,90,2|0,1:2|0:2,0:2:0:0:
400,42,90396,1,0,1:0:0:0:
485,91,90687,2,0,P|480:111|476:138,1,45,8|2,0:2|1:2,0:0:0:0:
445,174,90978,1,2,0:2:0:0:
445,174,91124,2,0,P|448:211|457:270,1,90,2|2,1:2|0:2,0:0:0:0:
489,299,91561,2,0,P|493:318|499:346,2,45,2|2|8,1:2|1:2|0:2,0:0:0:0:
399,340,92143,6,0,P|356:346|311:360,1,90,4|8,1:2|0:2,0:0:0:0:
271,341,92580,1,0,1:2:0:0:
271,341,92726,1,10,0:2:0:0:
306,251,93017,1,10,0:2:0:0:
306,251,93163,2,0,P|298:206|287:162,1,90,4|0,1:2|1:2,0:2:0:0:
310,118,93599,1,8,0:2:0:0:
245,43,93891,2,0,P|182:22|123:52,1,135,10|8,1:2|0:2,0:0:0:0:
74,63,94473,6,0,P|84:106|91:151,1,90,6|8,1:2|0:2,0:2:0:0:
55,185,94910,2,0,B|23:216|23:216|37:259,1,90,2|2,0:2|1:2,0:2:0:0:
107,337,95493,1,0,1:2:0:0:
107,337,95638,1,8,0:2:0:0:
204,309,95930,1,8,0:2:0:0:
204,309,96075,2,0,P|247:317|302:328,1,90,2|2,0:2|1:2,0:2:0:0:
385,287,96658,5,0,1:2:0:0:
385,287,96803,2,0,P|395:236|402:187,1,90,8|8,0:2|0:2,0:0:0:0:
443,173,97240,2,0,P|432:127|422:83,1,90,2|2,0:2|1:2,0:2:0:0:
443,40,97677,1,8,0:2:0:0:
349,6,97968,1,10,0:2:0:0:
276,73,98260,1,8,0:2:0:0:
306,166,98551,1,8,0:2:0:0:
217,209,98842,2,0,L|164:199,1,45,8|0,0:2|1:2,0:0:0:0:
139,163,99133,6,0,P|90:171|45:178,1,90,14|8,0:2|0:2,0:0:0:0:
10,147,99570,2,0,P|4:102|-1:57,1,90,2|2,0:2|1:2,0:2:0:0:
86,10,100153,1,0,1:2:0:0:
86,10,100299,1,8,0:2:0:0:
180,53,100590,1,12,0:0:0:0:
180,53,100735,2,0,P|212:48|243:39,1,45,10|8,0:2|0:2,0:0:0:0:
262,13,101027,2,0,P|308:25|370:38,1,90,8|8,0:2|0:2,0:0:0:0:
397,20,101464,5,4,1:2:0:0:
474,81,101755,1,6,0:2:0:0:
402,148,102046,2,0,L|344:135,2,45,2|0|2,1:2|1:2|0:2,0:0:0:0:
433,193,102483,1,8,0:2:0:0:
433,193,102629,1,2,0:2:0:0:
457,288,102920,1,8,0:2:0:0:
372,336,103211,2,0,L|319:322,1,45,0|0,1:2|1:2,0:0:0:0:
305,279,103502,1,10,0:2:0:0:
222,224,103794,6,0,P|177:234|129:251,1,90,2|10,1:2|0:2,0:0:0:0:
43,210,104376,2,0,L|30:160,2,45,2|0|2,1:2|1:2|0:2,0:0:0:0:
25,258,104813,1,8,0:2:0:0:
25,258,104959,1,2,0:2:0:0:
65,348,105250,1,8,0:2:0:0:
163,360,105541,2,0,L|210:346,1,45,2|0,1:2|1:2,0:0:0:0:
239,310,105832,1,8,0:2:0:0:
335,332,106124,6,0,P|343:290|325:246,1,90,6|10,1:2|0:2,0:0:0:0:
240,197,106706,2,0,L|189:212,2,45,2|0|2,1:2|1:2|0:2,0:0:0:0:
268,158,107143,1,8,0:2:0:0:
268,158,107289,1,2,0:2:0:0:
286,60,107580,1,8,0:2:0:0:
197,14,107871,2,0,L|140:25,2,45,0|0|10,1:2|1:2|0:2,0:0:0:0:
177,110,108454,6,0,B|84:133,1,90,6|8,1:2|0:2,0:2:0:0:
42,148,108891,2,0,B|20:186|20:186|42:225,1,90,2|0,1:2|1:2,0:0:0:0:
41,279,109328,1,10,0:2:0:0:
41,279,109473,1,6,1:2:0:0:
124,341,109765,1,2,1:2:0:0:
124,341,109910,1,12,0:2:0:0:
206,285,110201,2,0,B|278:287|268:322|336:326,1,135,2|8,1:2|0:2,0:0:0:0:
371,349,110784,5,6,1:2:0:0:
455,297,111075,1,14,0:2:0:0:
399,215,111366,2,0,L|347:201,2,45,2|0|2,1:2|1:2|0:2,0:0:0:0:
440,186,111803,1,8,0:2:0:0:
440,186,111949,1,2,0:2:0:0:
486,98,112240,1,8,0:2:0:0:
414,30,112532,2,0,L|362:41,1,45,0|0,1:2|1:2,0:0:0:0:
326,14,112823,1,10,0:2:0:0:
244,69,113114,6,0,L|259:168,1,90,2|10,1:2|0:2,0:0:0:0:
324,231,113697,2,0,L|372:220,2,45,2|0|2,1:2|1:2|0:2,0:0:0:0:
307,280,114133,1,8,0:2:0:0:
307,280,114279,1,2,0:2:0:0:
224,335,114570,1,8,0:2:0:0:
139,282,114862,2,0,L|84:293,1,45,2|0,1:2|1:2,0:0:0:0:
58,324,115153,1,8,0:2:0:0:
19,232,115444,6,0,P|11:185|-6:132,1,90,6|10,1:2|0:2,0:0:0:0:
62,68,116027,2,0,P|51:41|48:16,2,45,2|0|2,1:2|1:2|0:2,0:0:0:0:
114,82,116464,1,8,0:2:0:0:
114,82,116609,1,2,0:2:0:0:
198,29,116900,1,8,0:2:0:0:
290,64,117192,2,0,P|316:60|344:53,2,45,0|0|10,1:2|1:2|0:2,0:0:0:0:
248,154,117774,6,0,P|254:198|262:242,1,90,6|8,1:2|0:2,0:2:0:0:
261,295,118211,1,2,0:2:0:0:
261,295,118357,2,0,P|304:282|351:276,1,90,0|8,1:2|0:2,0:0:0:0:
388,305,118794,1,6,1:1:0:0:
467,246,119085,1,6,1:1:0:0:
429,154,119376,2,2,B|373:163|316:101|352:84|302:38|247:45,1,225,6|6,1:1|0:2,0:1:0:0:
256,192,120250,12,0,122434,0:2:0:0:
53,277,138193,6,0,L|41:227,1,40.4999987640381,8|8,0:3|0:3,0:0:0:0:
24,197,138470,2,0,L|37:146,1,40.4999987640381,4|4,0:3|0:3,0:0:0:0:
66,127,138748,6,0,L|154:146,1,80.9999975280763,4|4,1:2|1:3,0:2:0:0:
210,204,139319,2,0,L|302:187,1,80.9999975280763,10|4,0:2|0:3,0:0:0:0:
322,158,139764,1,8,0:3:0:0:
322,158,139913,1,4,1:3:0:0:
386,220,140203,1,4,1:3:0:0:
442,150,140494,2,0,P|435:110|424:65,1,80.9999975280763,10|4,0:2|0:3,0:2:0:0:
352,19,141076,5,4,1:3:0:0:
276,65,141366,1,4,1:3:0:0:
197,22,141657,2,0,P|158:27|106:40,1,80.9999975280763,10|4,0:2|0:3,0:2:0:0:
76,42,142093,1,8,0:3:0:0:
76,42,142239,2,0,P|84:79|95:134,1,80.9999975280763,4|4,1:3|1:3,0:0:0:0:
162,175,142820,2,0,P|155:215|149:261,1,80.9999975280763,10|4,0:2|0:3,0:2:0:0:
84,316,143402,5,4,1:3:0:0:
143,381,143693,1,4,1:3:0:0:
228,356,143984,2,0,P|261:357|312:371,1,80.9999975280763,10|4,0:2|0:3,0:2:0:0:
354,360,144421,1,8,0:3:0:0:
354,360,144567,2,0,P|360:320|369:278,1,80.9999975280763,4|4,1:3|1:3,0:2:0:0:
326,201,145149,1,10,0:2:0:0:
249,247,145440,1,4,0:3:0:0:
184,186,145732,6,0,P|193:141|201:94,1,80.9999975280763,4|4,1:3|1:3,0:2:0:0:
267,49,146314,1,10,0:2:0:0:
355,59,146605,1,4,0:3:0:0:
405,132,146897,2,0,P|446:135|492:145,1,80.9999975280763,4|4,1:3|1:3,0:2:0:0:
503,189,147334,1,0,3:2:0:0:
503,189,147479,1,10,0:2:0:0:
459,266,147770,2,0,P|436:263|417:260,1,40.4999987640381,4|8,0:3|0:3,0:0:0:0:
376,246,148062,6,0,P|337:253|287:262,1,80.9999975280763,4|4,1:2|1:3,0:2:0:0:
270,297,148499,1,0,0:2:0:0:
270,297,148644,2,0,P|233:305|185:316,1,80.9999975280763,10|4,0:2|0:3,0:2:0:0:
116,364,149227,1,4,1:3:0:0:
39,319,149518,1,4,1:3:0:0:
63,233,149809,2,0,P|53:193|43:143,1,80.9999975280763,10|4,0:2|0:3,0:0:0:0:
70,118,150246,1,8,0:3:0:0:
70,118,150392,5,4,1:3:0:0:
37,35,150683,1,4,1:3:0:0:
123,15,150974,2,0,P|164:23|210:29,1,80.9999975280763,10|4,0:2|0:3,0:2:0:0:
236,65,151411,1,8,0:3:0:0:
236,65,151557,1,4,1:3:0:0:
193,143,151848,2,0,L|185:195,1,40.4999987640381,4|0,1:3|3:2,0:0:0:0:
156,215,152139,2,0,P|163:254|169:303,1,80.9999975280763,10|4,0:2|0:3,0:2:0:0:
233,355,152722,5,4,1:3:0:0:
299,296,153013,1,4,1:3:0:0:
368,352,153304,2,0,P|402:340|462:330,1,80.9999975280763,10|4,0:2|0:3,0:2:0:0:
473,246,153887,2,0,P|496:242|518:235,2,40.4999987640381,4|8|4,1:3|0:2|0:3,0:2:0:0:
390,212,154469,2,0,P|384:188|378:159,1,40.4999987640381,8|8,0:2|0:3,0:0:0:0:
408,137,154761,1,4,0:3:0:0:
330,75,155052,6,0,B|287:62|287:62|250:88,1,90,6|2,1:2|0:2,0:2:0:0:
203,73,155489,1,4,1:2:0:0:
55,56,155926,2,0,B|33:96|33:96|57:133,1,90,6|0,1:2|0:2,0:2:0:0:
50,182,156363,1,4,1:2:0:0:
54,330,156806,2,0,P|98:291|178:308,1,135,12|0,0:2|0:0,0:2:0:0:
209,325,157377,6,0,P|247:315|301:309,1,85.4999977169037,6|8,1:2|0:2,0:2:0:0:
378,360,157956,1,0,1:2:0:0:
378,360,158101,2,0,P|422:350|467:345,1,85.4999977169037,0|8,1:2|0:2,0:2:0:0:
494,311,158536,2,0,P|501:270|479:235,1,85.4999977169037,2|8,0:2|0:2,0:2:0:0:
441,216,158973,1,2,0:2:0:0:
441,216,159119,1,2,1:2:0:0:
350,240,159410,1,10,0:2:0:0:
271,188,159702,5,2,1:2:0:0:
200,250,159994,2,0,P|163:258|108:276,1,85.4999977169037,10|0,0:2|1:2,0:2:0:0:
97,316,160431,1,0,1:2:0:0:
97,316,160577,1,2,0:2:0:0:
25,254,160868,2,0,P|12:206|-5:167,1,85.4999977169037,2|8,0:2|0:2,0:2:0:0:
40,88,161452,2,0,P|28:61|17:38,2,42.7499988584519,2|0|10,1:2|1:2|0:2,0:2:0:0:
130,111,162035,6,0,P|173:98|214:79,1,85.4999977169037,2|8,1:2|0:2,0:2:0:0:
274,13,162617,1,2,1:2:0:0:
274,13,162763,2,0,B|315:1|315:1|348:27,1,85.4999977169037,0|8,1:2|0:2,0:2:0:0:
383,59,163200,2,0,P|374:98|366:147,1,85.4999977169037,2|8,0:2|0:2,0:2:0:0:
325,166,163636,2,0,P|331:195|340:265,1,85.4999977169037,2|0,0:2|1:2,0:2:0:0:
377,277,164073,1,10,0:2:0:0:
312,344,164365,5,2,1:2:0:0:
220,320,164656,2,0,P|177:325|122:342,1,85.4999977169037,10|0,0:2|1:2,0:2:0:0:
96,323,165093,1,0,1:2:0:0:
96,323,165238,1,2,0:2:0:0:
102,228,165530,2,0,P|145:220|196:210,1,85.4999977169037,2|10,0:2|0:2,0:2:0:0:
230,129,166112,2,0,P|256:123|278:118,1,42.7499988584519,8|8,0:2|0:2,0:0:0:0:
310,145,166403,2,0,P|336:148|361:155,1,42.7499988584519,8|8,0:2|0:2,0:0:0:0:
382,188,166695,6,0,P|380:223|370:283,1,85.4999977169037,6|8,1:2|0:2,0:2:0:0:
469,287,167282,1,2,1:2:0:0:
469,287,167429,2,0,P|472:242|481:195,1,85.4999977169037,0|8,1:2|0:2,0:2:0:0:
497,158,167870,2,0,B|508:115|508:115|471:77,1,85.4999977169037,2|8,0:2|0:2,0:2:0:0:
405,27,168451,1,2,1:2:0:0:
324,75,168742,1,10,0:2:0:0:
245,22,169032,5,2,1:2:0:0:
176,85,169323,2,0,P|128:91|82:104,1,85.4999977169037,10|0,0:2|1:2,0:2:0:0:
52,85,169759,1,0,1:2:0:0:
52,85,169904,1,2,0:2:0:0:
7,168,170195,2,0,P|20:216|27:258,1,85.4999977169037,2|8,0:2|0:2,0:2:0:0:
88,321,170776,2,0,P|82:339|79:369,2,42.7499988584519,0|0|8,1:2|1:2|0:2,0:0:0:0:
180,284,171358,6,0,B|226:281|226:281|264:325,2,90,14|0|0,1:2|1:2|1:2,0:2:0:0:
121,203,172231,2,0,P|132:155|146:113,1,90,2|8,1:2|0:2,0:2:0:0:
210,41,172814,2,0,P|233:46|263:52,1,45,8|8,0:2|0:2,0:0:0:0:
297,73,173105,2,0,P|322:68|356:64,1,45,8|8,0:2|0:2,0:0:0:0:
375,28,173405,1,10,0:0:0:0:
442,100,173705,6,0,P|439:119|431:154,1,45,14|0,0:2|1:2,0:0:0:0:
355,206,174131,2,0,L|364:257,1,45,14|0,0:2|1:2,0:0:0:0:
438,325,174567,1,14,0:2:0:0:
438,325,174714,1,0,1:2:0:0:
355,378,175010,1,14,0:2:0:0:
355,378,175154,1,10,0:2:0:0:
268,329,175442,2,0,P|220:335|173:352,1,90,10|8,0:2|0:2,0:0:0:0:
94,299,176019,6,0,P|73:260|84:217,1,90,4|10,1:1|0:2,0:2:0:0:
136,133,176601,2,0,P|130:109|121:83,2,45,2|2|10,1:2|1:2|0:2,0:0:0:0:
183,148,177038,2,0,P|256:134|310:107,1,135,2|8,1:2|0:2,0:2:0:0:
334,66,177620,1,2,0:2:0:0:
334,66,177766,1,2,1:2:0:0:
430,45,178057,1,10,0:2:0:0:
493,121,178349,6,0,P|486:164|482:213,1,90,2|10,1:2|0:2,0:2:0:0:
440,300,178931,2,0,P|444:321|449:353,2,45,2|2|10,1:2|1:2|0:2,0:0:0:0:
392,285,179368,2,0,P|346:289|296:308,1,90,2|0,1:2|1:2,0:2:0:0:
268,336,179805,1,8,0:2:0:0:
268,336,179951,1,2,3:2:0:0:
171,314,180242,2,0,P|168:294|159:264,1,45,2|10,1:2|0:2,0:0:0:0:
161,224,180533,1,2,0:2:0:0:
161,224,180679,6,0,P|118:233|72:251,1,90,0|10,1:2|0:2,0:0:0:0:
25,244,181116,2,0,P|12:200|2:148,1,90,2|2,0:2|1:2,0:0:0:0:
28,115,181552,1,10,0:2:0:0:
28,115,181698,1,2,1:2:0:0:
96,43,181989,2,0,P|90:17|81:-6,2,45,2|10|2,1:2|0:2|0:2,0:0:0:0:
140,65,182426,2,0,B|178:36|178:36|218:48,1,90,2|10,1:2|0:2,0:2:0:0:
303,97,183009,5,6,1:2:0:0:
234,168,183300,1,10,0:2:0:0:
291,248,183591,2,0,P|287:268|281:299,2,45,2|2|8,1:2|1:2|0:2,0:0:0:0:
335,226,184028,2,0,P|379:232|421:248,1,90,6|0,1:2|1:2,0:2:0:0:
469,230,184465,1,10,0:2:0:0:
469,230,184611,2,0,B|467:153|505:170|497:100,1,135,4|10,1:2|0:2,0:2:0:0:
424,33,185339,6,0,P|381:45|331:52,1,90,6|14,1:2|0:2,0:2:0:0:
309,93,185776,2,0,P|269:80|216:73,1,90,2|0,0:2|1:2,0:2:0:0:
182,52,186213,1,10,0:2:0:0:
182,52,186358,2,0,P|172:86|159:146,1,90,2|0,1:2|1:2,0:2:0:0:
185,182,186795,1,8,0:2:0:0:
181,280,187086,1,2,1:2:0:0:
89,317,187378,1,10,0:2:0:0:
17,248,187669,6,0,P|7:188|-3:147,1,90,2|10,1:2|0:2,0:2:0:0:
19,113,188106,2,0,B|56:84|56:84|110:109,1,90,2|0,0:2|1:2,0:2:0:0:
146,119,188543,1,10,0:2:0:0:
146,119,188688,2,0,B|224:112|201:80|271:74,1,135,2|8,1:2|0:2,0:2:0:0:
344,7,189417,1,2,1:2:0:0:
436,41,189708,1,10,0:2:0:0:
446,143,189999,5,4,1:2:0:0:
446,143,190145,2,0,B|412:177|412:177|370:168,1,90,2|0,1:2|0:2,0:2:0:0:
330,139,190582,1,0,1:0:0:0:
251,198,190873,2,0,P|243:218|239:247,1,45,8|2,0:2|1:2,0:0:0:0:
263,284,191164,2,0,P|300:290|350:309,1,90,2|10,0:2|0:2,0:0:0:0:
382,345,191601,2,0,P|425:331|470:324,1,90,2|0,0:2|1:2,0:2:0:0:
496,282,192038,1,10,0:2:0:0:
468,186,192329,6,0,P|454:136|447:99,1,90,2|8,1:2|0:2,0:0:0:0:
472,57,192766,1,2,1:2:0:0:
472,57,192912,1,8,0:2:0:0:
385,19,193203,1,8,0:2:0:0:
385,19,193349,2,0,B|342:7|342:7|298:48,1,90,6|0,1:2|1:2,0:2:0:0:
289,83,193785,1,8,0:2:0:0:
203,33,194077,2,0,B|135:47|158:79|71:101,1,135,8|8,1:2|0:2,0:0:0:0:
36,100,194659,6,0,B|10:138|10:138|32:177,1,90,6|8,1:2|0:2,0:0:0:0:
63,214,195096,2,0,P|52:258|46:311,1,90,2|2,0:2|1:2,0:2:0:0:
69,346,195533,1,8,0:2:0:0:
159,306,195824,2,0,P|164:282|168:250,2,45,8|2|8,0:2|1:2|0:2,0:0:0:0:
189,345,196261,2,0,P|239:354|285:370,1,90,2|2,0:2|1:2,0:2:0:0:
322,349,196698,1,8,0:2:0:0:
412,309,196989,6,0,P|437:315|469:331,2,45,8|2|8,0:2|1:2|0:2,0:0:0:0:
380,271,197426,2,0,B|369:225|369:225|409:185,1,90,2|2,0:2|0:2,0:2:0:0:
448,187,197863,1,8,0:2:0:0:
467,89,198154,1,8,0:2:0:0:
392,23,198446,1,8,0:2:0:0:
294,41,198737,1,8,0:2:0:0:
266,136,199028,2,0,P|270:159|276:191,1,45,8|0,0:2|1:2,0:0:0:0:
258,227,199319,6,0,P|219:238|157:246,1,90,12|8,0:2|0:2,0:0:0:0:
146,289,199756,2,0,P|106:276|58:268,1,90,2|2,0:2|1:2,0:2:0:0:
33,225,200193,1,8,0:2:0:0:
22,126,200485,2,0,P|28:101|35:77,1,45,8|2,0:2|1:2,0:0:0:0:
68,46,200776,2,0,P|102:54|119:59,1,45,8|2,0:2|1:2,0:0:0:0:
149,89,201067,2,0,P|219:83|284:60,1,135,8|8,0:2|0:3,0:0:0:0:
312,24,201650,5,6,1:2:0:0:
393,80,201941,1,14,0:2:0:0:
475,24,202232,2,0,B|519:63|519:63|500:136,1,135,2|10,1:2|0:2,0:0:0:0:
503,186,202815,1,2,0:2:0:0:
420,238,203106,1,10,0:2:0:0:
420,238,203252,2,0,P|378:227|322:219,1,90,2|0,0:2|1:2,0:2:0:0:
296,185,203688,1,10,0:2:0:0:
203,220,203980,5,0,1:2:0:0:
188,317,204271,1,8,0:2:0:0:
267,376,204562,1,0,1:2:0:0:
364,359,204853,2,0,P|389:354|411:348,1,45,8|10,0:2|0:2,0:0:0:0:
437,309,205145,2,0,P|430:287|429:258,1,45,2|0,0:2|1:2,0:0:0:0:
453,221,205436,2,0,P|450:195|443:173,1,45,10|2,0:2|0:2,0:0:0:0:
410,140,205727,2,0,P|368:150|314:164,1,90,2|8,1:2|0:2,0:2:0:0:
274,248,206310,5,2,1:2:0:0:
198,312,206601,1,8,0:2:0:0:
96,292,206892,1,0,1:2:0:0:
38,211,207184,2,0,P|41:182|43:150,1,45,8|8,0:2|0:2,0:2:0:0:
71,125,207475,2,0,P|65:104|57:79,2,45,2|0|8,0:2|1:2|0:2,0:0:0:0:
168,141,208057,2,0,P|189:134|216:128,1,45,0|0,1:2|1:2,0:0:0:0:
239,87,208349,1,8,0:2:0:0:
332,118,208640,6,0,B|363:151|363:151|348:208,1,90,6|8,1:2|0:2,0:2:0:0:
324,236,209077,2,0,B|295:271|295:271|321:323,1,90,2|2,1:2|1:2,0:0:0:0:
354,349,209514,1,8,0:2:0:0:
354,349,209659,1,6,1:2:0:0:
455,336,209951,1,0,1:2:0:0:
455,336,210096,1,10,0:2:0:0:
494,245,210387,2,0,P|489:199|480:148,1,90,8|8,0:2|0:2,0:0:0:0:
397,104,210970,6,0,P|353:112|301:120,1,90,6|8,1:2|0:2,0:2:0:0:
269,150,211407,2,0,P|231:139|170:127,1,90,2|2,0:2|1:2,0:2:0:0:
101,69,211989,2,0,P|52:112|57:177,1,135,10|10,0:2|0:2,0:2:0:0:
59,231,212572,1,2,0:2:0:0:
59,231,212718,1,2,1:2:0:0:
150,268,213009,2,0,P|178:259|203:255,1,45,8|2,0:2|0:2,0:0:0:0:
221,215,213300,5,2,1:2:0:0:
315,242,213591,1,8,0:2:0:0:
394,182,213883,1,0,1:2:0:0:
473,241,214174,2,0,P|471:263|470:289,1,45,2|8,0:2|0:2,0:0:0:0:
443,328,214465,2,0,P|446:346|451:389,2,45,2|2|10,1:2|1:2|0:2,0:0:0:0:
393,329,214902,2,0,B|347:322|347:322|315:352,1,90,2|2,0:2|1:2,0:2:0:0:
266,358,215339,1,10,0:2:0:0:
184,301,215630,6,0,P|175:256|166:212,1,90,4|8,1:2|0:2,0:2:0:0:
241,147,216213,1,0,1:2:0:0:
241,147,216358,2,0,L|259:41,1,90,0|10,1:2|0:2,0:0:0:0:
224,26,216795,1,2,0:2:0:0:
224,26,216941,2,0,P|182:16|131:11,1,90,2|2,1:2|0:2,0:2:0:0:
91,34,217378,1,2,1:2:0:0:
20,103,217669,1,10,0:2:0:0:
82,179,217960,5,2,1:2:0:0:
9,246,218252,2,0,B|-9:288|-9:288|15:324,1,90,10|0,0:2|1:2,0:2:0:0:
107,374,218834,1,10,0:2:0:0:
107,374,218980,2,0,P|156:361|215:354,1,90,4|0,1:2|1:2,0:2:0:0:
237,328,219417,1,8,0:2:0:0:
237,328,219562,2,0,B|257:288|257:288|232:249,1,90,4|0,1:2|1:2,0:2:0:0:
193,218,219999,1,8,0:2:0:0:
247,135,220290,6,0,P|289:141|337:152,1,90,6|14,1:2|0:2,0:2:0:0:
403,223,220873,2,0,P|447:207|497:197,1,90,2|2,1:2|0:2,0:0:0:0:
502,153,221310,1,8,0:2:0:0:
502,153,221455,2,0,P|493:108|481:64,1,90,2|10,0:2|0:2,0:0:0:0:
398,12,222038,2,0,P|352:22|308:36,1,90,2|10,1:2|0:2,0:0:0:0:
234,98,222620,6,0,P|196:89|141:77,1,90,2|10,1:2|0:2,0:2:0:0:
114,39,223057,1,2,0:2:0:0:
19,66,223349,1,2,1:2:0:0:
34,168,223640,1,10,0:2:0:0:
34,168,223785,2,0,P|24:208|12:268,1,90,2|10,0:2|0:2,0:2:0:0:
40,304,224222,1,2,0:2:0:0:
40,304,224368,1,2,1:2:0:0:
118,260,224659,1,14,0:2:0:0:
180,336,224951,6,0,P|226:344|277:354,2,90,6|8|0,1:2|0:2|1:2,0:2:0:0:
224,247,225824,2,0,L|283:259,1,45,2|8,0:2|0:2,0:0:0:0:
313,235,226116,2,0,P|336:198|328:154,1,90,2|8,0:2|0:2,0:2:0:0:
288,63,226698,2,0,L|339:50,1,45,8|8,0:2|0:2,0:0:0:0:
368,19,226989,2,0,L|423:30,1,45,8|8,0:2|0:2,0:0:0:0:
461,28,227281,6,0,B|488:62|488:62|471:105,1,90,4|8,1:1|0:2,0:2:0:0:
453,202,227863,2,0,L|495:215,2,45,10|0|8,0:2|1:2|0:2,0:0:0:0:
413,231,228300,1,6,1:2:0:0:
329,283,228591,2,0,L|317:337,2,45,6|8|8,1:2|0:2|0:2,0:2:0:0:
295,246,229028,2,0,L|249:235,1,45,8|8,0:2|0:2,0:0:0:0:
228,191,229319,2,0,L|173:181,1,45,8|8,0:2|0:2,0:0:0:0:
135,193,229611,6,0,B|104:223|104:223|113:274,1,90,4|8,1:1|0:2,0:2:0:0:
100,317,230048,1,4,1:1:0:0:
193,361,230339,1,0,3:2:0:0:
193,361,230485,1,6,1:2:0:0:
256,192,230630,12,0,234271,0:2:0:0:
230,0,254368,5,6,1:2:0:0:
273,89,254659,1,6,1:2:0:0:
209,164,254951,1,6,1:2:0:0:
270,241,255249,6,0,P|262:286|255:337,1,90,4|10,1:1|0:2,0:0:0:0:
167,375,255832,2,0,P|123:367|71:362,1,90,2|10,1:2|0:2,0:0:0:0:
28,364,256270,2,0,B|3:326|3:326|20:285,1,90,2|0,1:2|1:2,0:2:0:0:
50,246,256708,1,8,0:2:0:0:
50,246,256854,1,2,3:2:0:0:
112,169,257146,2,0,L|168:181,1,45,2|10,1:2|0:2,0:0:0:0:
199,212,257438,1,2,0:2:0:0:
199,212,257584,6,0,L|289:191,1,90,4|10,1:2|0:2,0:0:0:0:
332,210,258020,2,0,P|347:252|356:308,1,90,2|2,0:2|1:2,0:0:0:0:
339,346,258457,1,10,0:2:0:0:
339,346,258603,1,2,1:2:0:0:
437,379,258894,1,2,1:2:0:0:
437,379,259040,1,10,0:2:0:0:
508,310,259331,2,0,B|526:270|526:270|504:229,1,90,2|10,1:2|0:2,0:2:0:0:
442,152,259914,5,2,1:2:0:0:
351,191,260203,1,10,0:2:0:0:
257,159,260492,2,0,L|248:108,1,45,2|0,1:2|1:2,0:0:0:0:
214,87,260781,1,10,0:2:0:0:
214,87,260926,2,0,B|147:97|170:118|91:141,1,135,6|8,1:2|0:2,0:2:0:0:
43,132,261504,2,0,P|21:170|36:216,1,90,4|2,1:2|1:2,0:2:0:0:
30,262,261938,2,8,P|54:267|89:274,1,45,10|10,0:2|0:2,0:2:0:0:
98,314,262235,5,6,1:2:0:0:
187,267,262545,1,12,0:2:0:0:
187,267,262686,2,0,B|258:266|240:302|313:308,1,135,2|10,0:2|0:2,0:2:0:0:
361,317,263252,2,0,B|393:285|393:285|378:240,1,90,2|0,1:2|1:2,0:2:0:0:
350,201,263697,1,8,0:2:0:0:
428,141,263994,1,2,1:2:0:0:
500,207,264279,2,0,P|498:232|494:261,1,45,10|2,0:2|0:2,0:0:0:0:
508,299,264565,5,6,1:2:0:0:
430,360,264856,1,10,0:2:0:0:
340,316,265147,1,6,1:2:0:0:
253,364,265438,1,10,0:2:0:0:
158,332,265730,2,0,P|137:336|103:350,2,45,6|0|8,1:2|1:2|0:2,0:0:0:0:
210,248,266312,2,0,P|201:203|183:149,1,90,10|8,1:2|0:2,0:0:0:0:
96,122,266895,6,0,P|74:128|52:133,1,45,6|2,1:2|0:2,0:0:0:0:
35,180,267186,2,0,P|44:220|58:278,1,90,12|0,0:2|1:2,0:2:0:0:
131,331,267768,2,0,L|183:315,1,45,8|2,0:2|1:2,0:0:0:0:
221,298,268060,1,2,0:2:0:0:
221,298,268205,2,0,P|262:305|317:317,1,90,2|2,1:2|0:2,0:2:0:0:
349,286,268642,2,0,P|356:263|363:235,2,45,2|2|10,1:2|1:2|0:2,0:0:0:0:
436,332,269225,6,0,P|443:288|461:238,1,90,6|8,1:2|0:2,0:2:0:0:
503,221,269661,1,0,1:2:0:0:
503,221,269807,1,8,0:2:0:0:
470,132,270098,1,8,0:2:0:0:
470,132,270244,2,0,P|431:125|368:105,1,90,4|0,1:2|1:2,0:2:0:0:
334,100,270681,1,10,0:2:0:0:
265,171,270972,2,0,B|266:238|299:223|307:296,1,135,8|8,1:2|0:2,0:0:0:0:
277,336,271555,6,0,P|233:346|179:357,1,90,6|8,1:2|0:2,0:2:0:0:
146,381,271992,2,0,B|114:348|114:348|122:304,1,90,2|2,0:2|1:2,0:2:0:0:
169,219,272574,1,0,1:2:0:0:
169,219,272720,1,8,0:2:0:0:
86,174,273011,1,8,0:2:0:0:
86,174,273157,2,0,P|76:131|64:78,1,90,2|2,0:2|1:2,0:2:0:0:
141,22,273739,5,0,1:2:0:0:
141,22,273885,2,0,P|186:14|231:3,1,90,8|8,0:2|0:2,0:0:0:0:
268,33,274322,2,0,P|315:39|369:54,1,90,2|2,0:2|1:2,0:2:0:0:
403,34,274759,1,8,0:2:0:0:
478,98,275050,1,8,0:2:0:0:
454,194,275341,1,8,0:2:0:0:
355,203,275632,1,8,0:2:0:0:
280,138,275924,2,0,P|263:141|231:149,1,45,8|0,0:2|1:2,0:0:0:0:
202,184,276215,6,0,P|209:228|220:277,1,90,8|8,0:2|0:2,0:0:0:0:
223,321,276652,2,0,B|261:294|261:294|319:314,1,90,2|2,0:2|1:2,0:2:0:0:
396,353,277234,1,0,1:2:0:0:
396,353,277380,1,8,0:2:0:0:
483,304,277671,1,8,0:2:0:0:
483,304,277817,2,0,P|486:257|496:202,1,90,2|2,0:2|1:2,0:2:0:0:
467,172,278254,1,8,0:2:0:0:
401,97,278545,6,0,P|408:65|414:35,2,45,12|2|8,0:2|0:2|0:2,0:0:0:0:
358,122,278982,2,0,P|308:117|253:98,1,90,2|2,0:2|1:2,0:2:0:0:
240,65,279419,1,8,0:2:0:0:
144,40,279710,1,8,0:2:0:0:
92,124,280001,1,8,0:2:0:0:
168,186,280293,2,0,P|205:239|184:301,1,135,8|8,0:2|0:2,0:0:0:0:
167,347,280875,6,0,P|122:342|78:332,1,90,6|8,1:2|0:2,0:0:0:0:
29,341,281312,2,0,B|0:307|0:307|16:263,1,90,2|2,0:2|1:2,0:2:0:0:
32,169,281895,1,0,1:2:0:0:
32,169,282040,2,0,L|17:107,2,45,8|2|8,0:2|0:2|0:2,0:0:0:0:
81,172,282477,2,0,B|117:142|117:142|169:159,1,90,2|2,0:2|1:2,0:2:0:0:
247,210,283060,5,0,1:2:0:0:
247,210,283205,2,0,P|251:232|256:263,2,45,8|2|8,0:2|0:2|0:2,0:0:0:0:
279,172,283642,2,0,B|319:187|319:187|355:157,1,90,2|2,0:2|1:2,0:2:0:0:
376,112,284079,1,8,0:2:0:0:
474,109,284370,1,8,0:2:0:0:
510,201,284661,1,8,0:2:0:0:
438,269,284953,1,8,0:2:0:0:
339,266,285244,2,0,P|312:270|285:276,1,45,8|0,0:2|1:2,0:0:0:0:
258,308,285535,6,0,P|210:301|164:299,1,90,12|0,0:2|1:2,0:0:0:0:
143,263,285972,1,0,1:2:0:0:
143,263,286118,2,0,P|148:242|154:211,1,45,8|8,0:2|0:2,0:0:0:0:
189,185,286409,2,0,P|183:155|180:124,1,45,8|8,0:2|0:2,0:0:0:0:
145,105,286700,1,12,0:2:0:0:
327,28,287283,2,0,B|371:31|371:31|376:42|376:42|420:52,1,90,2|2,0:1|0:1,0:2:0:0:
507,59,287865,6,0,P|494:103|483:153,1,90,6|10,1:2|0:2,0:2:0:0:
436,232,288448,2,0,L|448:286,2,45,2|0|2,1:2|1:2|0:2,0:0:0:0:
394,215,288885,1,8,0:2:0:0:
394,215,289030,1,2,0:2:0:0:
313,272,289322,1,8,0:2:0:0:
219,240,289613,2,0,L|209:196,1,45,0|0,1:2|1:2,0:0:0:0:
240,157,289904,1,10,0:2:0:0:
196,67,290195,5,2,1:2:0:0:
99,43,290487,1,10,0:2:0:0:
43,125,290778,2,0,L|-9:136,2,45,2|0|2,1:2|1:2|0:2,0:0:0:0:
87,157,291215,1,8,0:2:0:0:
87,157,291361,1,2,0:2:0:0:
40,244,291652,1,8,0:2:0:0:
101,321,291943,2,0,L|144:311,1,45,2|0,1:2|1:2,0:0:0:0:
191,328,292234,1,8,0:2:0:0:
253,251,292526,6,0,P|243:204|236:149,1,90,6|10,1:2|0:2,0:0:0:0:
170,89,293108,2,0,L|126:99,2,45,2|0|2,1:2|1:2|0:2,0:0:0:0:
199,50,293545,1,8,0:2:0:0:
199,50,293691,1,2,0:2:0:0:
287,6,293982,1,8,0:2:0:0:
377,46,294273,2,0,L|425:36,2,45,0|0|10,1:2|1:2|0:2,0:0:0:0:
338,137,294856,6,0,B|322:182|322:182|347:215,1,90,6|8,1:2|0:2,0:2:0:0:
384,248,295293,2,0,P|413:240|442:234,1,45,2|8,1:2|0:2,0:0:0:0:
484,325,295729,1,10,0:2:0:0:
484,325,295875,2,0,P|442:339|392:353,1,90,6|0,1:2|1:2,0:2:0:0:
351,334,296312,1,12,0:2:0:0:
261,375,296603,2,0,P|218:325|231:261,1,135,4|8,1:3|0:2,0:0:0:0:
270,230,297186,5,6,1:2:0:0:
219,145,297477,1,14,0:2:0:0:
122,167,297768,2,0,L|69:158,2,45,2|0|2,1:2|1:2|0:2,0:0:0:0:
143,216,298205,1,8,0:2:0:0:
143,216,298351,1,2,0:2:0:0:
95,302,298642,1,8,0:2:0:0:
175,360,298933,2,0,L|229:350,1,45,0|0,1:2|1:2,0:0:0:0:
268,359,299225,1,10,0:2:0:0:
319,274,299516,6,0,L|301:183,1,90,2|10,1:2|0:2,0:0:0:0:
213,139,300098,2,0,L|161:150,2,45,2|0|2,1:2|1:2|0:2,0:0:0:0:
230,95,300535,1,8,0:2:0:0:
230,95,300681,1,2,0:2:0:0:
299,24,300972,1,8,0:2:0:0:
383,75,301263,2,0,L|435:65,1,45,2|0,1:2|1:2,0:0:0:0:
461,31,301555,1,8,0:2:0:0:
498,122,301846,6,0,P|502:166|517:228,1,90,6|10,1:2|0:2,0:0:0:0:
470,301,302428,2,0,P|472:324|480:356,2,45,2|0|2,1:2|1:2|0:2,0:0:0:0:
427,287,302865,1,8,0:2:0:0:
427,287,303011,1,2,0:2:0:0:
337,245,303302,1,8,0:2:0:0:
260,308,303594,2,0,P|237:311|201:320,2,45,0|0|10,1:2|1:2|0:2,0:0:0:0:
219,217,304176,6,0,P|210:170|201:126,1,90,6|8,1:2|0:2,0:2:0:0:
229,89,304617,1,2,1:2:0:0:
229,89,304764,1,8,0:2:0:0:
143,49,305058,1,10,0:2:0:0:
143,49,305205,2,0,B|99:41|99:41|57:80,1,90,4|6,1:1|1:2,0:0:0:0:
16,76,305646,1,8,0:2:0:0:
10,174,305925,2,0,L|26:234,1,45,10|8,1:2|0:2,0:0:0:0:
66,238,306231,2,0,L|82:293,1,45,8|8,0:2|0:2,0:0:0:0:
97,321,306511,6,0,L|25:342,2,72,2|0|0,0:2|0:2|0:2,0:2:0:0:
178,351,307384,1,0,0:2:0:0:
215,273,307676,2,0,L|192:195,2,72,2|0|0,0:2|0:2|0:2,0:2:0:0:
291,314,308549,1,0,0:2:0:0:
357,258,308841,2,0,L|437:239,2,72,2|0|0,0:2|0:2|0:2,0:2:0:0:
294,198,309714,1,0,0:2:0:0:
315,114,310006,2,0,L|398:94,2,72,2|0|0,0:2|0:2|0:2,0:2:0:0:
241,68,310879,1,0,0:2:0:0:
170,118,311171,6,0,L|122:130,2,36,2|0|2,0:2|0:2|0:2,0:2:0:0:
238,169,311753,2,0,L|258:251,1,72,0|0,0:2|0:2,0:0:0:0:
314,301,312336,2,0,L|356:289,2,36,2|0|2,0:2|0:2|0:2,0:2:0:0:
251,360,312918,2,0,L|175:381,1,72,0|0,0:2|0:2,0:0:0:0:
97,359,313501,2,0,L|55:371,2,36,2|0|2,0:2|0:2|0:2,0:2:0:0:
115,274,314083,2,0,L|90:197,1,72,0|0,0:2|0:2,0:0:0:0:
17,162,314666,1,2,0:2:0:0:
256,192,314811,12,0,319180,0:2:0:0:
