osu file format v14

[General]
AudioFilename: audio.mp3
AudioLeadIn: 0
PreviewTime: 1121
Countdown: 0
SampleSet: Soft
StackLeniency: 0.3
Mode: 0
LetterboxInBreaks: 0
WidescreenStoryboard: 1

[Editor]
Bookmarks: 17577,38548,57189,75830,99859,101461,120101,138742,176024,234276,293110,306509
DistanceSpacing: 0.4
BeatDivisor: 4
GridSize: 8
TimelineZoom: 1.5

[Metadata]
Title:Bukiyou na Otoko
TitleUnicode:不器用な男
Artist:Iori Kanzaki
ArtistUnicode:カンザキイオリ
Creator:AirinCat
Version:Hard
Source:
Tags:fuju japanese rock jrock clumsy man bukiyo KAMITSUBAKI STUDIO
BeatmapID:3515730
BeatmapSetID:1655854

[Difficulty]
HPDrainRate:4
CircleSize:3.8
OverallDifficulty:6
ApproachRate:8
SliderMultiplier:1.4
SliderTickRate:1

[Events]
//Background and Video events
Video,0,"shinitakunai.mp4"
0,0,"bg.png",0,0
//Break Periods
2,120304,137288
2,234471,252912
//Storyboard Layer 0 (Background)
//Storyboard Layer 1 (Fail)
//Storyboard Layer 2 (Pass)
//Storyboard Layer 3 (Foreground)
//Storyboard Layer 4 (Overlay)
//Storyboard Sound Samples

[TimingPoints]
1266,291.26213592233,4,2,1,30,1,0
1266,-100,4,2,1,30,0,0
9906,-166.666666666667,4,2,1,30,0,0
10586,-125,4,2,1,30,0,0
16702,-111.111111111111,4,2,1,40,0,0
17576,-100,4,2,1,60,0,0
22236,-250,4,2,1,60,0,0
22528,-100,4,2,1,60,0,0
27770,267.857142857143,4,2,1,60,1,0
27770,-100,4,2,1,60,0,0
27903,288.461538461538,4,2,1,60,1,0
27903,-100,4,2,1,60,0,0
29227,291.26213592233,4,2,1,60,1,0
29227,-100,4,2,1,60,0,0
38547,-125,4,2,1,40,0,0
57188,289.156626506025,4,2,1,60,1,0
57188,-111.111111111111,4,2,1,60,0,0
58344,294.840294840295,4,2,1,60,1,0
58344,-111.111111111111,4,2,1,60,0,0
59523,291.26213592233,4,2,1,60,1,0
59523,-111.111111111111,4,2,1,60,0,0
65343,285.714285714286,4,2,1,60,1,0
65343,-111.111111111111,4,2,1,60,0,0
66485,293.398533007335,4,2,1,60,1,0
66485,-100,4,2,1,60,0,0
67658,295.566502463054,4,2,1,60,1,0
67658,-100,4,2,1,60,0,0
68840,291.26213592233,4,2,1,60,1,0
68840,-100,4,2,1,60,0,0
71168,291.26213592233,4,2,1,60,1,0
71168,-100,4,2,1,60,0,0
73498,291.970802919707,4,2,1,70,1,0
73498,-100,4,2,1,70,0,0
75833,291.26213592233,4,2,1,70,1,1
75833,-100,4,2,1,70,0,1
101464,-100,4,2,1,60,0,0
120177,-100,4,2,1,20,0,0
129420,-142.857142857143,4,2,1,30,0,0
137575,309.278350515464,4,2,1,40,1,0
137575,-100,4,2,1,40,0,0
138193,277.777777777778,4,2,1,40,1,0
138193,-142.857142857143,4,2,1,40,0,0
138748,285.714285714286,4,2,1,40,1,0
138748,-125,4,2,1,40,0,0
139319,297.029702970297,4,2,1,40,1,0
139319,-125,4,2,1,40,0,0
139913,290.768112430337,4,2,1,40,1,0
139913,-125,4,2,1,40,0,0
143402,291.26213592233,4,2,1,40,1,0
143402,-125,4,2,1,40,0,0
155052,-71.4285714285714,4,2,1,60,0,0
155926,-71.4285714285714,4,2,1,60,0,0
156806,285.714285714286,4,2,1,50,1,0
156806,-166.666666666667,4,2,1,50,0,0
157377,289.855072463768,4,2,1,60,1,0
157377,-111.111111111111,4,2,1,60,0,0
158536,291.616038882138,4,2,1,60,1,0
158536,-111.111111111111,4,2,1,60,0,0
162035,291.26213592233,4,2,1,60,1,0
162035,-111.111111111111,4,2,1,60,0,0
166695,293.757649938801,4,2,1,60,1,0
166695,-111.111111111111,4,2,1,60,0,0
167870,290.697674418605,4,2,1,60,1,0
167870,-111.111111111111,4,2,1,60,0,0
171357,-100,4,2,1,50,0,0
171358,291.26213592233,4,2,1,50,1,0
171358,-100,4,2,1,50,0,0
172522,-100,4,2,1,60,0,0
173105,300,4,2,1,60,1,0
173105,-100,4,2,1,60,0,0
173705,284.360189573459,4,2,1,70,1,0
173705,-100,4,2,1,70,0,0
174131,291.26213592233,4,2,1,70,1,0
174131,-100,4,2,1,70,0,0
174567,295.566502463054,4,2,1,70,1,0
174567,-100,4,2,1,70,0,0
175010,288.461538461538,4,2,1,70,1,0
175010,-100,4,2,1,70,0,0
176019,291.26213592233,4,2,1,70,1,1
176019,-100,4,2,1,70,0,1
201650,-125,4,2,1,60,0,0
201941,-83.3333333333333,4,2,1,60,0,0
202232,-100,4,2,1,60,0,0
220290,-100,4,2,1,60,0,0
220580,-76.9230769230769,4,2,1,60,0,0
220873,-100,4,2,1,60,0,0
224659,-111.111111111111,4,2,1,60,0,0
224951,-100,4,2,1,60,0,0
230630,-90.9090909090909,4,2,1,20,0,0
254368,-76.9230769230769,4,2,1,60,0,0
255249,291.970802919708,4,2,1,70,1,1
255249,-100,4,2,1,70,0,1
257584,291.26213592233,4,2,1,70,1,1
257584,-100,4,2,1,70,0,1
259914,289.156626506024,4,2,1,70,1,1
259914,-100,4,2,1,70,0,1
261938,297.029702970297,4,2,1,70,1,1
261938,-100,4,2,1,70,0,1
262235,310.880829015544,4,2,1,70,1,1
262235,-100,4,2,1,70,0,1
262545,283.018867924528,4,2,1,70,1,1
262545,-100,4,2,1,70,0,1
263252,297.029702970297,4,2,1,70,1,1
263252,-100,4,2,1,70,0,1
263994,285.714285714286,4,2,1,70,1,1
263994,-100,4,2,1,70,0,1
264565,291.26213592233,4,2,1,70,1,1
264565,-100,4,2,1,70,0,1
265730,-100,4,2,1,70,0,1
266895,291.26213592233,4,2,1,70,1,1
266900,-100,4,2,1,70,0,1
286700,-100,4,2,1,70,0,0
287283,-100,4,2,1,46,0,1
287865,-100,4,2,1,60,0,0
304176,294.117647058824,4,2,1,60,1,0
305646,279.06976744186,4,2,1,60,1,0
305925,306.122448979592,4,2,1,60,1,0
306511,291.26213592233,4,2,1,30,1,0
306511,-166.666666666667,4,2,1,30,0,0
314811,-166.666666666667,4,2,1,10,0,0
319180,-166.666666666667,4,2,1,5,0,0

[Colours]
Combo1 : 202,224,230
Combo2 : 230,199,231
Combo3 : 221,188,174
Combo4 : 218,214,186
Combo5 : 197,214,192

[HitObjects]
13,345,10586,6,0,L|0:290,1,56,2|0,1:2|0:2,0:2:0:0:
19,213,10877,2,0,P|75:198|135:185,1,112,0|0,1:2|1:0,0:2:0:0:
185,131,11314,1,0,0:0:0:0:
185,131,11460,2,0,L|249:145,1,56,8|0,1:1|0:0,0:0:0:0:
304,191,11751,2,0,L|359:177,1,56,2|0,1:2|0:0,0:0:0:0:
409,116,12042,2,0,L|473:130,1,56,0|8,1:0|0:1,0:0:0:0:
510,192,12333,2,0,P|498:249|489:307,1,112,0|0,1:0|1:0,0:0:0:0:
438,363,12770,1,0,0:0:0:0:
368,314,12916,5,2,1:2:0:0:
368,314,13207,2,0,L|313:326,1,56,0|0,1:2|0:0,0:2:0:0:
245,367,13499,2,0,P|216:320|230:267,1,112,0|8,1:2|1:1,0:0:0:0:
271,116,14081,2,0,P|223:126|155:141,1,112,2|8,1:2|1:1,0:2:0:0:
0,222,14664,2,0,P|54:236|107:252,1,112,8|8,1:1|1:1,0:0:0:0:
301,384,15246,6,0,L|363:366,2,56,2|0|0,1:2|0:2|1:2,0:0:0:0:
229,356,15683,1,8,0:1:0:0:
228,356,15829,2,0,P|218:300|206:245,1,112,0|8,1:2|1:1,0:2:0:0:
260,181,16265,1,0,0:2:0:0:
260,181,16411,1,2,1:2:0:0:
148,101,16702,2,0,L|79:113,1,62.9999980773926,12|0,0:2|0:2,0:2:0:0:
21,180,16994,2,0,L|25:211,3,31.4999990386963,8|8|8|8,0:2|0:2|0:2|0:2,0:0:0:0:
59,240,17285,2,0,L|52:270,3,31.4999990386963,8|8|8|8,0:2|0:2|0:2|0:2,0:0:0:0:
20,307,17576,6,0,P|87:303|135:351,1,140,4|8,1:1|0:2,0:2:0:0:
218,328,18013,1,2,0:2:0:0:
218,328,18159,2,0,P|225:293|235:260,2,70,0|2|8,1:2|1:2|0:2,0:0:0:0:
279,384,18596,1,4,1:2:0:0:
444,357,18887,1,2,1:2:0:0:
444,357,19032,2,0,P|450:318|460:280,1,70,8|2,0:2|3:2,0:0:0:0:
420,214,19324,2,0,L|348:198,1,70,0|10,1:2|0:2,0:0:0:0:
268,228,19615,2,0,L|229:219,3,35,8|8|10|8,1:2|0:2|0:2|0:2,0:2:0:0:
189,229,19906,6,0,P|150:169|177:108,1,140,6|14,1:2|0:2,0:2:0:0:
354,0,20489,2,0,P|364:35|369:72,1,70,2|0,1:2|1:2,0:0:0:0:
368,68,20707,1,0,3:2:0:0:
368,68,20780,2,0,P|335:75|296:85,1,70,2|8,0:2|0:2,0:0:0:0:
329,167,21071,2,0,P|363:157|407:148,1,70,2|0,0:2|1:2,0:0:0:0:
471,194,21363,2,0,P|477:230|485:273,1,70,8|2,0:2|0:2,0:0:0:0:
448,340,21654,2,0,P|415:346|376:354,1,70,0|0,1:2|1:2,0:0:0:0:
312,306,21945,2,0,P|278:298|240:292,1,70,10|0,0:2|3:2,0:0:0:0:
187,352,22236,5,2,1:2:0:0:
187,352,22528,2,0,P|198:283|216:215,1,140,10|2,0:2|1:2,0:2:0:0:
174,146,22965,1,0,1:2:0:0:
174,146,23037,1,0,3:2:0:0:
174,146,23110,2,0,P|143:137|103:129,1,70,2|8,0:2|0:2,0:0:0:0:
27,166,23401,2,0,P|19:195|11:234,1,70,2|0,0:2|1:2,0:0:0:0:
76,289,23693,2,0,P|84:323|93:378,1,70,8|2,0:2|0:2,0:0:0:0:
175,384,23984,2,0,P|213:374|249:369,1,70,2|0,1:2|1:2,0:0:0:0:
302,310,24275,2,0,P|335:316|375:325,1,70,8|0,0:2|3:2,0:2:0:0:
438,375,24566,6,0,P|475:317|461:250,1,140,6|10,1:2|0:2,0:0:0:0:
454,112,25149,2,0,P|424:120|375:135,1,70,2|0,1:2|1:2,0:0:0:0:
386,131,25367,1,0,3:2:0:0:
386,131,25440,2,0,P|375:97|367:63,1,70,2|8,0:2|0:2,0:0:0:0:
295,22,25732,2,0,P|266:29|214:41,1,70,2|0,0:2|1:2,0:0:0:0:
176,107,26023,2,0,P|184:139|193:180,1,70,8|2,0:2|0:2,0:0:0:0:
262,219,26314,2,0,P|254:252|246:303,1,70,0|0,1:2|1:2,0:0:0:0:
195,349,26605,2,0,P|163:343|125:337,1,70,10|0,0:2|3:2,0:2:0:0:
40,359,26897,6,0,P|9:298|40:238,1,140,6|8,1:2|0:2,0:2:0:0:
0,170,27333,2,0,B|73:180|50:209|127:225,1,140,2|0,0:2|1:2,0:2:0:0:
192,175,27770,2,0,P|186:134|179:92,1,70,2|8,0:2|0:2,0:2:0:0:
351,24,28191,1,2,1:2:0:0:
351,24,28335,2,0,L|363:107,1,70,12|0,0:2|0:0,0:2:0:0:
426,144,28624,2,0,L|464:133,7,35,0|0|8|8|8|8|8|8,1:2|1:0|0:2|0:2|0:2|0:2|0:2|0:2,0:0:0:0:
499,157,29227,6,0,B|493:231|460:213|452:286,1,140,6|14,1:2|0:2,0:2:0:0:
317,373,29809,2,0,P|283:362|246:353,1,70,2|2,1:2|1:2,0:0:0:0:
249,353,30027,1,0,3:2:0:0:
249,353,30100,2,0,P|258:319|267:285,1,70,2|8,0:2|0:2,0:0:0:0:
338,229,30392,2,0,P|329:195|321:160,1,70,2|0,0:2|1:2,0:0:0:0:
248,122,30683,2,0,P|214:128|172:137,1,70,8|2,0:2|0:2,0:0:0:0:
126,203,30974,2,0,P|93:196|55:189,1,70,0|0,1:2|1:2,0:0:0:0:
41,275,31265,2,0,P|72:279|114:291,1,70,10|0,0:2|3:2,0:0:0:0:
193,263,31557,6,0,P|254:290|265:356,1,140,2|14,1:2|0:2,0:0:0:0:
450,331,32139,2,0,L|435:262,1,70,0|0,1:2|1:2,0:0:0:0:
435,262,32358,1,0,3:2:0:0:
435,262,32430,2,0,L|351:279,1,70,2|8,0:2|0:2,0:0:0:0:
344,192,32722,2,0,P|378:184|412:176,1,70,2|0,0:2|1:2,0:0:0:0:
465,112,33013,2,0,P|456:78|450:42,1,70,8|2,0:2|0:2,0:0:0:0:
374,8,33304,2,0,L|300:24,1,70,2|0,1:2|1:2,0:0:0:0:
239,73,33595,2,0,P|209:66|170:58,1,70,8|0,0:2|3:2,0:2:0:0:
83,80,33887,5,6,1:2:0:0:
83,80,34178,2,0,P|30:121|34:188,1,140,10|0,0:2|1:2,0:2:0:0:
87,267,34615,1,0,1:2:0:0:
87,267,34688,1,0,3:2:0:0:
87,267,34760,2,0,L|162:250,1,70,2|8,0:2|0:2,0:0:0:0:
210,188,35052,2,0,L|279:199,1,70,2|0,0:2|1:2,0:0:0:0:
333,267,35343,2,0,L|320:338,1,70,8|2,0:2|0:2,0:0:0:0:
401,355,35634,2,0,L|413:286,1,70,0|0,1:2|1:2,0:0:0:0:
481,237,35926,2,0,L|469:168,1,70,10|0,0:2|3:2,0:2:0:0:
512,99,36217,6,0,B|440:109|454:132|383:151,1,140,2|10,1:2|0:2,0:2:0:0:
305,125,36654,1,2,0:2:0:0:
305,125,36799,2,0,L|288:46,2,70,0|8|10,1:2|0:2|0:2,0:0:0:0:
249,185,37236,1,4,1:2:0:0:
156,77,37527,1,6,1:2:0:0:
66,177,37819,1,6,1:2:0:0:
135,230,37964,2,0,L|122:275,3,35,2|4|8|8,0:2|0:3|0:3|0:3,0:0:0:0:
89,298,38256,2,4,L|99:338,3,35,4|4|4|4,0:3|0:3|0:3|0:3,0:3:0:0:
130,357,38547,6,0,B|228:355|197:313|289:313,1,168,4|0,1:2|1:2,0:2:0:0:
416,367,39421,2,0,P|441:357|472:352,1,56,8|0,0:1|0:2,0:2:0:0:
512,282,39712,2,0,L|496:226,3,56,2|0|2|0,0:2|1:2|0:2|0:2,0:0:0:0:
434,173,40294,2,0,P|379:170|344:211,1,112,2|8,1:2|0:1,0:2:0:0:
276,330,40877,6,0,P|223:319|163:309,1,112,2|2,1:2|0:2,0:2:0:0:
89,345,41314,2,0,P|23:299|32:219,1,168,0|8,1:2|0:1,0:2:0:0:
32,219,42188,2,0,P|90:207|141:195,1,112,0|0,1:2|0:2,0:2:0:0:
201,130,42625,2,0,P|259:139|323:156,1,112,0|8,1:2|0:1,0:2:0:0:
440,339,43207,6,0,P|466:291|447:241,1,112,2|0,1:2|0:2,0:2:0:0:
497,178,43644,2,0,B|409:203|431:229|349:256,1,168,0|8,1:2|0:1,0:2:0:0:
291,313,44226,1,0,0:2:0:0:
291,313,44372,2,0,L|233:302,3,56,2|0|2|0,0:2|1:2|0:2|0:2,0:0:0:0:
155,336,44955,2,0,P|118:296|127:242,1,112,2|8,1:2|0:1,0:2:0:0:
188,184,45392,1,0,0:2:0:0:
188,184,45537,6,0,P|176:129|164:74,1,112,2|2,1:2|0:2,0:2:0:0:
87,36,45974,2,0,P|12:63|5:142,1,168,0|8,1:2|0:1,0:2:0:0:
28,353,46848,2,0,P|70:318|72:264,1,112,2|8,1:2|0:3,0:2:0:0:
81,269,47212,1,8,0:3:0:0:
81,269,47285,2,0,L|162:284,1,56,8|8,0:3|0:3,0:0:0:0:
193,338,47576,2,0,L|259:324,1,56,4|4,0:3|0:3,0:0:0:0:
330,356,47867,6,0,P|370:319|367:265,1,112,6|0,1:2|1:2,0:2:0:0:
418,200,48304,2,0,P|410:173|400:142,1,56,8|0,0:1|1:2,0:2:0:0:
457,75,48595,2,0,L|520:86,2,56,2|8|0,0:2|1:1|0:2,0:2:0:0:
400,10,49032,2,0,L|341:23,1,56,2|0,1:2|0:2,0:2:0:0:
292,85,49324,2,0,L|234:73,1,56,0|8,1:2|0:1,0:0:0:0:
157,107,49615,2,0,L|143:167,2,56,2|0|8,1:2|0:2|1:1,0:0:0:0:
117,35,50052,1,0,0:2:0:0:
117,35,50197,5,2,1:2:0:0:
0,133,50489,2,0,L|17:209,1,56,8|8,1:1|0:1,0:2:0:0:
0,273,50780,2,0,P|53:256|107:241,1,112,0|8,1:2|1:1,0:2:0:0:
236,312,51362,2,0,B|293:315|283:335|343:341,1,112,2|0,1:2|1:2,0:2:0:0:
426,365,51799,1,8,0:1:0:0:
426,365,51945,2,0,P|461:323|453:269,1,112,2|8,1:2|1:1,0:2:0:0:
492,124,52527,5,2,1:2:0:0:
492,124,52819,2,0,L|429:139,1,56,2|8,1:2|0:1,0:2:0:0:
375,194,53110,2,0,P|324:182|260:169,1,112,0|8,1:2|1:1,0:2:0:0:
105,275,53693,2,0,P|64:233|72:180,1,112,2|0,1:2|1:2,0:2:0:0:
8,131,54129,1,8,0:1:0:0:
8,131,54275,2,0,L|32:57,1,56,2|0,1:2|0:2,0:0:0:0:
103,38,54566,2,0,L|162:52,1,56,8|0,1:1|0:2,0:2:0:0:
219,122,54858,5,2,1:2:0:0:
219,122,55149,2,0,L|278:109,2,56,2|8|0,1:2|0:1|1:2,0:2:0:0:
113,280,55731,2,0,P|106:252|98:226,1,56,2|0,1:3|0:2,0:2:0:0:
190,232,56023,2,0,P|220:225|251:217,1,56,2|0,1:2|1:2,0:0:0:0:
315,273,56314,2,0,P|361:301|414:288,1,112,12|10,0:2|0:2,0:0:0:0:
471,224,56751,1,8,0:3:0:0:
471,224,56896,1,4,0:3:0:0:
392,82,57188,6,0,B|320:87|338:111|272:116,1,125.999996154785,6|8,1:2|0:2,0:2:0:0:
147,230,57766,2,0,P|155:260|162:291,2,62.9999980773926,2|0|0,1:2|1:2|0:2,0:0:0:0:
66,198,58200,1,8,0:2:0:0:
66,198,58344,2,0,P|26:151|40:92,1,125.999996154785,2|8,0:2|0:2,0:2:0:0:
164,0,58933,2,0,L|225:14,1,62.9999980773926,2|0,1:2|1:2,0:0:0:0:
292,76,59228,1,10,0:2:0:0:
292,76,59523,6,0,P|360:58|432:39,2,125.999996154785,2|8|0,1:2|0:2|1:2,0:2:0:0:
236,141,60251,1,0,1:2:0:0:
236,141,60396,2,0,P|243:175|251:210,1,62.9999980773926,2|8,0:2|0:2,0:2:0:0:
196,273,60688,2,0,P|165:279|127:290,1,62.9999980773926,2|0,0:2|1:2,0:0:0:0:
64,244,60979,1,8,0:2:0:0:
64,244,61270,2,0,L|46:183,1,62.9999980773926,2|0,1:2|1:2,0:2:0:0:
90,104,61561,1,10,0:2:0:0:
90,104,61853,6,0,P|151:90|211:70,1,125.999996154785,2|8,1:2|0:2,0:2:0:0:
379,161,62435,2,0,P|414:166|456:181,2,62.9999980773926,2|0|0,1:2|1:2|0:2,0:2:0:0:
298,193,62872,1,8,0:2:0:0:
298,193,63018,2,0,P|260:240|275:299,1,125.999996154785,2|8,0:2|0:2,0:2:0:0:
390,380,63600,2,0,P|422:372|462:363,1,62.9999980773926,2|0,1:2|1:2,0:2:0:0:
512,310,63891,6,0,B|501:248|480:261|468:193,1,125.999996154785,10|0,0:2|1:2,0:2:0:0:
512,27,64474,2,0,P|465:66|405:55,1,125.999996154785,10|0,0:2|1:2,0:2:0:0:
338,9,64911,1,0,1:2:0:0:
338,9,65056,2,0,P|313:14|270:26,1,62.9999980773926,2|8,0:2|0:2,0:2:0:0:
223,96,65343,2,0,L|238:167,1,62.9999980773926,2|0,0:2|1:2,0:2:0:0:
189,228,65628,2,0,B|126:217|136:202|68:192,1,125.999996154785,12|8,0:2|0:2,0:0:0:0:
1,243,66057,1,8,0:2:0:0:
1,243,66200,2,0,L|13:307,1,62.9999980773926,8|8,0:2|0:2,0:0:0:0:
75,371,66485,6,0,P|146:353|215:341,1,140,6|8,1:2|0:2,0:2:0:0:
320,234,67071,2,0,P|356:242|390:252,2,70,2|0|0,1:2|1:2|0:2,0:0:0:0:
258,179,67511,1,8,0:2:0:0:
258,179,67658,2,0,P|242:113|293:64,1,140,2|8,0:2|0:2,0:2:0:0:
491,0,68249,2,0,P|500:33|510:74,1,70,0|0,1:2|1:2,0:2:0:0:
448,132,68544,1,10,0:2:0:0:
448,132,68840,6,0,P|413:138|374:149,1,70,0|0,1:2|0:2,0:2:0:0:
403,232,69131,2,0,P|437:225|477:215,1,70,8|0,0:2|0:2,0:2:0:0:
493,303,69422,2,0,P|459:310|424:319,1,70,0|0,1:2|1:2,0:0:0:0:
361,370,69713,1,2,0:2:0:0:
361,370,69859,2,0,P|291:357|223:346,1,140,8|0,0:2|1:2,0:2:0:0:
138,374,70296,2,0,P|94:322|113:257,1,140,8|0,0:2|1:2,0:0:0:0:
179,202,70733,1,0,1:2:0:0:
179,202,70878,1,10,0:2:0:0:
18,150,71168,6,0,P|-12:90|21:32,1,140,6|10,1:2|0:2,0:2:0:0:
210,67,71750,2,0,P|248:56|283:47,2,70,2|0|0,1:2|1:2|0:2,0:0:0:0:
143,124,72187,1,8,0:2:0:0:
143,124,72333,2,0,P|151:157|161:197,1,70,2|0,0:2|1:2,0:0:0:0:
107,267,72624,1,8,0:2:0:0:
107,267,72915,2,0,L|38:284,1,70,2|0,1:2|1:2,0:2:0:0:
65,368,73206,2,0,L|134:351,1,70,8|0,0:2|1:2,0:0:0:0:
242,342,73498,6,0,L|321:361,2,70,14|0|0,0:2|1:2|1:2,0:0:0:0:
212,263,73935,1,14,0:2:0:0:
212,263,74081,2,0,L|230:190,1,70,0|0,1:2|1:2,0:0:0:0:
299,141,74373,1,14,0:2:0:0:
299,141,74519,2,0,L|372:158,1,70,0|0,1:2|1:2,0:0:0:0:
416,225,74811,1,10,0:2:0:0:
490,189,74957,2,0,L|507:121,1,70,10|0,0:2|1:2,0:2:0:0:
467,49,75249,2,0,L|396:32,1,70,10|8,0:2|0:2,0:0:0:0:
309,51,75541,2,0,L|256:32,3,35,8|8|8|8,0:2|0:2|0:2|0:2,0:2:0:0:
231,56,75833,6,0,P|189:109|205:174,1,140,4|10,1:1|0:2,0:2:0:0:
273,239,76269,2,0,P|309:230|346:223,2,70,2|0|0,0:2|1:2|1:2,0:0:0:0:
242,318,76706,1,10,0:2:0:0:
164,284,76852,2,0,B|88:280|92:316|29:317,1,140,2|0,1:2|1:2,0:2:0:0:
0,238,77289,2,0,P|9:199|16:165,1,70,8|0,0:2|0:2,0:2:0:0:
84,118,77580,2,0,P|121:128|165:135,1,70,2|0,1:2|1:2,0:0:0:0:
218,84,77871,1,10,0:2:0:0:
399,184,78163,6,0,P|389:217|381:251,1,70,2|0,1:2|1:2,0:0:0:0:
299,287,78454,2,0,P|240:253|238:186,1,140,10|2,0:2|1:2,0:2:0:0:
299,126,78891,1,2,1:2:0:0:
299,126,79036,1,10,0:2:0:0:
218,84,79182,2,0,P|143:102|83:118,1,140,2|0,1:2|1:2,0:2:0:0:
25,190,79619,1,8,0:2:0:0:
25,190,79765,2,0,L|43:260,1,70,2|0,3:2|1:2,0:2:0:0:
124,309,80056,5,2,1:2:0:0:
124,309,80201,1,10,0:2:0:0:
124,309,80347,2,0,L|200:289,1,70,2|4,0:2|1:2,0:0:0:0:
284,312,80638,1,2,1:2:0:0:
284,312,80784,1,10,0:2:0:0:
284,312,80930,2,0,P|344:280|409:300,1,140,2|2,0:2|1:2,0:0:0:0:
469,235,81366,1,10,0:2:0:0:
469,235,81512,6,0,B|454:160|425:178|417:106,1,140,2|2,1:2|1:2,0:2:0:0:
364,39,81949,2,0,L|295:50,1,70,10|2,0:2|0:2,0:0:0:0:
224,111,82240,2,0,L|132:91,1,70,2|0,1:2|1:2,0:2:0:0:
112,21,82532,1,10,0:2:0:0:
162,250,82823,6,0,P|198:239|245:230,1,70,2|0,1:2|1:2,0:0:0:0:
292,175,83114,2,0,P|332:184|370:195,1,70,10|2,0:2|0:2,0:0:0:0:
445,155,83405,2,0,P|490:205|481:273,1,140,2|10,1:2|0:2,0:2:0:0:
471,363,83842,2,0,B|391:355|417:322|341:313,1,140,6|0,1:2|1:2,0:2:0:0:
262,347,84279,1,8,0:2:0:0:
202,286,84425,2,0,P|217:217|229:148,1,140,4|2,1:2|1:2,0:2:0:0:
180,80,84862,2,0,L|130:71,3,35,10|8|10|8,0:2|0:2|0:2|0:2,0:2:0:0:
106,42,85153,6,0,P|44:67|33:134,1,140,6|12,1:2|0:2,0:2:0:0:
65,214,85590,2,0,P|58:245|47:290,2,70,2|0|0,0:2|1:2|1:2,0:2:0:0:
136,169,86027,1,10,0:2:0:0:
203,221,86172,2,0,B|277:232|253:258|332:270,1,140,2|0,1:2|1:2,0:2:0:0:
401,322,86609,2,0,P|437:310|474:302,1,70,8|0,0:2|3:2,0:0:0:0:
512,233,86900,2,0,P|501:197|491:161,1,70,2|0,1:2|1:2,0:2:0:0:
418,130,87192,1,10,0:2:0:0:
332,270,87483,6,0,P|304:274|259:285,1,70,0|2,1:2|0:2,0:0:0:0:
202,339,87774,2,0,P|171:328|133:322,1,70,10|2,0:2|0:2,0:0:0:0:
63,368,88066,2,0,P|10:324|12:257,1,140,2|10,1:2|0:2,0:2:0:0:
0,170,88502,2,0,P|76:187|142:203,1,140,2|0,1:2|1:2,0:2:0:0:
201,258,88939,1,8,0:2:0:0:
318,116,89231,2,0,P|324:78|331:43,1,70,2|0,1:2|1:2,0:0:0:0:
238,29,89522,2,0,P|231:66|225:102,1,70,10|0,0:2|0:2,0:2:0:0:
270,192,89813,5,4,1:2:0:0:
270,192,89959,2,0,B|347:202|328:225|401:236,1,140,2|0,1:2|0:2,0:0:0:0:
482,212,90396,2,0,P|489:173|499:136,2,70,0|0|8,1:2|1:2|0:2,0:0:0:0:
508,293,90833,1,2,1:2:0:0:
446,345,90978,2,0,P|377:329|310:311,1,140,2|8,0:2|0:2,0:0:0:0:
236,353,91415,1,2,0:2:0:0:
236,353,91561,2,0,L|167:367,1,70,2|2,1:2|1:2,0:0:0:0:
84,332,91852,1,8,0:2:0:0:
84,332,92143,6,0,P|43:278|64:213,1,140,4|8,1:2|0:2,0:0:0:0:
133,158,92580,1,0,1:2:0:0:
133,158,92726,2,0,L|207:174,1,70,10|0,0:2|1:2,0:0:0:0:
265,229,93017,1,10,0:2:0:0:
347,216,93163,6,0,P|397:170|391:103,1,140,4|0,1:2|1:2,0:2:0:0:
412,16,93599,2,0,P|379:23|336:32,1,70,8|2,0:2|0:2,0:0:0:0:
266,64,93891,2,0,L|219:55,3,35,10|8|8|8,1:2|0:0|0:2|0:2,0:0:0:0:
190,25,94182,2,0,L|149:36,3,35,8|8|8|8,0:2|0:2|0:2|0:2,0:2:0:0:
126,71,94473,6,0,L|141:139,2,70,6|2|8,1:2|0:2|0:2,0:2:0:0:
42,92,94910,2,0,L|57:160,1,70,2|8,0:2|0:2,0:2:0:0:
47,248,95201,2,0,L|115:230,1,70,2|8,1:2|0:2,0:2:0:0:
191,264,95493,1,0,1:2:0:0:
149,335,95638,2,0,L|82:354,2,70,8|2|8,0:2|0:2|0:2,0:0:0:0:
221,373,96075,2,0,P|260:359|299:353,1,70,2|8,0:2|0:2,0:2:0:0:
328,282,96366,2,0,P|318:250|304:201,1,70,2|8,1:2|0:2,0:2:0:0:
352,143,96658,5,0,1:2:0:0:
270,123,96803,2,0,P|237:134|203:145,2,70,8|2|8,0:2|0:2|0:2,0:0:0:0:
307,214,97240,2,0,P|273:223|240:234,1,70,2|8,0:2|0:2,0:2:0:0:
168,299,97532,2,0,P|157:265|139:224,2,70,2|8|0,1:2|0:2|1:2,0:2:0:0:
255,356,97968,6,0,P|292:342|326:334,1,70,10|0,0:2|1:2,0:0:0:0:
321,334,98187,1,0,1:2:0:0:
321,334,98260,1,8,0:2:0:0:
414,358,98405,2,0,L|459:372,2,35,0|0|8,1:2|1:2|0:2,0:0:0:0:
437,277,98697,2,0,L|486:289,2,35,0|0|8,1:2|1:2|0:2,0:0:0:0:
445,189,98988,5,0,1:2:0:0:
445,189,99061,1,0,1:2:0:0:
445,189,99133,2,0,L|526:209,2,70,14|2|8,0:2|0:2|0:2,0:0:0:0:
412,111,99570,2,0,P|423:73|431:30,1,70,2|8,0:2|0:2,0:2:0:0:
340,16,99862,2,0,P|329:54|321:97,1,70,2|8,1:2|0:2,0:2:0:0:
343,168,100153,5,0,1:2:0:0:
262,178,100299,2,0,P|229:165|182:149,1,70,8|2,0:2|1:2,0:0:0:0:
174,73,100590,1,12,0:2:0:0:
92,84,100735,2,0,L|70:153,1,70,2|8,0:2|0:2,0:2:0:0:
8,205,101027,2,0,L|17:258,5,35,8|8|8|8|8|8,0:2|0:2|0:2|0:2|0:2|0:2,0:0:0:0:
55,270,101464,6,0,P|120:253|171:298,1,140,4|6,1:2|0:2,0:2:0:0:
316,384,102046,2,0,L|386:367,1,70,2|0,1:2|1:2,0:0:0:0:
384,367,102265,1,0,3:2:0:0:
384,367,102337,2,0,L|365:292,1,70,2|8,0:2|0:2,0:0:0:0:
408,226,102629,2,0,L|484:205,1,70,2|0,0:2|1:2,0:0:0:0:
449,126,102920,2,0,L|380:142,1,70,8|2,0:2|0:2,0:0:0:0:
311,101,103211,2,0,L|297:32,1,70,0|0,1:2|1:2,0:0:0:0:
216,47,103502,2,0,L|227:119,1,70,10|0,0:2|3:2,0:0:0:0:
164,180,103794,5,2,1:2:0:0:
164,180,104085,2,0,P|96:170|49:223,1,140,10|2,0:2|1:2,0:2:0:0:
13,299,104522,1,0,1:2:0:0:
13,299,104595,1,0,3:2:0:0:
13,299,104667,2,0,L|31:371,1,70,2|8,0:2|0:2,0:0:0:0:
111,384,104959,2,0,L|179:366,1,70,2|0,0:2|1:2,0:0:0:0:
225,295,105250,2,0,L|294:304,1,70,8|2,0:2|0:2,0:0:0:0:
358,359,105541,2,0,L|431:341,1,70,2|0,1:2|1:2,0:0:0:0:
471,268,105832,2,0,L|451:200,1,70,8|0,0:2|3:2,0:2:0:0:
489,127,106124,6,0,B|421:141|441:173|370:196,1,140,6|10,1:2|0:2,0:0:0:0:
241,110,106706,2,0,L|258:42,1,70,2|0,1:2|1:2,0:0:0:0:
258,42,106925,1,0,3:2:0:0:
258,42,106998,2,0,L|183:22,1,70,2|8,0:2|0:2,0:0:0:0:
111,69,107289,2,0,L|40:49,1,70,2|0,0:2|1:2,0:0:0:0:
14,132,107580,2,0,L|93:157,1,70,8|2,0:2|0:2,0:0:0:0:
131,226,107871,2,0,L|114:297,1,70,0|0,1:2|1:2,0:0:0:0:
38,351,108163,2,0,P|27:312|14:269,1,70,10|0,0:2|3:2,0:2:0:0:
114,294,108454,6,0,B|191:300|179:328|244:340,1,140,6|8,1:2|0:2,0:2:0:0:
329,310,108891,2,0,B|364:305|364:305|390:328,2,70,2|8|0,1:2|0:2|1:2,0:0:0:0:
260,256,109328,1,10,0:2:0:0:
320,196,109473,2,0,P|348:134|312:76,1,140,6|2,1:2|1:2,0:2:0:0:
233,32,109910,1,12,0:2:0:0:
233,32,110201,2,0,L|157:47,1,70,2|8,1:2|0:2,0:0:0:0:
94,101,110493,2,8,L|53:88,3,35,8|8|8|8,0:2|0:2|0:2|0:2,0:2:0:0:
41,137,110784,6,0,P|-2:188|11:254,1,140,6|14,1:2|0:2,0:2:0:0:
131,366,111366,2,0,L|213:347,1,70,2|0,1:2|1:2,0:0:0:0:
199,350,111585,1,0,3:2:0:0:
199,350,111658,2,0,L|181:276,1,70,2|8,0:2|0:2,0:0:0:0:
238,215,111949,2,0,L|310:231,1,70,2|0,0:2|1:2,0:0:0:0:
366,294,112240,2,0,L|443:276,1,70,8|2,0:2|0:2,0:0:0:0:
487,206,112532,2,0,L|469:134,1,70,0|0,1:2|1:2,0:0:0:0:
398,93,112823,2,0,L|411:17,1,70,10|0,0:2|3:2,0:0:0:0:
318,39,113114,6,0,B|247:49|257:66|186:84,1,140,2|10,1:2|0:2,0:0:0:0:
23,33,113697,2,0,P|32:66|39:100,1,70,2|0,1:2|1:2,0:0:0:0:
39,100,113915,1,0,3:2:0:0:
39,100,113988,2,0,P|29:134|20:180,1,70,2|8,0:2|0:2,0:0:0:0:
46,246,114279,2,0,P|80:253|113:263,1,70,2|0,0:2|1:2,0:0:0:0:
197,232,114570,2,0,P|203:197|212:163,1,70,8|2,0:2|0:2,0:0:0:0:
283,116,114862,2,0,P|317:123|355:132,1,70,2|0,1:2|1:2,0:0:0:0:
411,194,115153,2,0,P|403:225|395:266,1,70,8|0,0:2|3:2,0:2:0:0:
459,323,115444,5,6,1:2:0:0:
459,323,115735,2,0,P|390:307|321:295,1,140,10|2,0:2|1:2,0:2:0:0:
253,353,116172,1,0,1:2:0:0:
253,353,116245,1,0,3:2:0:0:
253,353,116318,2,0,L|184:339,1,70,2|8,0:2|0:2,0:0:0:0:
130,274,116609,2,0,L|145:205,1,70,2|0,0:2|1:2,0:0:0:0:
211,150,116900,2,0,L|195:81,1,70,8|2,0:2|0:2,0:0:0:0:
132,28,117192,2,0,L|63:48,1,70,0|0,1:2|1:2,0:0:0:0:
17,117,117483,2,0,L|36:187,1,70,10|0,0:2|3:2,0:2:0:0:
2,266,117774,6,0,P|62:229|127:252,1,140,6|8,1:2|0:2,0:2:0:0:
216,245,118211,1,2,0:2:0:0:
216,245,118357,2,0,L|197:315,1,70,0|8,1:2|0:2,0:0:0:0:
197,312,118575,1,8,0:2:0:0:
197,312,118648,1,8,0:2:0:0:
278,366,118794,6,0,B|360:361|333:326|408:320,2,140,6|6|6,1:1|1:1|1:1,0:0:0:0:
97,306,119667,2,0,P|60:310|19:321,2,70,8|4|4,0:3|0:3|0:3,0:0:0:0:
151,246,120104,1,6,0:2:0:0:
82,312,138038,5,8,0:3:0:0:
82,312,138116,1,8,0:3:0:0:
82,312,138193,2,0,L|69:252,3,48.9999985046387,8|8|4|4,0:3|0:3|0:3|0:3,0:0:0:0:
109,189,138748,6,0,P|61:216|7:209,2,112,4|4|10,1:2|1:3|0:2,0:2:0:0:
221,79,139616,2,0,L|284:92,1,56,4|8,0:3|0:3,0:0:0:0:
331,145,139913,2,0,L|319:199,1,56,4|8,1:3|0:3,0:2:0:0:
259,253,140203,2,0,L|270:307,1,56,4|0,1:3|0:2,0:2:0:0:
333,355,140494,2,0,P|386:338|441:329,1,112,10|4,0:2|0:3,0:2:0:0:
510,275,140930,5,8,0:3:0:0:
510,275,141076,2,0,L|496:219,1,56,4|0,1:3|0:2,0:2:0:0:
435,169,141366,2,0,L|449:113,1,56,4|0,1:3|0:2,0:2:0:0:
403,48,141657,2,0,B|353:58|355:75|299:88,1,112,10|4,0:2|0:3,0:2:0:0:
170,190,142239,2,0,L|100:176,1,56,4|8,1:3|0:3,0:0:0:0:
37,200,142529,2,0,P|8:153|28:100,2,112,4|10|4,1:3|0:2|0:3,0:2:0:0:
49,367,143402,6,0,P|102:352|172:339,1,112,4|4,1:3|1:3,0:2:0:0:
213,283,143838,1,0,0:2:0:0:
213,283,143984,2,0,P|268:295|336:308,1,112,10|4,0:2|0:3,0:2:0:0:
391,268,144421,1,8,0:3:0:0:
391,268,144567,2,0,L|403:213,1,56,4|8,1:3|0:3,0:2:0:0:
468,167,144858,2,0,L|455:112,1,56,4|0,1:3|0:2,0:2:0:0:
401,54,145149,2,0,L|346:65,2,56,10|4|4,0:2|0:3|0:3,0:0:0:0:
294,173,145732,6,0,L|239:159,1,56,4|0,1:3|0:2,0:2:0:0:
182,105,146023,2,0,L|127:117,1,56,4|0,1:3|0:2,0:2:0:0:
81,182,146314,2,0,L|105:296,1,112,10|4,0:2|0:3,0:2:0:0:
172,341,146751,1,8,0:3:0:0:
172,341,146897,2,0,L|235:328,2,56,4|8|4,1:3|0:3|1:3,0:2:0:0:
11,299,147479,2,0,L|-2:239,3,56,10|0|4|8,0:2|3:2|0:3|0:3,0:0:0:0:
47,173,148062,6,0,B|106:173|96:192|156:193,1,112,4|4,1:2|1:3,0:2:0:0:
227,152,148499,1,0,0:2:0:0:
227,152,148644,2,0,L|237:96,1,56,10|0,0:2|0:2,0:2:0:0:
300,47,148935,2,0,L|358:57,1,56,4|8,0:3|0:3,0:0:0:0:
420,105,149227,2,0,L|487:91,1,56,4|8,1:3|0:3,0:2:0:0:
497,170,149518,2,0,L|430:184,1,56,4|0,1:3|0:2,0:2:0:0:
403,252,149809,2,0,L|417:317,3,56,10|4|4|8,0:2|0:3|0:3|0:3,0:0:0:0:
341,351,150392,5,4,1:3:0:0:
341,351,150683,2,0,P|286:360|221:381,1,112,4|10,1:3|0:2,0:2:0:0:
159,353,151120,1,0,0:2:0:0:
159,353,151266,2,0,L|144:300,1,56,4|8,0:3|0:3,0:0:0:0:
194,238,151557,2,0,L|207:181,1,56,4|8,1:3|0:3,0:2:0:0:
151,127,151848,1,4,1:3:0:0:
151,127,151994,1,0,3:2:0:0:
192,58,152139,2,0,P|246:49|292:90,1,112,10|4,0:2|0:3,0:2:0:0:
483,60,152722,6,0,L|469:114,1,56,4|0,1:3|0:2,0:2:0:0:
401,158,153013,2,0,L|414:212,1,56,4|0,1:3|0:2,0:2:0:0:
475,265,153304,2,0,P|461:316|448:373,1,112,10|4,0:2|0:3,0:2:0:0:
275,328,153887,2,0,L|288:382,2,56,4|8|4,1:3|0:2|0:3,0:2:0:0:
205,290,154324,1,8,0:2:0:0:
205,290,154397,1,8,0:2:0:0:
205,290,154469,2,0,L|151:305,2,56,8|8|4,0:2|0:3|0:3,0:0:0:0:
319,90,155052,6,0,B|355:125|355:125|341:170,2,97.9999970092774,6|2|2,1:2|0:2|0:2,0:2:0:0:
227,114,155489,2,0,B|213:159|213:159|249:194,1,97.9999970092774,4|0,1:2|0:2,0:2:0:0:
249,194,155926,6,0,P|155:190|109:271,1,195.999994018555,6|0,1:2|0:2,0:2:0:0:
144,352,156363,1,4,1:2:0:0:
144,352,156806,6,0,L|286:373,1,125.999996154785,12|0,0:2|0:0,0:2:0:0:
356,341,157377,6,0,P|393:292|382:232,1,125.999996154785,6|8,1:2|0:2,0:2:0:0:
222,124,157956,2,0,P|198:129|152:144,2,62.9999980773926,0|0|0,1:2|1:2|0:2,0:0:0:0:
288,67,158391,1,8,0:2:0:0:
288,67,158536,2,0,B|354:72|334:99|404:110,1,125.999996154785,2|8,0:2|0:2,0:2:0:0:
474,170,158973,1,2,0:2:0:0:
474,170,159119,2,0,L|461:232,1,62.9999980773926,2|0,1:2|1:2,0:2:0:0:
392,287,159410,1,10,0:2:0:0:
392,287,159702,6,0,L|317:273,1,62.9999980773926,2|0,1:2|0:2,0:2:0:0:
256,329,159994,2,0,B|188:339|202:354|136:366,1,125.999996154785,10|0,0:2|1:2,0:2:0:0:
63,336,160431,1,0,1:2:0:0:
63,336,160577,1,2,0:2:0:0:
116,201,160868,2,0,L|100:139,1,62.9999980773926,2|0,0:2|1:2,0:2:0:0:
19,111,161160,2,0,L|35:50,1,62.9999980773926,8|0,0:2|0:0,0:0:0:0:
114,0,161452,2,0,L|177:14,1,62.9999980773926,2|0,1:2|1:2,0:2:0:0:
241,81,161743,1,10,0:2:0:0:
241,81,162035,6,0,P|297:46|356:65,1,125.999996154785,2|8,1:2|0:2,0:2:0:0:
482,209,162617,2,0,P|474:242|467:278,2,62.9999980773926,2|0|0,1:2|1:2|0:2,0:0:0:0:
430,150,163054,1,8,0:2:0:0:
430,150,163200,2,0,B|359:154|380:178|309:183,1,125.999996154785,2|8,0:2|0:2,0:2:0:0:
229,228,163636,2,0,P|174:212|98:195,1,125.999996154785,2|0,0:2|1:2,0:2:0:0:
26,233,164073,1,10,0:2:0:0:
26,233,164365,6,0,P|17:264|11:295,1,62.9999980773926,2|0,1:2|0:2,0:2:0:0:
67,357,164656,2,0,P|122:382|179:359,1,125.999996154785,10|0,0:2|1:2,0:2:0:0:
237,302,165093,1,0,1:2:0:0:
237,302,165238,2,0,L|304:317,1,62.9999980773926,2|8,0:2|0:2,0:2:0:0:
365,366,165530,6,0,P|424:344|485:329,1,125.999996154785,2|10,0:2|0:2,0:2:0:0:
512,253,165967,1,8,0:2:0:0:
512,253,166039,1,8,0:2:0:0:
512,253,166112,2,0,L|492:184,1,62.9999980773926,8|8,0:2|0:2,0:0:0:0:
430,135,166403,2,0,L|439:58,1,62.9999980773926,8|8,0:2|0:2,0:0:0:0:
343,84,166695,6,0,P|282:86|247:135,1,125.999996154785,6|8,1:2|0:2,0:2:0:0:
157,305,167282,2,0,P|162:336|172:373,2,62.9999980773926,2|0|0,1:2|1:2|0:2,0:0:0:0:
218,248,167723,1,8,0:2:0:0:
218,248,167870,2,0,P|165:216|106:232,1,125.999996154785,2|8,0:2|0:2,0:2:0:0:
13,113,168451,2,0,P|4:74|-3:40,1,62.9999980773926,2|0,1:2|1:2,0:2:0:0:
86,58,168742,1,10,0:2:0:0:
86,58,169032,6,0,P|124:48|156:41,1,62.9999980773926,2|0,1:2|0:2,0:2:0:0:
216,93,169323,2,0,B|282:104|269:124|333:136,1,125.999996154785,10|0,0:2|1:2,0:2:0:0:
420,120,169759,1,0,1:2:0:0:
420,120,169904,2,0,L|436:44,1,62.9999980773926,2|8,0:2|0:2,0:2:0:0:
512,77,170195,2,0,P|496:138|487:200,1,125.999996154785,2|8,0:2|0:2,0:2:0:0:
391,316,170776,2,0,L|404:387,2,62.9999980773926,0|0|8,1:2|1:2|0:2,0:0:0:0:
237,250,171358,5,14,1:2:0:0:
124,343,171649,1,0,1:2:0:0:
5,214,171940,1,0,1:2:0:0:
130,112,172231,2,0,L|201:123,1,70,2|0,1:2|1:2,0:2:0:0:
280,177,172523,6,0,L|355:158,1,70,8|8,0:2|0:2,0:0:0:0:
406,103,172814,1,8,0:2:0:0:
406,103,172959,1,8,0:2:0:0:
482,137,173105,2,0,L|501:207,1,70,8|8,0:2|0:2,0:0:0:0:
469,281,173405,2,0,L|387:307,1,70,10|8,0:2|0:2,0:2:0:0:
300,368,173705,6,0,L|281:286,1,70,14|0,0:2|1:2,0:0:0:0:
213,256,173989,1,0,1:0:0:0:
213,256,174131,2,0,L|141:271,1,70,14|0,0:2|1:2,0:0:0:0:
65,246,174422,1,0,1:2:0:0:
65,246,174567,2,0,L|51:170,1,70,14|0,0:2|1:2,0:0:0:0:
77,100,174862,1,0,1:0:0:0:
162,111,175010,5,14,0:2:0:0:
162,111,175154,2,0,L|246:93,1,70,10|0,0:2|1:2,0:2:0:0:
306,23,175442,2,0,L|323:96,1,70,10|8,0:2|0:2,0:0:0:0:
393,143,175731,2,8,L|379:190,3,35,8|8|8|8,0:2|0:2|0:2|0:2,0:2:0:0:
342,189,176019,6,0,B|266:196|290:231|215:241,1,140,4|10,1:1|0:2,0:2:0:0:
78,355,176601,2,0,P|71:320|61:286,1,70,2|2,1:2|1:2,0:0:0:0:
0,225,176892,1,10,0:2:0:0:
38,151,177038,2,0,P|103:135|152:182,1,140,2|0,1:2|1:2,0:2:0:0:
215,241,177475,2,0,P|249:234|283:226,1,70,8|2,0:2|0:2,0:0:0:0:
346,159,177766,2,0,L|328:86,1,70,2|0,1:2|1:2,0:0:0:0:
250,72,178057,1,10,0:2:0:0:
439,16,178349,6,0,P|451:80|470:154,1,140,2|10,1:2|0:2,0:2:0:0:
425,299,178931,2,0,P|390:306|357:316,1,70,2|2,1:2|1:2,0:0:0:0:
282,279,179222,1,10,0:2:0:0:
219,332,179368,2,0,P|153:345|108:295,1,140,2|0,1:2|1:2,0:2:0:0:
29,275,179805,1,8,0:2:0:0:
29,275,179951,2,0,L|44:206,1,70,2|0,3:2|1:2,0:2:0:0:
25,115,180242,5,2,1:2:0:0:
25,115,180387,1,10,0:2:0:0:
25,115,180533,2,0,L|100:128,1,70,2|0,0:2|1:2,0:0:0:0:
175,183,180824,1,2,1:2:0:0:
175,183,180970,1,10,0:2:0:0:
175,183,181116,2,0,P|241:168|316:158,1,140,2|2,0:2|1:2,0:0:0:0:
349,85,181552,1,10,0:2:0:0:
349,85,181698,6,0,B|421:98|406:127|474:144,1,140,2|2,1:2|1:2,0:2:0:0:
512,221,182135,2,0,L|499:293,1,70,10|2,0:2|0:2,0:0:0:0:
426,342,182426,2,0,L|349:327,1,70,2|0,1:2|1:2,0:2:0:0:
307,261,182718,1,10,0:2:0:0:
144,371,183009,6,0,L|69:351,1,70,6|2,1:2|0:2,0:0:0:0:
23,287,183300,2,0,L|41:215,1,70,10|2,0:2|0:2,0:0:0:0:
120,179,183591,1,2,1:2:0:0:
120,179,183737,2,0,P|129:140|139:97,1,70,2|8,1:2|0:2,0:2:0:0:
74,54,184028,6,0,P|141:72|210:83,1,140,6|0,1:2|1:2,0:2:0:0:
279,134,184465,1,10,0:2:0:0:
340,78,184611,2,0,P|404:96|428:160,1,140,4|0,1:2|1:2,0:2:0:0:
484,229,185048,2,8,L|475:274,3,35,10|8|10|8,0:2|0:2|0:2|0:2,0:2:0:0:
445,298,185339,6,0,B|373:302|389:331|311:333,1,140,6|14,1:2|0:2,0:2:0:0:
224,302,185776,2,0,P|194:309|153:319,2,70,2|0|0,0:2|1:2|1:2,0:2:0:0:
278,238,186213,1,10,0:2:0:0:
217,180,186358,2,0,P|178:124|203:62,1,140,2|0,1:2|1:2,0:2:0:0:
275,17,186795,1,8,0:2:0:0:
89,95,187086,2,0,L|20:82,1,70,2|2,1:2|1:2,0:0:0:0:
3,167,187378,2,0,L|71:179,1,70,10|2,0:2|0:2,0:0:0:0:
156,219,187669,6,0,P|194:274|175:338,1,140,2|10,1:2|0:2,0:2:0:0:
101,383,188106,2,0,P|67:373|32:369,2,70,2|0|0,0:2|1:2|1:2,0:2:0:0:
173,339,188543,1,10,0:2:0:0:
252,382,188688,2,0,B|337:373|303:345|381:333,1,140,2|0,1:2|1:2,0:2:0:0:
465,342,189125,1,8,0:2:0:0:
392,141,189417,2,0,P|397:102|407:62,1,70,2|0,1:2|1:2,0:0:0:0:
494,92,189708,2,0,P|488:130|479:171,1,70,10|0,0:2|0:2,0:2:0:0:
421,232,189999,5,6,1:2:0:0:
421,232,190145,2,0,P|361:218|278:205,1,140,2|0,1:2|0:2,0:0:0:0:
211,256,190582,2,0,P|205:287|196:334,1,70,0|0,1:2|1:2,0:2:0:0:
112,301,190873,2,0,P|117:269|127:223,1,70,8|2,0:2|1:2,0:0:0:0:
90,155,191164,2,0,P|56:146|21:139,2,70,2|2|10,0:2|1:2|0:2,0:0:0:0:
155,100,191601,2,0,P|215:68|277:95,1,140,2|0,0:2|1:2,0:2:0:0:
349,147,192038,1,10,0:2:0:0:
349,147,192329,6,0,L|325:287,1,140,2|8,1:2|0:2,0:0:0:0:
378,354,192766,1,2,1:2:0:0:
378,354,192912,2,0,L|458:365,1,70,8|2,0:2|1:2,0:0:0:0:
511,315,193203,1,8,0:2:0:0:
463,244,193349,6,0,B|463:168|504:183|504:113,1,140,6|0,1:2|1:2,0:2:0:0:
460,45,193785,2,0,P|426:37|386:31,1,70,8|0,0:2|0:2,0:2:0:0:
332,88,194077,2,0,P|298:95|258:102,1,70,8|8,1:2|0:2,0:0:0:0:
190,59,194368,2,8,L|180:19,3,35,8|8|8|8,1:2|0:2|0:2|0:2,0:2:0:0:
136,12,194659,6,0,L|67:25,2,70,6|2|8,1:2|0:2|0:2,0:0:0:0:
117,106,195096,2,0,L|130:174,1,70,2|8,0:2|0:2,0:2:0:0:
197,227,195387,2,0,L|275:205,1,70,2|8,1:2|0:2,0:2:0:0:
335,251,195679,1,0,1:2:0:0:
310,331,195824,2,0,L|242:352,2,70,8|2|8,0:2|1:2|0:2,0:0:0:0:
387,371,196261,2,0,L|455:352,1,70,2|8,0:2|0:2,0:2:0:0:
510,290,196552,2,0,L|485:214,1,70,2|8,1:2|0:2,0:2:0:0:
512,143,196844,1,0,1:2:0:0:
430,120,196989,6,0,L|349:147,2,70,8|2|8,0:2|1:2|0:2,0:0:0:0:
397,44,197426,2,0,L|323:66,1,70,2|8,0:2|0:2,0:2:0:0:
246,67,197718,2,0,L|228:-1,2,70,2|8|0,0:2|0:2|0:2,0:0:0:0:
212,146,198154,2,0,L|145:166,1,70,8|0,0:2|1:2,0:0:0:0:
145,166,198373,1,0,1:2:0:0:
145,166,198446,1,8,0:2:0:0:
70,130,198591,2,0,L|59:86,2,35,0|0|8,1:2|1:2|0:2,0:0:0:0:
20,200,198883,2,0,L|30:240,2,35,0|0|8,1:2|1:2|0:2,0:0:0:0:
114,279,199174,5,0,1:2:0:0:
114,279,199247,1,0,1:2:0:0:
114,279,199319,2,0,L|197:257,2,70,12|2|8,0:2|0:2|0:2,0:0:0:0:
134,362,199756,2,0,L|208:344,1,70,2|8,0:2|0:2,0:2:0:0:
275,283,200048,2,0,L|343:296,1,70,2|8,1:2|0:2,0:2:0:0:
399,359,200339,1,0,1:2:0:0:
464,309,200485,5,8,0:2:0:0:
464,309,200630,2,0,L|481:232,1,70,2|8,1:2|0:2,0:0:0:0:
468,155,200921,2,0,B|443:130|443:130|409:137,1,70,2|8,1:2|0:2,0:2:0:0:
320,172,201213,2,0,P|288:163|252:151,1,70,4|8,0:3|0:2,0:2:0:0:
206,84,201504,1,8,0:3:0:0:
136,143,201650,5,6,1:2:0:0:
136,143,201941,2,0,B|84:175|84:175|78:230|78:230|35:261,1,167.999994873047,14|2,0:2|1:2,0:2:0:0:
36,260,202305,1,2,1:2:0:0:
36,260,202378,1,2,1:2:0:0:
82,345,202523,2,0,L|157:367,1,70,2|10,0:2|0:2,0:0:0:0:
228,318,202815,6,0,P|236:282|243:250,2,70,2|0|10,0:2|1:2|0:2,0:0:0:0:
298,369,203252,2,0,P|366:377|414:326,1,140,2|0,0:2|1:2,0:2:0:0:
414,241,203688,2,0,L|490:262,1,70,10|2,0:2|0:2,0:0:0:0:
511,177,203980,2,0,L|435:156,1,70,0|2,1:2|1:2,0:0:0:0:
392,88,204271,2,0,L|312:105,1,70,8|2,0:2|0:2,0:0:0:0:
253,150,204562,2,0,L|179:133,1,70,0|2,1:2|1:2,0:0:0:0:
118,74,204853,2,0,L|46:94,1,70,8|10,0:2|0:2,0:0:0:0:
25,187,205145,5,2,0:2:0:0:
25,187,205290,1,0,1:2:0:0:
25,187,205436,2,0,L|45:267,1,70,10|2,0:2|0:2,0:0:0:0:
114,302,205727,2,0,B|188:288|162:259|237:241,1,140,2|8,1:2|0:2,0:2:0:0:
354,346,206310,2,0,P|388:354|424:366,1,70,2|0,1:2|1:2,0:0:0:0:
496,325,206601,2,0,P|502:289|512:257,1,70,8|2,0:2|0:2,0:0:0:0:
479,181,206892,2,0,L|410:159,2,70,0|0|8,1:2|1:2|0:2,0:0:0:0:
512,256,207329,1,8,0:2:0:0:
428,276,207475,6,0,L|353:255,1,70,2|0,0:2|1:2,0:0:0:0:
309,189,207766,2,0,L|229:203,1,70,8|2,0:2|0:2,0:0:0:0:
183,270,208057,1,0,1:2:0:0:
183,270,208203,1,0,1:2:0:0:
183,270,208349,1,8,0:2:0:0:
14,158,208640,6,0,P|-3:93|43:46,1,140,6|8,1:2|0:2,0:2:0:0:
122,12,209077,2,0,L|190:26,1,70,2|8,1:2|0:2,0:0:0:0:
238,95,209368,2,0,L|306:79,1,70,2|8,1:2|0:2,0:0:0:0:
375,24,209659,2,0,B|411:33|411:33|447:80|418:128,1,140,6|0,1:2|1:2,0:2:0:0:
419,217,210096,2,0,L|345:198,1,70,10|2,0:2|0:2,0:0:0:0:
267,232,210387,2,0,L|260:274,3,35,8|8|8|8,0:2|0:0|0:2|0:2,0:0:0:0:
229,301,210679,2,0,L|237:342,3,35,8|8|8|8,0:2|0:2|0:2|0:2,0:0:0:0:
278,360,210970,6,0,P|347:340|429:328,1,140,6|8,1:2|0:2,0:2:0:0:
483,270,211407,2,0,P|508:207|467:145,1,140,2|2,0:2|1:2,0:2:0:0:
339,42,211989,2,0,B|268:46|286:74|206:84,1,140,10|0,0:2|1:2,0:2:0:0:
138,151,212426,2,0,P|109:142|67:134,1,70,10|2,0:2|0:2,0:0:0:0:
0,97,212718,2,0,P|38:153|21:219,1,140,2|8,1:2|0:2,0:2:0:0:
0,307,213154,1,2,0:2:0:0:
0,307,213300,6,0,L|77:323,1,70,2|2,1:2|0:2,0:0:0:0:
138,368,213591,2,0,L|206:353,1,70,8|2,0:2|0:2,0:0:0:0:
262,290,213883,2,0,L|244:221,1,70,0|2,1:2|1:2,0:0:0:0:
301,160,214174,2,0,L|319:86,1,70,2|8,0:2|0:2,0:0:0:0:
385,33,214465,6,0,L|455:51,2,70,2|2|10,1:2|1:2|0:2,0:0:0:0:
317,91,214902,2,0,P|256:73|163:55,1,140,2|2,0:2|1:2,0:2:0:0:
118,0,215339,2,0,P|83:8|50:14,1,70,10|2,0:2|0:2,0:0:0:0:
0,88,215630,5,4,1:2:0:0:
0,88,215776,2,0,P|47:136|37:203,1,140,2|0,0:2|0:0,0:0:0:0:
80,280,216213,2,0,L|60:352,2,70,0|0|2,1:2|1:2|0:2,0:0:0:0:
154,246,216650,1,10,0:2:0:0:
208,306,216795,6,0,P|274:319|357:340,1,140,2|8,0:2|0:2,0:0:0:0:
420,297,217232,1,2,0:2:0:0:
420,297,217378,2,0,L|435:224,1,70,2|2,1:2|1:2,0:0:0:0:
504,183,217669,2,0,L|489:110,1,70,10|2,0:2|0:2,0:0:0:0:
422,60,217960,5,2,1:2:0:0:
422,60,218252,2,0,B|355:69|368:95|294:114,1,140,10|0,0:2|1:2,0:2:0:0:
119,47,218834,1,10,0:2:0:0:
70,111,218980,2,0,P|83:170|99:255,1,140,4|0,1:2|1:2,0:2:0:0:
51,309,219417,1,8,0:2:0:0:
112,360,219562,2,0,P|178:370|225:322,1,140,4|0,1:2|1:2,0:2:0:0:
285,265,219999,2,0,L|319:272,3,35,8|8|8|8,0:2|0:2|0:2|0:2,0:0:0:0:
352,300,220290,6,0,P|405:258|471:273,1,140,6|14,1:2|0:2,0:2:0:0:
257,171,220873,2,0,P|228:105|269:48,1,140,2|2,1:2|0:2,0:0:0:0:
348,37,221310,1,8,0:2:0:0:
261,52,221455,2,0,B|179:54|196:21|125:22,1,140,2|10,0:2|0:2,0:0:0:0:
0,177,222038,2,0,B|82:179|65:146|135:147,1,140,2|10,1:2|0:2,0:0:0:0:
358,318,222620,6,0,P|303:362|238:347,1,140,2|10,1:2|0:2,0:2:0:0:
148,340,223057,2,0,P|156:304|164:270,1,70,2|0,0:2|1:2,0:2:0:0:
236,207,223349,2,0,P|229:172|223:136,1,70,2|0,1:2|0:2,0:2:0:0:
150,88,223640,1,10,0:2:0:0:
202,21,223785,6,0,B|276:14|259:49|337:45,1,140,2|10,0:2|0:2,0:2:0:0:
407,90,224222,2,0,P|444:81|483:69,2,70,2|2|0,0:2|1:2|1:2,0:0:0:0:
353,156,224659,1,14,0:2:0:0:
353,156,224951,2,0,P|367:222|378:300,1,140,6|8,1:2|0:2,0:2:0:0:
155,346,225533,2,0,P|147:311|142:277,2,70,0|0|2,1:2|1:2|0:2,0:0:0:0:
234,379,225970,1,8,0:2:0:0:
234,379,226116,6,0,P|297:354|358:384,1,140,2|8,0:2|0:2,0:2:0:0:
453,371,226552,1,8,0:2:0:0:
453,371,226625,1,8,0:2:0:0:
453,371,226698,2,0,L|476:296,1,70,8|8,0:2|0:2,0:0:0:0:
446,224,226989,2,0,L|375:205,1,70,8|8,0:2|0:2,0:0:0:0:
292,245,227281,6,0,B|219:255|238:280|163:296,1,140,4|8,1:1|0:2,0:2:0:0:
87,333,227718,1,0,1:2:0:0:
27,272,227863,2,0,L|45:204,1,70,10|0,0:2|1:2,0:0:0:0:
8,128,228154,1,8,0:2:0:0:
8,128,228300,5,6,1:2:0:0:
188,64,228591,2,0,L|260:84,1,70,6|8,1:2|0:2,0:2:0:0:
320,161,228883,1,8,0:2:0:0:
320,161,228955,1,8,0:2:0:0:
320,161,229028,2,0,L|301:232,1,70,8|8,0:2|0:2,0:0:0:0:
225,265,229319,2,0,L|244:336,1,70,8|8,0:2|0:2,0:0:0:0:
331,373,229611,6,0,P|398:353|466:336,1,140,4|8,1:1|0:2,0:2:0:0:
508,263,230048,1,4,1:1:0:0:
368,140,230339,1,0,3:2:0:0:
416,72,230485,1,6,1:2:0:0:
256,192,230630,12,0,234271,0:2:0:0:
106,145,254368,6,0,B|118:76|118:76|198:76,1,136.499993751526,6|0,1:2|0:2,0:2:0:0:
200,54,254659,2,0,B|267:33|267:33|296:92,1,136.499993751526,6|0,1:2|0:2,0:2:0:0:
313,106,254951,2,0,B|372:144|372:144|348:213,1,136.499993751526,6|0,1:2|0:2,0:2:0:0:
343,237,255249,6,0,P|308:229|274:223,1,70,4|2,1:1|0:2,0:0:0:0:
203,275,255540,2,0,B|128:288|144:308|73:326,2,140,10|2|10,0:2|1:2|0:2,0:2:0:0:
273,330,256270,2,0,B|352:337|335:368|405:372,1,140,2|0,1:2|1:2,0:2:0:0:
484,346,256708,1,8,0:2:0:0:
484,346,256854,2,0,L|500:276,1,70,2|0,3:2|1:2,0:2:0:0:
435,227,257146,5,2,1:2:0:0:
435,227,257292,1,10,0:2:0:0:
435,227,257438,2,0,L|421:158,1,70,2|4,0:2|1:2,0:0:0:0:
477,95,257729,1,2,1:2:0:0:
477,95,257875,1,10,0:2:0:0:
477,95,258020,2,0,P|409:112|339:121,1,140,2|2,0:2|1:2,0:0:0:0:
269,175,258457,1,10,0:2:0:0:
269,175,258603,6,0,B|196:169|205:144|135:137,1,140,2|2,1:2|1:2,0:2:0:0:
48,161,259040,2,0,L|28:235,1,70,10|2,0:2|0:2,0:0:0:0:
48,318,259331,2,0,B|76:341|76:341|108:331,1,70,2|0,1:2|1:2,0:2:0:0:
176,272,259622,1,10,0:2:0:0:
348,377,259914,6,0,L|416:360,1,70,2|0,1:2|1:2,0:0:0:0:
466,291,260203,2,0,L|449:222,1,70,10|2,0:2|0:2,0:0:0:0:
503,155,260492,2,0,P|435:172|365:186,1,140,2|10,1:2|0:2,0:0:0:0:
269,226,260926,6,0,P|218:181|227:115,1,140,6|0,1:2|1:2,0:2:0:0:
281,49,261359,1,8,0:2:0:0:
209,7,261504,2,0,B|136:21|158:44|83:64,1,140,4|2,1:2|1:2,0:2:0:0:
36,136,261938,2,8,L|45:178,3,35,10|8|10|8,0:2|0:2|0:2|0:2,0:2:0:0:
86,199,262235,6,0,P|151:213|175:276,1,140,6|12,1:2|0:2,0:2:0:0:
136,354,262686,2,0,P|101:360|55:370,2,70,2|0|0,0:2|1:2|1:2,0:2:0:0:
215,384,263111,1,10,0:2:0:0:
283,331,263252,6,0,B|355:332|341:365|416:369,1,140,2|0,1:2|1:2,0:2:0:0:
490,316,263697,1,8,0:2:0:0:
490,316,263994,2,0,L|475:244,1,70,2|0,1:2|1:2,0:2:0:0:
405,197,264279,2,0,L|336:213,1,70,10|2,0:2|0:2,0:0:0:0:
245,196,264565,6,0,L|227:128,1,70,6|2,1:2|1:2,0:0:0:0:
287,67,264856,1,10,0:2:0:0:
287,67,265001,1,2,0:2:0:0:
216,18,265147,2,0,P|184:28|148:34,1,70,6|0,1:2|1:2,0:2:0:0:
95,100,265438,2,0,P|61:95|26:87,1,70,10|0,0:2|0:2,0:2:0:0:
43,176,265730,6,0,B|35:249|11:235|5:310,1,140,6|8,1:2|0:2,0:0:0:0:
153,384,266312,2,0,L|232:366,1,70,10|8,1:2|0:2,0:0:0:0:
274,299,266603,2,8,L|263:254,3,35,8|8|8|8,0:2|0:2|0:2|0:2,0:2:0:0:
235,236,266895,6,0,L|167:252,1,70,6|2,1:2|0:2,0:0:0:0:
138,170,267186,2,0,L|215:152,1,70,12|0,0:2|0:2,0:2:0:0:
265,83,267477,2,0,L|411:106,1,140,0|8,1:2|0:2,0:0:0:0:
478,64,267914,1,2,1:2:0:0:
512,142,268060,5,2,0:2:0:0:
512,142,268205,2,0,B|504:213|480:199|472:275,1,140,2|2,1:2|0:2,0:2:0:0:
459,364,268642,2,0,P|425:356|384:348,1,70,2|2,1:2|1:2,0:0:0:0:
349,273,268933,1,10,0:2:0:0:
349,273,269225,6,0,P|281:283|204:299,1,140,6|8,1:2|0:2,0:2:0:0:
152,354,269661,1,0,1:2:0:0:
81,314,269807,2,0,L|71:244,1,70,8|0,0:2|1:2,0:0:0:0:
6,193,270098,1,8,0:2:0:0:
72,136,270244,6,0,B|150:135|135:173|204:172,1,140,4|0,1:2|1:2,0:2:0:0:
283,130,270681,2,0,L|295:61,1,70,10|2,0:2|0:2,0:0:0:0:
367,12,270972,2,0,L|406:16,3,35,8|8|8|8,1:2|0:2|0:2|0:2,0:0:0:0:
424,63,271263,2,8,L|469:70,3,35,8|8|8|8,1:2|0:2|0:2|0:2,0:2:0:0:
498,109,271555,6,0,L|488:187,2,70,6|2|8,1:2|0:2|0:2,0:2:0:0:
404,153,271992,2,0,P|371:146|331:141,1,70,2|8,0:2|0:2,0:2:0:0:
275,80,272283,2,0,P|242:85|205:94,1,70,2|8,1:2|0:2,0:2:0:0:
146,155,272574,1,0,1:2:0:0:
77,109,272720,2,0,P|68:74|61:37,2,70,8|2|8,0:2|0:2|0:2,0:0:0:0:
26,176,273157,2,0,P|32:206|41:249,1,70,2|8,0:2|0:2,0:2:0:0:
28,337,273448,2,0,L|112:317,1,70,2|8,1:2|0:2,0:2:0:0:
149,259,273739,1,0,1:2:0:0:
221,308,273885,6,0,L|234:376,2,70,8|2|8,0:2|0:2|0:2,0:0:0:0:
311,291,274322,2,0,L|324:359,1,70,2|8,0:2|0:2,0:2:0:0:
421,381,274613,2,0,L|490:368,2,70,2|8|0,1:2|0:2|1:2,0:2:0:0:
399,289,275050,6,0,L|470:276,1,70,8|0,0:2|1:2,0:0:0:0:
467,276,275268,1,0,1:2:0:0:
467,276,275341,1,8,0:2:0:0:
512,206,275487,2,0,L|505:166,2,35,0|0|8,1:2|1:2|0:2,0:0:0:0:
414,176,275778,2,0,L|406:127,2,35,0|0|8,1:2|1:2|0:2,0:0:0:0:
477,85,276069,5,0,1:2:0:0:
477,85,276142,1,0,1:2:0:0:
477,85,276215,2,0,L|465:12,2,70,8|2|8,0:2|0:2|0:2,0:0:0:0:
408,141,276652,2,0,P|374:148|335:155,1,70,2|8,0:2|0:2,0:2:0:0:
290,223,276943,2,0,P|258:217|221:213,1,70,2|8,1:2|0:2,0:2:0:0:
164,154,277234,1,0,1:2:0:0:
104,212,277380,2,0,P|96:245|91:281,2,70,8|2|8,0:2|0:2|0:2,0:0:0:0:
30,161,277817,2,0,P|38:127|45:92,1,70,2|8,0:2|0:2,0:2:0:0:
99,18,278108,2,0,L|19:3,2,70,2|8|0,1:2|0:2|1:2,0:0:0:0:
164,83,278545,5,12,0:2:0:0:
164,83,278691,2,0,L|250:70,1,70,2|8,0:2|0:2,0:0:0:0:
299,10,278982,2,0,L|379:25,1,70,2|8,0:2|0:2,0:2:0:0:
435,87,279273,2,0,L|421:155,1,70,2|8,1:2|0:2,0:2:0:0:
355,212,279564,5,0,1:2:0:0:
355,212,279637,1,0,1:2:0:0:
355,212,279710,1,8,0:2:0:0:
389,289,279856,2,0,L|430:299,2,35,0|0|8,1:2|1:2|0:2,0:0:0:0:
315,339,280147,2,0,L|278:332,2,35,0|0|8,1:2|1:2|0:2,0:0:0:0:
240,251,280438,2,0,L|205:256,5,35,8|8|8|8|8|8,0:2|0:2|0:2|0:2|0:2|0:2,0:0:0:0:
165,292,280875,6,0,L|176:372,2,70,6|2|8,1:2|0:2|0:2,0:0:0:0:
95,245,281312,2,0,L|25:256,1,70,2|8,0:2|0:2,0:2:0:0:
9,170,281603,2,0,L|78:158,1,70,2|8,1:2|0:2,0:2:0:0:
122,83,281895,1,0,1:2:0:0:
204,113,282040,5,8,0:2:0:0:
204,113,282186,2,0,L|219:185,1,70,2|8,0:2|0:2,0:0:0:0:
304,185,282477,2,0,L|289:274,1,70,2|8,0:2|0:2,0:2:0:0:
211,297,282768,2,0,L|229:369,1,70,2|8,1:2|0:2,0:2:0:0:
306,384,283060,1,0,1:2:0:0:
367,322,283205,5,8,0:2:0:0:
367,322,283351,2,0,L|439:309,1,70,2|8,0:2|0:2,0:0:0:0:
490,239,283642,2,0,L|474:163,1,70,2|8,0:2|0:2,0:2:0:0:
397,121,283933,2,0,L|320:138,2,70,2|8|0,1:2|0:2|1:2,0:0:0:0:
455,54,284370,5,8,0:2:0:0:
384,9,284516,2,0,L|337:20,2,35,0|0|8,1:2|1:2|0:2,0:0:0:0:
271,59,284807,2,0,L|236:51,2,35,0|0|8,1:2|1:2|0:2,0:0:0:0:
166,0,285098,2,0,L|120:10,2,35,0|0|8,1:2|1:2|0:2,0:0:0:0:
86,84,285390,5,0,1:2:0:0:
86,84,285462,1,0,1:2:0:0:
86,84,285535,2,0,L|-2:61,2,70,12|2|0,0:2|0:2|1:2,0:0:0:0:
135,153,285972,2,0,L|118:224,1,70,0|8,1:2|0:2,0:0:0:0:
56,280,286263,2,0,L|71:350,2,70,8|8|8,0:2|0:2|0:2,0:0:0:0:
118,221,286700,5,12,0:2:0:0:
459,370,287283,2,0,B|485:348|485:348|478:313,1,70,2|2,0:1|0:2,0:2:0:0:
383,316,287574,2,0,B|349:324|349:324|336:323|336:323|293:337,1,93.3333333333333,2|2,0:1|0:2,0:2:0:0:
251,367,287865,6,0,P|237:298|222:230,1,140,6|10,1:2|0:2,0:2:0:0:
327,61,288448,2,0,P|361:51|395:43,1,70,2|0,1:2|1:2,0:0:0:0:
394,43,288666,1,0,3:2:0:0:
394,43,288739,2,0,L|409:111,1,70,2|8,0:2|0:2,0:0:0:0:
476,166,289030,2,0,L|458:234,1,70,2|0,0:2|1:2,0:0:0:0:
462,326,289322,2,0,L|393:311,1,70,8|2,0:2|0:2,0:0:0:0:
322,259,289613,2,0,L|253:273,1,70,0|0,1:2|1:2,0:0:0:0:
192,330,289904,2,0,L|123:317,1,70,10|0,0:2|3:2,0:0:0:0:
47,359,290195,6,0,P|12:300|35:236,1,140,2|10,1:2|0:2,0:0:0:0:
0,57,290778,2,0,L|69:68,1,70,2|0,1:2|1:2,0:0:0:0:
69,68,290996,1,0,3:2:0:0:
69,68,291069,2,0,L|56:136,1,70,2|8,0:2|0:2,0:0:0:0:
143,151,291361,2,0,L|155:82,1,70,2|0,0:2|1:2,0:0:0:0:
227,34,291652,2,0,L|299:45,1,70,8|2,0:2|0:2,0:0:0:0:
357,107,291943,2,0,L|429:94,1,70,2|0,1:2|1:2,0:0:0:0:
500,138,292234,2,0,L|512:206,1,70,8|0,0:2|3:2,0:2:0:0:
465,288,292526,5,6,1:2:0:0:
465,288,292817,2,0,P|398:273|339:308,1,140,10|2,0:2|1:2,0:2:0:0:
270,375,293254,1,0,1:2:0:0:
270,375,293327,1,0,3:2:0:0:
270,375,293399,2,0,L|254:306,1,70,2|8,0:2|0:2,0:0:0:0:
178,260,293691,2,0,L|189:182,1,70,2|0,0:2|1:2,0:0:0:0:
263,140,293982,2,0,L|248:57,1,70,8|2,0:2|0:2,0:0:0:0:
176,21,294273,2,0,L|102:35,1,70,0|0,1:2|1:2,0:0:0:0:
57,108,294564,2,0,L|70:180,1,70,10|0,0:2|3:2,0:2:0:0:
132,238,294856,6,0,B|206:241|191:266|266:274,1,140,6|8,1:2|0:2,0:2:0:0:
346,321,295293,2,0,B|354:358|354:358|335:384,2,70,2|8|0,1:2|0:2|1:2,0:0:0:0:
356,238,295729,1,10,0:2:0:0:
437,261,295875,2,0,P|487:216|481:149,1,140,6|0,1:2|1:2,0:2:0:0:
417,82,296312,1,12,0:2:0:0:
251,192,296603,2,0,L|196:178,3,35,4|8|8|8,1:3|0:0|0:2|0:2,0:0:0:0:
169,201,296895,2,8,L|114:187,3,35,8|8|8|8,0:2|0:2|0:2|0:2,0:2:0:0:
89,220,297186,6,0,P|44:169|61:104,1,140,6|14,1:2|0:2,0:2:0:0:
201,0,297768,2,0,L|270:10,1,70,2|0,1:2|1:2,0:0:0:0:
270,10,297987,1,0,3:2:0:0:
270,10,298060,2,0,L|262:82,1,70,2|8,0:2|0:2,0:0:0:0:
316,150,298351,2,0,L|385:159,1,70,2|0,0:2|1:2,0:0:0:0:
447,218,298642,2,0,L|437:287,1,70,8|2,0:2|0:2,0:0:0:0:
366,340,298933,2,0,L|296:330,1,70,0|0,1:2|1:2,0:0:0:0:
233,272,299225,2,0,L|163:283,1,70,10|0,0:2|3:2,0:0:0:0:
101,339,299516,6,0,P|35:322|14:258,1,140,2|10,1:2|0:2,0:0:0:0:
86,91,300098,2,0,L|154:106,1,70,2|0,1:2|1:2,0:0:0:0:
154,106,300317,1,0,3:2:0:0:
154,106,300390,2,0,L|235:86,1,70,2|8,0:2|0:2,0:0:0:0:
307,121,300681,2,0,L|323:188,1,70,2|0,0:2|1:2,0:0:0:0:
280,260,300972,2,0,L|212:278,1,70,8|2,0:2|0:2,0:0:0:0:
241,364,301263,2,0,L|308:345,1,70,2|0,1:2|1:2,0:0:0:0:
393,373,301555,2,0,L|460:353,1,70,8|0,0:2|3:2,0:2:0:0:
487,266,301846,5,6,1:2:0:0:
487,266,302137,2,0,B|469:197|447:220|423:142,1,140,10|2,0:2|1:2,0:2:0:0:
474,67,302574,1,0,1:2:0:0:
474,67,302647,1,0,3:2:0:0:
474,67,302720,2,0,L|393:53,1,70,2|8,0:2|0:2,0:0:0:0:
338,0,303011,2,0,L|269:15,1,70,2|0,0:2|1:2,0:0:0:0:
217,84,303302,2,0,L|148:68,1,70,8|2,0:2|0:2,0:0:0:0:
86,128,303594,2,0,L|71:196,1,70,0|0,1:2|1:2,0:0:0:0:
151,243,303885,2,0,L|165:311,1,70,10|0,0:2|3:2,0:0:0:0:
247,344,304176,6,0,P|178:357|111:377,1,140,6|8,1:2|0:2,0:2:0:0:
25,364,304617,1,2,1:2:0:0:
25,364,304764,2,0,L|11:294,1,70,8|2,0:2|1:2,0:0:0:0:
39,218,305058,1,10,0:2:0:0:
122,233,305205,6,0,B|200:219|184:193|249:179,1,140,4|6,1:1|1:2,0:0:0:0:
336,198,305646,2,0,L|356:264,1,70,8|2,0:2|0:2,0:0:0:0:
433,311,305925,2,0,L|476:298,6,35,10|8|8|8|8|8|8,1:2|0:0|0:2|0:2|0:2|0:2|0:2,0:0:0:0:
512,217,306511,6,0,L|490:136,3,83.9999974365235,2|0|0|0,0:2|0:2|0:2|0:2,0:2:0:0:
401,98,307676,2,0,L|320:120,3,83.9999974365235,2|0|0|0,0:2|0:2|0:2|0:2,0:2:0:0:
272,198,308841,2,0,L|294:279,3,83.9999974365235,2|0|0|0,0:2|0:2|0:2|0:2,0:2:0:0:
240,349,310006,2,0,L|159:371,3,83.9999974365235,2|0|0|0,0:2|0:2|0:2|0:2,0:2:0:0:
28,303,311171,6,0,L|17:262,1,41.9999987182618,2|0,0:2|0:2,0:2:0:0:
88,216,311462,2,0,L|110:296,2,83.9999974365235,2|0|0,0:2|0:2|0:2,0:2:0:0:
263,201,312336,6,0,L|273:160,1,41.9999987182618,2|0,0:2|0:2,0:2:0:0:
203,114,312627,2,0,L|180:194,2,83.9999974365235,2|0|0,0:2|0:2|0:2,0:2:0:0:
41,87,313501,6,0,L|30:46,1,41.9999987182618,2|0,0:2|0:2,0:2:0:0:
101,0,313792,2,0,L|123:80,2,83.9999974365235,2|0|0,0:2|0:2|0:2,0:2:0:0:
101,0,314666,1,2,0:2:0:0:
256,192,314811,12,0,319180,0:2:0:0:
