osu file format v14

[General]
AudioFilename: audio.mp3
AudioLeadIn: 0
PreviewTime: 1121
Countdown: 0
SampleSet: Soft
StackLeniency: 0.7
Mode: 0
LetterboxInBreaks: 0
WidescreenStoryboard: 0

[Editor]
Bookmarks: 17577,38548,57189,75830,99859,101461,120101,138742,176024,234276,306509
DistanceSpacing: 0.4
BeatDivisor: 4
GridSize: 4
TimelineZoom: 1.5

[Metadata]
Title:Bukiyou na Otoko
TitleUnicode:不器用な男
Artist:Iori Kanzaki
ArtistUnicode:カンザキイオリ
Creator:AirinCat
Version:Extra
Source:
Tags:fuju japanese rock jrock clumsy man bukiyo KAMITSUBAKI STUDIO
BeatmapID:3379944
BeatmapSetID:1655854

[Difficulty]
HPDrainRate:6
CircleSize:4
OverallDifficulty:8.8
ApproachRate:9.4
SliderMultiplier:1.6
SliderTickRate:1

[Events]
//Background and Video events
Video,0,"shinitakunai.mp4"
0,0,"bg.png",0,0
//Break Periods
2,122634,128868
2,234471,252912
//Storyboard Layer 0 (Background)
//Storyboard Layer 1 (Fail)
//Storyboard Layer 2 (Pass)
//Storyboard Layer 3 (Foreground)
//Storyboard Layer 4 (Overlay)
//Storyboard Sound Samples

[TimingPoints]
1266,291.26213592233,4,2,1,30,1,0
1266,-100,4,2,1,30,0,0
9906,-125,4,2,1,30,0,0
10586,-125,4,2,1,30,0,0
16702,-100,4,2,1,40,0,0
17576,-90.9090909090909,4,2,1,60,0,0
22236,-250,4,2,1,60,0,0
22528,-90.9090909090909,4,2,1,60,0,0
27770,267.857142857143,4,2,1,60,1,0
27770,-90.9090909090909,4,2,1,60,0,0
27903,288.461538461538,4,2,1,60,1,0
27903,-90.9090909090909,4,2,1,60,0,0
29227,291.26213592233,4,2,1,60,1,0
29227,-90.9090909090909,4,2,1,60,0,0
38547,-125,4,2,1,40,0,0
57188,289.156626506025,4,2,1,60,1,0
57188,-100,4,2,1,60,0,0
58344,294.840294840295,4,2,1,60,1,0
58344,-100,4,2,1,60,0,0
59523,291.26213592233,4,2,1,60,1,0
59523,-100,4,2,1,60,0,0
65343,285.714285714286,4,2,1,60,1,0
65343,-100,4,2,1,60,0,0
66485,293.398533007335,4,2,1,60,1,0
66485,-100,4,2,1,60,0,0
67658,295.566502463054,4,2,1,60,1,0
68840,291.26213592233,4,2,1,60,1,0
68840,-100,4,2,1,60,0,0
71168,291.26213592233,4,2,1,60,1,0
71168,-100,4,2,1,60,0,0
73498,291.970802919707,4,2,1,70,1,0
73498,-100,4,2,1,70,0,0
75833,291.26213592233,4,2,1,70,1,1
75833,-90.9090909090909,4,2,1,70,0,1
101464,-90.9090909090909,4,2,1,60,0,0
120173,-90.9090909090909,4,2,1,20,0,0
129421,-142.857142857143,4,2,1,30,0,0
137575,309.278350515464,4,2,1,40,1,0
137575,-100,4,2,1,40,0,0
138193,277.777777777778,4,2,1,40,1,0
138193,-100,4,2,1,40,0,0
138748,285.714285714286,4,2,1,40,1,0
138748,-111.111111111111,4,2,1,40,0,0
139319,297.029702970297,4,2,1,40,1,0
139913,290.768112430337,4,2,1,40,1,0
139913,-111.111111111111,4,2,1,40,0,0
143402,291.26213592233,4,2,1,40,1,0
143402,-111.111111111111,4,2,1,40,0,0
155052,-71.4285714285714,4,2,1,60,0,0
155926,-83.3333333333333,4,2,1,60,0,0
156806,285.714285714286,4,2,1,50,1,0
156806,-166.666666666667,4,2,1,50,0,0
157377,289.855072463768,4,2,1,60,1,0
157377,-100,4,2,1,60,0,0
158536,291.616038882138,4,2,1,60,1,0
162035,291.26213592233,4,2,1,60,1,0
166695,293.757649938801,4,2,1,60,1,0
167870,290.697674418605,4,2,1,60,1,0
171358,291.26213592233,4,2,1,50,1,0
171358,-100,4,2,1,50,0,0
172523,-100,4,2,1,60,0,0
173105,300,4,2,1,60,1,0
173705,284.360189573459,4,2,1,70,1,0
173705,-100,4,2,1,70,0,0
174131,291.26213592233,4,2,1,70,1,0
174567,295.566502463054,4,2,1,70,1,0
175010,288.461538461538,4,2,1,70,1,0
176019,291.26213592233,4,2,1,70,1,1
176019,-90.9090909090909,4,2,1,70,0,1
201650,-125,4,2,1,60,0,0
201941,-76.9230769230769,4,2,1,60,0,0
202232,-90.9090909090909,4,2,1,60,0,0
220290,-125,4,2,1,60,0,0
220582,-76.9230769230769,4,2,1,60,0,0
220873,-90.9090909090909,4,2,1,60,0,0
224659,-111.111111111111,4,2,1,60,0,0
224951,-90.9090909090909,4,2,1,60,0,0
230630,-90.9090909090909,4,2,1,20,0,0
254368,-76.9230769230769,4,2,1,60,0,0
255249,291.970802919708,4,2,1,70,1,1
255249,-90.9090909090909,4,2,1,70,0,1
257584,291.26213592233,4,2,1,70,1,1
257584,-90.9090909090909,4,2,1,70,0,1
259914,289.156626506024,4,2,1,70,1,1
259914,-90.9090909090909,4,2,1,70,0,1
261938,297.029702970297,4,2,1,70,1,1
261938,-90.9090909090909,4,2,1,70,0,1
262235,310.880829015544,4,2,1,70,1,1
262235,-90.9090909090909,4,2,1,70,0,1
262545,283.018867924528,4,2,1,70,1,1
262545,-90.9090909090909,4,2,1,70,0,1
263252,297.029702970297,4,2,1,70,1,1
263252,-90.9090909090909,4,2,1,70,0,1
263994,285.714285714286,4,2,1,70,1,1
263994,-90.9090909090909,4,2,1,70,0,1
264565,291.26213592233,4,2,1,70,1,1
264565,-90.9090909090909,4,2,1,70,0,1
265730,-90.9090909090909,4,2,1,70,0,1
266895,291.26213592233,4,2,1,70,1,1
266895,-90.9090909090909,4,2,1,70,0,1
286700,-90.9090909090909,4,2,1,66,0,0
287283,-90.9090909090909,4,2,1,46,0,1
287865,-90.9090909090909,4,2,1,60,0,0
304176,294.117647058824,4,2,1,60,1,0
304176,-90.9090909090909,4,2,1,60,0,0
305646,279.06976744186,4,2,1,60,1,0
305925,306.122448979592,4,2,1,60,1,0
306511,291.26213592233,4,2,1,30,1,0
306511,-333.333333333333,4,2,1,30,0,0
314811,-333.333333333333,4,2,1,10,0,0
319180,-333.333333333333,4,2,1,5,0,0

[Colours]
Combo1 : 202,224,230
Combo2 : 230,199,231
Combo3 : 221,188,174
Combo4 : 218,214,186
Combo5 : 197,214,192

[HitObjects]
119,263,9906,6,0,P|58:249|14:290,1,128,2|0,0:2|0:2,0:2:0:0:
14,290,10295,1,2,0:2:0:0:
109,173,10440,6,0,L|102:142,2,21.3333333333333,0|0|0,3:2|3:2|3:2,0:2:0:0:
109,173,10586,6,0,P|143:162|182:152,1,64,2|0,1:2|0:2,0:2:0:0:
292,57,10877,2,0,P|261:48|230:40,1,64,0|8,1:2|0:1,0:2:0:0:
284,171,11168,1,0,1:2:0:0:
284,171,11314,1,0,0:2:0:0:
362,136,11460,1,8,1:1:0:0:
432,182,11605,1,0,0:2:0:0:
496,128,11751,6,0,P|503:96|511:65,1,64,2|0,1:2|0:2,0:2:0:0:
346,219,12042,2,0,P|353:251|361:282,1,64,0|8,1:2|0:1,0:2:0:0:
478,382,12333,1,0,1:2:0:0:
478,382,12479,1,0,0:2:0:0:
512,310,12625,1,8,1:1:0:0:
452,261,12770,1,0,0:2:0:0:
327,357,12916,6,0,P|296:365|258:374,1,64,2|0,1:2|0:2,0:2:0:0:
111,233,13207,2,0,L|232:272,1,128,0|0,1:2|1:2,0:2:0:0:
78,383,13644,1,0,0:2:0:0:
78,382,13790,2,0,P|87:351|95:320,1,64,8|0,1:1|0:2,0:2:0:0:
123,122,14081,6,0,B|62:132|78:159|8:176,2,128,2|8|8,1:2|1:1|1:1,0:2:0:0:
177,51,14809,1,0,0:2:0:0:
233,153,14955,2,0,P|240:122|250:92,1,64,8|0,1:1|0:2,0:2:0:0:
124,236,15246,5,2,1:2:0:0:
158,301,15392,1,0,0:2:0:0:
97,343,15537,2,0,P|64:332|23:320,1,64,0|8,1:2|0:1,0:2:0:0:
213,236,15829,2,0,P|243:245|273:255,1,64,0|0,1:2|0:2,0:2:0:0:
371,369,16120,2,0,P|399:359|431:349,1,64,8|0,1:1|0:2,0:2:0:0:
427,126,16411,2,0,P|414:179|403:245,1,96,2|0,1:2|0:2,0:2:0:0:
406,219,16702,2,0,P|446:232|489:242,1,80,12|0,0:2|0:2,0:2:0:0:
305,59,16994,5,8,0:2:0:0:
305,59,17066,1,8,0:2:0:0:
305,59,17139,2,8,P|301:80|292:104,1,40,8|8,0:2|0:2,0:2:0:0:
176,193,17285,1,8,0:2:0:0:
176,193,17358,1,8,0:2:0:0:
176,193,17431,2,8,P|182:165|191:145,1,40,8|8,0:2|0:2,0:2:0:0:
142,88,17576,6,0,B|190:84|213:116|213:116|221:169|276:178,1,176.000005371094,4|8,1:1|0:2,0:2:0:0:
509,190,18013,1,2,0:2:0:0:
462,94,18159,1,0,1:2:0:0:
375,168,18304,1,2,1:2:0:0:
421,366,18450,1,8,0:2:0:0:
512,309,18596,1,4,1:2:0:0:
512,309,18887,5,2,1:2:0:0:
336,284,19032,1,8,0:2:0:0:
256,336,19178,1,2,3:2:0:0:
157,206,19324,1,0,1:2:0:0:
262,151,19469,1,10,0:2:0:0:
262,151,19542,1,8,0:2:0:0:
262,151,19615,2,0,P|256:175|251:203,1,44.0000013427735,8|8,1:2|0:2,0:2:0:0:
121,323,19761,2,0,P|115:301|108:280,1,44.0000013427735,10|8,0:2|0:2,0:2:0:0:
0,141,19906,6,0,P|51:159|103:122,1,132.00000402832,6|0,1:2|0:2,0:2:0:0:
187,46,20198,2,0,P|143:36|103:20,1,88.000002685547,14|0,0:2|0:2,0:2:0:0:
39,316,20489,1,2,1:2:0:0:
181,234,20634,1,0,1:2:0:0:
181,234,20707,1,0,3:2:0:0:
181,234,20780,1,2,0:2:0:0:
94,200,20926,5,8,0:2:0:0:
204,324,21071,1,2,0:2:0:0:
283,272,21217,1,0,1:2:0:0:
409,332,21363,1,8,0:2:0:0:
501,174,21508,5,2,0:2:0:0:
409,332,21654,1,0,1:2:0:0:
314,355,21799,1,0,1:2:0:0:
241,178,21945,1,10,0:2:0:0:
321,135,22091,1,0,3:2:0:0:
384,200,22236,5,2,1:2:0:0:
384,200,22382,1,0,1:2:0:0:
176,92,22528,2,0,L|187:4,1,88.000002685547,10|0,0:2|0:2,0:2:0:0:
402,104,22819,1,2,1:2:0:0:
308,244,22965,1,0,1:2:0:0:
308,244,23037,1,0,3:2:0:0:
308,244,23110,1,2,0:2:0:0:
403,287,23256,5,8,0:2:0:0:
307,128,23401,1,2,0:2:0:0:
210,165,23547,1,0,1:2:0:0:
198,257,23693,1,8,0:2:0:0:
256,362,23838,5,2,0:2:0:0:
100,219,23984,1,2,1:2:0:0:
256,362,24130,1,0,1:2:0:0:
93,337,24275,2,0,P|51:351|10:367,1,88.000002685547,8|0,0:2|3:2,0:2:0:0:
311,133,24566,5,6,1:2:0:0:
311,133,24712,1,0,1:2:0:0:
99,42,24858,2,0,P|140:54|195:69,1,88.000002685547,10|0,0:2|0:2,0:2:0:0:
394,82,25149,1,2,1:2:0:0:
303,228,25295,1,0,1:2:0:0:
303,228,25367,1,0,3:2:0:0:
303,228,25440,1,2,0:2:0:0:
226,157,25586,5,8,0:2:0:0:
398,188,25732,1,2,0:2:0:0:
384,271,25877,1,0,1:2:0:0:
253,363,26023,1,8,0:2:0:0:
138,209,26168,5,2,0:2:0:0:
253,363,26314,1,0,1:2:0:0:
342,344,26460,1,0,1:2:0:0:
132,296,26605,2,0,P|88:305|47:319,1,88.000002685547,10|0,0:2|3:2,0:2:0:0:
219,9,26897,6,0,P|292:50|294:135,1,176.000005371094,6|8,1:2|0:2,0:2:0:0:
25,232,27333,2,0,P|15:186|2:146,1,88.000002685547,2|0,0:2|1:2,0:2:0:0:
59,90,27625,1,0,1:2:0:0:
256,299,27770,2,0,P|214:309|172:323,1,88.000002685547,2|8,0:2|0:2,0:2:0:0:
172,323,28191,5,2,1:2:0:0:
295,115,28335,2,0,B|390:141|346:191|431:217,1,176.000005371094,12|0,0:2|1:2,0:2:0:0:
497,122,28768,1,8,0:2:0:0:
497,122,28840,1,8,0:2:0:0:
497,122,28912,2,8,P|464:132|436:137,1,44.0000013427735,8|8,0:2|0:2,0:2:0:0:
434,301,29056,2,8,P|455:306|476:313,1,44.0000013427735,8|8,0:2|0:2,0:2:0:0:
289,204,29227,6,0,P|241:247|178:237,1,132.00000402832,6|0,1:2|0:2,0:2:0:0:
88,256,29518,2,0,P|95:212|106:170,1,88.000002685547,14|0,0:2|0:2,0:2:0:0:
293,318,29809,1,2,1:2:0:0:
177,357,29955,1,2,1:2:0:0:
177,357,30027,1,0,3:2:0:0:
177,357,30100,1,2,0:2:0:0:
178,237,30246,5,8,0:2:0:0:
374,351,30392,1,2,0:2:0:0:
426,276,30537,1,0,1:2:0:0:
311,205,30683,1,8,0:2:0:0:
459,89,30828,5,2,0:2:0:0:
311,205,30974,1,0,1:2:0:0:
246,131,31120,1,0,1:2:0:0:
397,3,31265,1,10,0:2:0:0:
371,86,31411,1,0,3:2:0:0:
302,29,31557,5,2,1:2:0:0:
302,29,31702,1,0,1:2:0:0:
416,191,31848,2,0,P|458:178|505:167,1,88.000002685547,14|0,0:2|0:2,0:2:0:0:
219,43,32139,1,0,1:2:0:0:
172,203,32285,1,0,1:2:0:0:
172,203,32358,1,0,3:2:0:0:
172,203,32430,1,2,0:2:0:0:
103,133,32576,5,8,0:2:0:0:
263,116,32722,1,2,0:2:0:0:
305,201,32867,1,0,1:2:0:0:
190,316,33013,1,8,0:2:0:0:
27,202,33159,5,2,0:2:0:0:
190,316,33304,1,2,1:2:0:0:
27,202,33450,1,0,1:2:0:0:
66,384,33595,2,0,P|75:341|86:295,1,88.000002685547,8|0,0:2|3:2,0:2:0:0:
371,152,33887,5,6,1:2:0:0:
371,152,34032,1,0,1:2:0:0:
321,367,34178,2,0,P|310:324|298:281,1,88.000002685547,10|0,0:2|0:2,0:2:0:0:
353,52,34469,1,0,1:2:0:0:
473,163,34615,1,0,1:2:0:0:
473,163,34688,1,0,3:2:0:0:
473,163,34760,1,2,0:2:0:0:
482,79,34906,5,8,0:2:0:0:
368,236,35052,1,2,0:2:0:0:
432,299,35197,1,0,1:2:0:0:
506,253,35343,1,8,0:2:0:0:
365,150,35489,5,2,0:2:0:0:
228,244,35634,1,0,1:2:0:0:
170,173,35780,1,0,1:2:0:0:
247,34,35926,2,0,P|291:51|331:60,1,88.000002685547,10|0,0:2|3:2,0:2:0:0:
62,343,36217,6,0,P|9:275|32:193,1,176.000005371094,2|10,1:2|0:2,0:2:0:0:
83,132,36654,1,2,0:2:0:0:
226,317,36799,1,0,1:2:0:0:
309,268,36945,1,8,0:2:0:0:
309,268,37018,1,8,0:2:0:0:
309,268,37091,1,10,0:2:0:0:
248,68,37236,1,4,1:2:0:0:
247,68,37527,6,0,P|234:109|226:152,1,88.000002685547,6|0,1:2|0:2,0:2:0:0:
417,353,37819,2,0,P|430:311|438:268,1,88.000002685547,6|2,1:2|0:2,0:2:0:0:
416,125,38110,1,8,0:3:0:0:
416,125,38183,1,8,0:3:0:0:
416,125,38256,2,4,P|410:145|404:166,1,44.0000013427735,4|4,0:3|0:3,0:3:0:0:
502,190,38401,2,4,P|506:167|512:147,1,44.0000013427735,4|4,0:3|0:3,0:3:0:0:
348,263,38547,6,0,P|297:226|236:238,1,128,4|0,1:2|0:2,0:2:0:0:
80,287,38984,2,0,P|141:305|202:330,1,128,0|0,1:2|0:2,0:2:0:0:
267,384,39421,2,0,P|276:344|288:308,1,64,8|0,0:1|0:2,0:2:0:0:
243,140,39712,1,2,0:2:0:0:
243,140,39858,1,0,1:2:0:0:
162,162,40003,2,0,P|155:193|149:224,1,64,2|0,0:2|0:2,0:2:0:0:
54,71,40294,2,0,P|45:134|32:197,1,128,2|8,1:2|0:1,0:2:0:0:
32,196,40731,1,0,0:2:0:0:
163,314,40877,6,0,P|222:292|293:279,1,128,2|2,1:2|0:2,0:2:0:0:
418,203,41314,2,0,P|355:189|294:169,1,128,0|0,1:2|0:2,0:2:0:0:
230,40,41751,1,8,0:1:0:0:
230,40,42188,2,0,P|213:101|204:165,1,128,0|0,1:2|0:2,0:2:0:0:
102,324,42625,2,0,P|95:292|87:261,1,64,0|0,1:2|0:2,0:2:0:0:
184,283,42916,1,8,0:1:0:0:
184,283,43207,6,0,P|236:247|299:265,1,128,2|0,1:2|0:2,0:2:0:0:
497,294,43644,2,0,P|435:300|393:254,1,128,0|0,1:2|0:2,0:2:0:0:
345,171,44081,2,0,P|356:141|364:110,1,64,8|0,0:1|0:2,0:2:0:0:
264,10,44372,1,2,0:2:0:0:
264,10,44518,1,0,1:2:0:0:
184,37,44663,2,0,P|172:66|164:97,1,64,2|0,0:2|0:2,0:2:0:0:
56,180,44955,2,0,P|119:187|178:210,1,128,2|8,1:2|0:1,0:2:0:0:
178,210,45392,1,0,0:2:0:0:
285,323,45537,6,0,P|334:280|329:218,1,128,2|2,1:2|0:2,0:2:0:0:
382,101,45974,2,0,P|320:117|257:128,1,128,0|0,1:2|0:2,0:2:0:0:
128,285,46411,1,8,0:1:0:0:
128,285,46702,5,2,0:2:0:0:
54,346,46848,2,0,P|46:314|38:283,1,64,2|0,1:2|0:2,0:2:0:0:
199,214,47139,1,8,0:3:0:0:
199,214,47212,1,8,0:3:0:0:
199,214,47285,1,8,0:3:0:0:
278,252,47430,1,8,0:3:0:0:
278,333,47576,1,4,0:3:0:0:
203,362,47722,1,4,0:3:0:0:
284,336,47867,6,0,B|347:339|338:368|405:372,1,128,6|0,1:2|1:2,0:2:0:0:
497,294,48304,2,0,P|504:262|512:231,1,64,8|0,0:1|1:2,0:2:0:0:
371,173,48595,2,0,P|378:204|386:235,2,64,2|8|0,0:2|1:1|0:2,0:2:0:0:
432,33,49032,6,0,P|463:25|494:18,1,64,2|0,1:2|0:2,0:2:0:0:
460,122,49324,1,0,1:2:0:0:
460,122,49469,1,8,0:1:0:0:
356,70,49615,1,2,1:2:0:0:
297,127,49760,1,0,0:2:0:0:
222,80,49906,1,8,1:1:0:0:
282,28,50052,1,0,0:2:0:0:
219,163,50197,6,0,P|210:193|203:225,1,64,2|0,1:2|0:2,0:2:0:0:
347,350,50489,2,0,P|355:319|362:287,1,64,8|8,1:1|0:1,0:2:0:0:
418,231,50780,2,0,P|346:248|286:251,1,128,0|8,1:2|1:1,0:2:0:0:
292,251,51217,1,0,0:2:0:0:
171,355,51362,6,0,P|112:333|47:323,1,128,2|0,1:2|1:2,0:2:0:0:
80,109,51799,1,8,0:1:0:0:
146,192,51945,2,0,P|150:160|159:129,1,64,2|0,1:2|0:2,0:2:0:0:
0,129,52236,2,0,P|9:159|13:191,1,64,8|0,1:1|0:2,0:2:0:0:
232,271,52527,6,0,P|260:257|291:250,1,64,2|0,1:2|0:2,0:2:0:0:
434,137,52819,2,0,P|402:129|374:116,1,64,2|8,1:2|0:1,0:2:0:0:
348,43,53110,2,0,P|331:104|311:165,1,128,0|8,1:2|1:1,0:2:0:0:
311,165,53547,1,0,0:2:0:0:
390,283,53693,6,0,P|452:296|512:318,1,128,2|0,1:2|1:2,0:2:0:0:
474,226,54129,1,8,0:1:0:0:
371,372,54275,1,2,1:2:0:0:
371,372,54421,1,0,0:2:0:0:
278,340,54566,2,0,P|271:305|262:275,1,64,8|0,1:1|0:2,0:2:0:0:
375,119,54858,6,0,P|364:149|360:180,1,64,2|0,1:2|0:2,0:2:0:0:
121,133,55149,2,0,P|181:143|225:99,1,128,2|0,1:2|1:2,0:2:0:0:
225,98,55731,2,0,P|217:66|213:35,1,64,2|0,1:3|0:2,0:2:0:0:
4,206,56023,5,2,1:2:0:0:
4,206,56168,1,0,1:2:0:0:
189,296,56314,1,12,0:2:0:0:
203,210,56460,1,8,0:2:0:0:
203,210,56532,1,8,0:2:0:0:
203,210,56605,2,0,P|171:216|140:222,1,64,10|8,0:2|0:3,0:2:0:0:
177,384,56896,2,0,P|208:377|239:371,1,64,4|4,0:3|0:3,0:2:0:0:
364,254,57188,6,0,B|446:261|424:295|511:314,1,160,6|8,1:2|0:2,0:2:0:0:
509,313,57621,1,0,3:2:0:0:
432,183,57766,1,2,1:2:0:0:
499,136,57910,2,0,P|504:96|513:57,1,80,0|0,1:2|0:2,0:2:0:0:
268,27,58200,5,8,0:2:0:0:
213,102,58344,2,0,P|255:111|301:120,1,80,2|0,0:2|1:2,0:2:0:0:
356,273,58638,2,0,P|271:276|236:208,1,160,8|2,0:2|1:2,0:2:0:0:
236,218,59081,1,0,1:2:0:0:
168,324,59228,2,0,P|128:328|89:337,1,80,10|0,0:2|0:2,0:2:0:0:
2,175,59523,6,0,P|78:162|126:222,1,160,2|8,1:2|0:2,0:2:0:0:
125,220,59959,1,0,3:2:0:0:
90,70,60105,1,0,1:2:0:0:
90,70,60251,1,0,1:2:0:0:
174,95,60396,2,0,P|212:84|252:77,1,80,2|8,0:2|0:2,0:2:0:0:
464,99,60688,5,2,0:2:0:0:
407,173,60833,1,0,1:2:0:0:
358,106,60979,2,0,L|344:20,1,80,8|0,0:2|0:2,0:2:0:0:
492,175,61270,2,0,L|478:261,1,80,2|0,1:2|1:2,0:2:0:0:
305,376,61561,1,10,0:2:0:0:
305,376,61853,6,0,P|360:322|436:337,1,160,2|8,1:2|0:2,0:2:0:0:
435,336,62289,1,0,3:2:0:0:
261,281,62435,2,0,P|250:239|237:204,2,80,2|0|0,1:2|1:2|0:2,0:2:0:0:
75,352,62872,1,8,0:2:0:0:
75,352,62945,1,2,0:0:0:0:
75,352,63018,2,0,P|62:309|50:269,1,80,2|0,0:2|1:2,0:2:0:0:
73,114,63309,1,8,0:2:0:0:
73,114,63600,6,0,P|114:100|156:83,1,80,2|0,1:2|1:2,0:2:0:0:
324,216,63891,2,0,P|252:241|196:188,1,160,10|0,0:2|1:2,0:2:0:0:
196,188,64328,1,0,1:2:0:0:
119,371,64474,2,0,B|113:286|64:309|67:222,1,160,10|0,0:2|1:2,0:2:0:0:
219,351,64911,1,0,1:2:0:0:
282,304,65056,2,0,P|324:311|363:324,1,80,2|8,0:2|0:2,0:2:0:0:
474,191,65343,6,0,P|480:151|490:112,1,80,2|0,0:2|1:2,0:2:0:0:
279,42,65628,1,12,0:2:0:0:
323,136,65771,1,8,0:2:0:0:
323,136,65843,1,8,0:2:0:0:
323,136,65914,1,8,0:2:0:0:
389,48,66057,5,8,0:2:0:0:
216,111,66200,1,8,0:2:0:0:
389,48,66343,1,8,0:2:0:0:
245,200,66485,6,0,P|168:192|130:125,1,160,6|8,1:2|0:2,0:2:0:0:
130,125,66925,1,2,0:2:0:0:
278,306,67071,1,2,1:2:0:0:
353,262,67218,2,0,L|371:183,1,80,0|0,1:2|0:2,0:2:0:0:
216,111,67511,5,8,0:2:0:0:
81,226,67658,2,0,P|42:215|3:207,1,80,2|0,0:2|1:2,0:2:0:0:
43,9,67953,1,8,0:2:0:0:
43,9,68249,2,0,P|81:19|120:27,1,80,0|0,1:2|1:2,0:2:0:0:
296,136,68544,6,0,B|234:145|253:171|187:184,1,120,10|0,0:2|0:2,0:2:0:0:
188,184,68840,2,0,P|198:222|205:261,1,80,0|0,1:2|0:2,0:2:0:0:
442,358,69131,2,0,P|447:318|456:279,1,80,8|0,0:2|0:2,0:2:0:0:
239,384,69422,1,0,1:2:0:0:
239,384,69568,1,0,1:2:0:0:
144,318,69713,1,2,0:2:0:0:
205,262,69859,6,0,B|251:249|280:272|280:272|299:312|346:316,1,160,8|0,0:2|1:2,0:2:0:0:
488,192,70296,1,8,0:2:0:0:
488,192,70587,1,0,1:2:0:0:
349,104,70733,1,0,1:2:0:0:
462,12,70878,2,0,P|451:51|445:90,1,80,10|0,0:2|0:2,0:2:0:0:
203,142,71168,6,0,P|250:202|326:193,2,160,6|10|2,1:2|0:2|1:2,0:2:0:0:
19,131,71896,2,0,P|27:92|38:53,1,80,0|0,1:2|0:2,0:2:0:0:
164,251,72187,1,8,0:2:0:0:
18,320,72333,1,2,0:2:0:0:
18,320,72478,1,0,1:2:0:0:
0,225,72624,2,0,L|84:243,1,80,8|0,0:2|0:2,0:2:0:0:
229,353,72915,2,0,L|150:369,1,80,2|0,1:2|1:2,0:2:0:0:
241,208,73206,1,8,0:2:0:0:
241,208,73352,1,0,1:2:0:0:
366,299,73498,5,14,0:2:0:0:
418,166,73643,1,0,1:2:0:0:
366,299,73789,1,0,1:2:0:0:
162,151,73935,5,14,0:2:0:0:
337,208,74081,1,0,1:2:0:0:
162,151,74227,1,0,1:2:0:0:
306,86,74373,5,14,0:2:0:0:
232,312,74519,1,0,1:2:0:0:
306,86,74665,1,0,1:2:0:0:
366,299,74811,5,10,0:2:0:0:
103,247,74957,2,0,L|26:268,1,80,10|0,0:2|1:2,0:2:0:0:
210,41,75249,1,10,0:2:0:0:
112,4,75395,1,8,0:2:0:0:
112,4,75468,1,8,0:2:0:0:
112,4,75541,2,0,L|96:62,1,40,8|8,0:2|0:2,0:2:0:0:
295,124,75687,2,0,L|311:66,1,40,8|8,0:2|0:2,0:2:0:0:
53,179,75833,6,0,P|116:127|201:155,1,176.000005371094,4|10,1:1|0:2,0:2:0:0:
224,371,76269,1,2,0:2:0:0:
124,245,76415,1,0,1:2:0:0:
224,371,76561,1,0,1:2:0:0:
374,205,76706,5,10,0:2:0:0:
442,276,76852,2,0,P|514:227|511:143,1,176.000005371094,2|0,1:2|1:2,0:2:0:0:
360,0,77289,2,0,P|318:11|275:21,1,88.000002685547,8|0,0:2|0:2,0:2:0:0:
99,141,77580,1,2,1:2:0:0:
230,241,77726,1,0,1:2:0:0:
59,342,77871,2,0,P|46:299|35:257,1,88.000002685547,10|0,0:2|0:2,0:2:0:0:
312,126,78163,5,2,1:2:0:0:
135,232,78308,1,0,1:2:0:0:
312,126,78454,2,0,B|384:133|361:172|428:181,1,132.00000402832,10|0,0:2|0:2,0:2:0:0:
428,181,78745,1,2,1:2:0:0:
446,85,78891,1,2,1:2:0:0:
263,213,79036,1,10,0:2:0:0:
431,310,79182,6,0,P|348:294|293:359,1,176.000005371094,2|0,1:2|1:2,0:2:0:0:
91,255,79619,1,8,0:2:0:0:
31,384,79765,2,0,P|17:338|4:296,1,88.000002685547,2|0,3:2|1:2,0:2:0:0:
274,116,80056,5,2,1:2:0:0:
178,282,80201,1,10,0:2:0:0:
33,147,80347,1,2,0:2:0:0:
33,147,80493,1,4,1:2:0:0:
263,225,80638,5,2,1:2:0:0:
378,85,80784,1,10,0:2:0:0:
512,201,80930,1,2,0:2:0:0:
512,201,81075,1,0,1:2:0:0:
466,330,81221,5,2,1:2:0:0:
364,194,81366,1,10,0:2:0:0:
489,10,81512,2,0,L|507:101,1,88.000002685547,2|0,1:2|0:2,0:2:0:0:
433,249,81803,5,2,1:2:0:0:
280,159,81949,1,10,0:2:0:0:
193,229,82095,1,2,0:2:0:0:
85,170,82240,2,0,P|39:177|-4:191,1,88.000002685547,2|0,1:2|1:2,0:2:0:0:
40,368,82532,2,0,P|86:361|129:347,1,88.000002685547,10|0,0:2|0:2,0:2:0:0:
308,80,82823,5,2,1:2:0:0:
180,152,82968,1,0,1:2:0:0:
308,80,83114,1,10,0:2:0:0:
126,48,83260,1,2,0:2:0:0:
256,256,83405,2,0,P|265:212|278:171,1,88.000002685547,2|0,1:2|1:2,0:2:0:0:
94,257,83697,1,10,0:2:0:0:
308,384,83842,6,0,P|368:324|450:344,1,176.000005371094,6|0,1:2|1:2,0:2:0:0:
278,170,84279,1,8,0:2:0:0:
453,36,84425,2,0,P|433:121|415:215,1,176.000005371094,4|2,1:2|1:2,0:2:0:0:
505,232,84862,2,0,L|513:186,1,44.0000013427735,10|8,0:2|0:2,0:2:0:0:
357,80,85007,2,0,L|348:123,1,44.0000013427735,10|8,0:2|0:2,0:2:0:0:
416,208,85153,6,0,B|344:219|369:245|292:260,1,132.00000402832,6|0,1:2|0:2,0:2:0:0:
296,259,85444,1,12,0:2:0:0:
85,109,85590,2,0,P|126:124|169:132,1,88.000002685547,2|0,0:2|1:2,0:2:0:0:
246,87,85881,1,0,1:2:0:0:
58,331,86027,5,10,0:2:0:0:
12,247,86172,2,0,P|95:240|141:310,1,176.000005371094,2|0,1:2|1:2,0:2:0:0:
370,249,86609,1,8,0:2:0:0:
289,354,86755,1,0,3:2:0:0:
149,116,86900,2,0,P|161:72|172:21,1,88.000002685547,2|0,1:2|1:2,0:2:0:0:
386,75,87192,2,0,P|374:119|363:170,1,88.000002685547,10|0,0:2|0:2,0:2:0:0:
188,381,87483,5,0,1:2:0:0:
68,174,87629,1,2,0:2:0:0:
218,262,87774,1,10,0:2:0:0:
74,345,87920,1,2,0:2:0:0:
300,384,88066,2,0,P|347:372|395:366,1,88.000002685547,2|0,1:2|1:2,0:2:0:0:
465,129,88357,5,10,0:2:0:0:
485,245,88502,2,0,P|400:235|364:160,1,176.000005371094,2|0,1:2|1:2,0:2:0:0:
166,103,88939,2,0,P|182:53|192:16,1,88.000002685547,8|0,0:2|0:2,0:2:0:0:
407,73,89231,1,2,1:2:0:0:
272,194,89376,1,0,1:2:0:0:
399,267,89522,2,0,P|440:254|491:244,1,88.000002685547,10|0,0:2|0:2,0:2:0:0:
295,73,89813,5,4,1:2:0:0:
149,244,89959,1,2,1:2:0:0:
70,200,90104,2,0,P|57:157|41:116,1,88.000002685547,8|0,0:2|0:2,0:2:0:0:
272,194,90396,1,0,1:2:0:0:
235,359,90541,1,0,1:2:0:0:
78,290,90687,1,8,0:2:0:0:
181,154,90833,1,2,1:2:0:0:
360,282,90978,5,2,0:2:0:0:
454,81,91124,1,2,1:2:0:0:
454,81,91269,1,8,0:2:0:0:
337,118,91415,1,2,0:2:0:0:
456,284,91561,1,2,1:2:0:0:
337,118,91706,1,2,1:2:0:0:
265,174,91852,2,0,B|195:188|222:213|147:231,1,132.00000402832,8|0,0:2|0:2,0:2:0:0:
147,230,92143,5,4,1:2:0:0:
38,57,92289,2,0,P|77:76|120:85,1,88.000002685547,0|8,1:2|0:2,0:2:0:0:
100,319,92580,1,0,1:2:0:0:
0,207,92726,1,10,0:2:0:0:
100,319,92871,1,0,1:2:0:0:
265,174,93017,1,10,0:2:0:0:
336,262,93163,6,0,B|427:271|398:313|489:340,1,176.000005371094,4|0,1:2|1:2,0:2:0:0:
512,183,93599,1,8,0:2:0:0:
417,174,93745,1,2,0:2:0:0:
331,344,93891,1,10,1:2:0:0:
249,301,94036,1,8,0:2:0:0:
249,301,94109,1,8,0:2:0:0:
249,301,94182,2,0,P|255:270|262:240,1,44.0000013427735,8|8,0:2|0:2,0:2:0:0:
118,148,94328,2,0,P|122:169|127:190,1,44.0000013427735,8|8,0:2|0:2,0:2:0:0:
44,319,94473,6,0,P|83:299|124:285,1,88.000002685547,6|2,1:2|0:2,0:2:0:0:
291,44,94765,1,8,0:2:0:0:
319,149,94910,2,0,P|275:140|233:127,1,88.000002685547,2|8,0:2|0:2,0:2:0:0:
358,361,95201,2,0,P|314:369|273:383,1,88.000002685547,2|8,1:2|0:2,0:2:0:0:
497,218,95493,5,0,1:2:0:0:
483,367,95638,1,8,0:2:0:0:
321,246,95784,1,2,0:2:0:0:
418,137,95930,1,8,0:2:0:0:
346,86,96075,2,0,P|335:43|330:0,1,88.000002685547,2|8,0:2|0:2,0:2:0:0:
89,187,96366,2,0,P|99:144|104:100,1,88.000002685547,2|8,1:2|0:2,0:2:0:0:
240,350,96658,5,0,1:2:0:0:
100,324,96803,1,8,0:2:0:0:
219,196,96949,1,2,0:2:0:0:
369,379,97095,1,8,0:2:0:0:
448,287,97240,2,0,P|404:281|362:269,1,88.000002685547,2|8,0:2|0:2,0:2:0:0:
447,18,97532,2,0,P|404:30|361:35,1,88.000002685547,2|8,1:2|0:2,0:2:0:0:
483,163,97823,1,0,1:2:0:0:
290,333,97968,5,10,0:2:0:0:
204,172,98114,1,0,1:2:0:0:
204,172,98187,1,0,1:2:0:0:
204,172,98260,1,8,0:2:0:0:
58,357,98405,1,0,1:2:0:0:
58,357,98478,1,0,1:2:0:0:
58,357,98551,2,0,P|46:312|31:273,1,88.000002685547,8|0,0:2|1:2,0:2:0:0:
57,236,98769,1,0,1:2:0:0:
57,236,98842,1,8,0:2:0:0:
242,258,98988,1,0,1:2:0:0:
242,258,99061,1,0,1:2:0:0:
242,258,99133,5,14,0:2:0:0:
137,291,99279,1,2,0:2:0:0:
202,82,99425,1,8,0:2:0:0:
302,126,99570,2,0,P|350:119|394:101,1,88.000002685547,2|8,0:2|0:2,0:2:0:0:
316,364,99862,2,0,P|364:370|408:389,1,88.000002685547,2|8,1:2|0:2,0:2:0:0:
159,196,100153,5,0,1:2:0:0:
106,366,100299,1,8,0:2:0:0:
228,300,100444,1,2,1:2:0:0:
35,166,100590,1,12,0:2:0:0:
283,0,100735,2,0,P|271:42|264:85,1,88.000002685547,2|8,0:2|0:2,0:2:0:0:
471,244,101027,1,8,0:2:0:0:
471,244,101099,1,8,0:2:0:0:
471,244,101172,2,0,P|475:218|487:191,1,44.0000013427735,8|8,0:2|0:2,0:2:0:0:
430,111,101318,1,8,0:2:0:0:
430,111,101391,1,8,0:2:0:0:
430,111,101464,6,0,B|354:121|379:159|313:169,1,132.00000402832,4|0,1:2|0:2,0:2:0:0:
225,240,101755,2,0,P|215:196|201:156,1,88.000002685547,6|0,0:2|0:2,0:2:0:0:
404,298,102046,1,2,1:2:0:0:
298,384,102192,1,0,1:2:0:0:
298,384,102265,1,0,3:2:0:0:
298,384,102337,1,2,0:2:0:0:
315,289,102483,5,8,0:2:0:0:
98,317,102629,1,2,0:2:0:0:
164,384,102774,1,0,1:2:0:0:
226,307,102920,1,8,0:2:0:0:
128,167,103066,5,2,0:2:0:0:
226,307,103211,1,0,1:2:0:0:
164,384,103357,1,0,1:2:0:0:
11,299,103502,1,10,0:2:0:0:
41,210,103648,1,0,3:2:0:0:
101,278,103794,5,2,1:2:0:0:
101,278,103939,1,0,1:2:0:0:
10,93,104085,2,0,P|52:83|98:70,1,88.000002685547,10|0,0:2|0:2,0:2:0:0:
325,82,104376,1,2,1:2:0:0:
210,155,104522,1,0,1:2:0:0:
210,155,104595,1,0,3:2:0:0:
210,155,104667,1,2,0:2:0:0:
234,58,104813,5,8,0:2:0:0:
312,200,104959,1,2,0:2:0:0:
220,255,105104,1,0,1:2:0:0:
248,352,105250,1,8,0:2:0:0:
404,256,105396,5,2,0:2:0:0:
248,352,105541,1,2,1:2:0:0:
341,384,105687,1,0,1:2:0:0:
160,316,105832,2,0,P|117:331|73:343,1,88.000002685547,8|0,0:2|3:2,0:2:0:0:
312,112,106124,5,6,1:2:0:0:
312,112,106269,1,0,1:2:0:0:
491,238,106415,2,0,L|509:150,1,88.000002685547,10|0,0:2|0:2,0:2:0:0:
330,24,106706,1,2,1:2:0:0:
402,174,106852,1,0,1:2:0:0:
402,174,106925,1,0,3:2:0:0:
402,174,106998,1,2,0:2:0:0:
430,90,107143,5,8,0:2:0:0:
236,127,107289,1,2,0:2:0:0:
216,210,107434,1,0,1:2:0:0:
280,280,107580,1,8,0:2:0:0:
93,294,107726,5,2,0:2:0:0:
151,152,107871,1,0,1:2:0:0:
93,294,108017,1,0,1:2:0:0:
216,381,108163,2,0,P|257:371|305:364,1,88.000002685547,10|0,0:2|3:2,0:2:0:0:
474,64,108454,6,0,P|390:59|351:133,1,176.000005371094,6|8,1:2|0:2,0:2:0:0:
457,346,108891,1,2,1:2:0:0:
512,234,109036,1,8,0:2:0:0:
457,346,109182,1,0,1:2:0:0:
334,217,109328,1,10,0:2:0:0:
184,293,109473,6,0,B|116:309|144:339|78:367,1,132.00000402832,6|0,1:2|0:2,0:2:0:0:
78,367,109765,1,2,1:2:0:0:
44,269,109910,1,12,0:2:0:0:
199,384,110056,1,2,0:2:0:0:
44,269,110201,1,2,1:2:0:0:
175,202,110347,1,8,0:2:0:0:
175,202,110420,1,8,0:2:0:0:
175,202,110493,2,8,P|180:170|187:144,1,44.0000013427735,8|8,0:2|0:2,0:2:0:0:
13,71,110638,5,8,0:2:0:0:
13,71,110711,1,8,0:2:0:0:
13,71,110784,2,0,P|63:109|124:90,1,132.00000402832,6|0,1:2|0:2,0:2:0:0:
216,27,111075,2,0,P|175:17|131:2,1,88.000002685547,14|0,0:2|0:2,0:2:0:0:
255,219,111366,1,2,1:2:0:0:
359,115,111512,1,0,1:2:0:0:
359,115,111585,1,0,3:2:0:0:
359,115,111658,1,2,0:2:0:0:
352,209,111803,5,8,0:2:0:0:
256,100,111949,1,2,0:2:0:0:
349,14,112095,1,0,1:2:0:0:
453,127,112240,1,8,0:2:0:0:
347,299,112386,5,2,0:2:0:0:
453,127,112532,1,0,1:2:0:0:
512,191,112677,1,0,1:2:0:0:
452,344,112823,1,10,0:2:0:0:
417,246,112968,1,0,3:2:0:0:
512,279,113114,5,2,1:2:0:0:
512,279,113260,1,0,1:2:0:0:
346,384,113405,2,0,P|305:365|262:356,1,88.000002685547,10|0,0:2|0:2,0:2:0:0:
129,182,113697,1,2,1:2:0:0:
59,326,113842,1,0,1:2:0:0:
59,326,113915,1,0,3:2:0:0:
59,326,113988,1,2,0:2:0:0:
149,329,114133,5,8,0:2:0:0:
6,228,114279,1,2,0:2:0:0:
30,144,114425,1,0,1:2:0:0:
196,121,114570,1,8,0:2:0:0:
87,0,114716,5,2,0:2:0:0:
196,121,114862,1,2,1:2:0:0:
115,156,115007,1,0,1:2:0:0:
182,20,115153,2,0,P|225:32|267:42,1,88.000002685547,8|0,0:2|3:2,0:2:0:0:
416,219,115444,5,6,1:2:0:0:
416,219,115590,1,0,1:2:0:0:
230,326,115735,2,0,P|187:314|144:307,1,88.000002685547,10|0,0:2|0:2,0:2:0:0:
308,144,116027,1,2,1:2:0:0:
387,302,116172,1,0,1:2:0:0:
387,302,116245,1,0,3:2:0:0:
387,302,116318,1,2,0:2:0:0:
310,252,116464,5,8,0:2:0:0:
413,137,116609,1,2,0:2:0:0:
364,62,116755,1,0,1:2:0:0:
275,60,116900,1,8,0:2:0:0:
207,220,117046,5,2,0:2:0:0:
90,74,117192,1,0,1:2:0:0:
169,109,117337,1,0,1:2:0:0:
84,247,117483,2,0,P|71:201|55:162,1,88.000002685547,10|0,0:2|3:2,0:2:0:0:
370,12,117774,6,0,P|440:56|430:139,1,176.000005371094,6|8,1:2|0:2,0:2:0:0:
366,198,118211,1,2,0:2:0:0:
439,376,118357,1,0,1:2:0:0:
477,302,118502,1,8,0:2:0:0:
477,302,118575,1,8,0:2:0:0:
477,302,118648,1,8,0:2:0:0:
170,349,118794,1,6,1:1:0:0:
170,349,119085,1,6,1:1:0:0:
170,349,119376,6,2,B|266:334|237:393|337:384,1,176.000005371094,6|8,1:1|0:3,0:1:0:0:
403,331,119813,1,4,0:3:0:0:
360,264,119959,1,4,0:3:0:0:
403,331,120104,5,6,0:2:0:0:
256,192,120177,12,0,122434,0:2:0:0:
4,244,129425,6,0,P|20:297|29:352,2,111.999996582031,2|0|0,0:2|0:2|0:2,0:2:0:0:
15,166,130153,1,0,0:2:0:0:
91,190,130299,2,0,P|118:184|145:176,1,55.9999982910157,2|0,0:2|0:2,0:2:0:0:
231,116,130590,2,0,P|274:148|328:141,1,111.999996582031,2|0,0:2|0:2,0:2:0:0:
395,101,131027,1,0,0:2:0:0:
464,189,131172,2,0,P|449:242|439:298,1,111.999996582031,2|0,0:2|0:2,0:2:0:0:
476,363,131609,1,0,0:2:0:0:
372,378,131755,6,0,P|345:369|318:362,1,55.9999982910157,2|0,0:2|0:2,0:2:0:0:
259,305,132046,2,0,P|232:313|205:320,1,55.9999982910157,2|0,0:2|0:2,0:2:0:0:
137,369,132337,2,0,P|110:360|83:353,2,55.9999982910157,2|0|0,0:2|0:2|0:2,0:2:0:0:
340,265,132920,2,0,P|343:234|354:205,1,55.9999982910157,2|0,0:2|0:2,0:2:0:0:
291,141,133211,2,0,B|241:144|244:168|176:173,2,111.999996582031,2|0|0,0:2|0:2|0:2,0:2:0:0:
87,1,134085,6,0,P|79:27|75:55,1,55.9999982910157,2|0,0:2|0:2,0:2:0:0:
8,97,134376,2,0,P|16:123|20:151,1,55.9999982910157,2|0,0:2|0:2,0:2:0:0:
82,202,134667,2,0,P|70:246|61:321,1,111.999996582031,2|0,0:2|0:2,0:2:0:0:
5,362,135104,1,0,0:2:0:0:
145,334,135250,2,0,P|197:340|265:357,1,111.999996582031,2|0,0:2|0:2,0:2:0:0:
327,312,135687,1,0,0:2:0:0:
307,232,135832,2,0,B|313:173|339:188|345:128,2,111.999996582031,2|2|2,0:2|0:2|0:2,0:2:0:0:
444,384,136706,5,0,0:2:0:0:
511,348,136852,2,0,P|422:358|329:394,1,167.999994873047,2|0,0:2|0:2,0:2:0:0:
103,237,137575,1,0,0:2:0:0:
103,237,137884,5,0,0:2:0:0:
128,326,138038,1,8,0:3:0:0:
128,326,138116,1,8,0:3:0:0:
128,326,138193,1,8,0:3:0:0:
213,343,138331,1,8,0:3:0:0:
270,284,138470,1,4,0:3:0:0:
236,210,138609,1,4,0:3:0:0:
281,292,138748,6,0,B|352:293|336:324|418:329,2,143.999995605469,4|4|10,1:2|1:3|0:2,0:2:0:0:
103,10,139616,1,4,0:3:0:0:
26,56,139764,1,8,0:3:0:0:
26,56,139838,1,8,0:3:0:0:
26,56,139913,2,0,P|22:95|15:136,1,71.9999978027344,4|8,1:3|0:3,0:2:0:0:
172,142,140203,2,0,B|177:99|182:65,1,71.9999978027344,4|0,1:3|0:2,0:2:0:0:
0,281,140494,2,0,P|60:221|125:245,1,143.999995605469,10|4,0:2|0:3,0:2:0:0:
290,370,140930,5,8,0:3:0:0:
290,370,141003,1,8,0:3:0:0:
290,370,141076,2,0,P|254:374|219:384,1,71.9999978027344,4|0,1:3|0:2,0:2:0:0:
216,212,141366,2,0,P|250:221|286:226,1,71.9999978027344,4|0,1:3|0:2,0:2:0:0:
501,253,141657,2,0,B|422:252|445:296|370:304,1,143.999995605469,10|4,0:2|0:3,0:2:0:0:
330,126,142093,5,8,0:3:0:0:
330,126,142166,1,8,0:3:0:0:
330,126,142239,1,4,1:3:0:0:
396,196,142384,1,8,0:3:0:0:
473,138,142529,2,0,P|465:99|460:63,1,71.9999978027344,4|0,1:3|0:2,0:2:0:0:
209,15,142820,2,0,P|220:78|233:159,1,143.999995605469,10|4,0:2|0:3,0:2:0:0:
65,293,143256,5,8,0:3:0:0:
65,293,143329,1,8,0:3:0:0:
65,293,143402,2,0,P|101:234|170:235,1,143.999995605469,4|4,1:3|1:3,0:2:0:0:
170,235,143838,1,0,0:2:0:0:
357,336,143984,2,0,P|291:355|243:306,1,143.999995605469,10|4,0:2|0:3,0:2:0:0:
243,306,144421,1,8,0:3:0:0:
82,362,144567,6,0,P|74:323|61:284,1,71.9999978027344,4|8,1:3|0:3,0:2:0:0:
218,169,144858,2,0,P|225:130|239:91,1,71.9999978027344,4|0,1:3|0:2,0:2:0:0:
120,18,145149,1,10,0:2:0:0:
120,18,145295,1,4,0:3:0:0:
133,105,145440,1,4,0:3:0:0:
307,26,145586,5,8,0:3:0:0:
307,26,145659,1,8,0:3:0:0:
307,26,145732,2,0,P|338:31|390:46,1,71.9999978027344,4|0,1:3|0:2,0:2:0:0:
336,251,146023,2,0,P|304:245|253:231,1,71.9999978027344,4|0,1:3|0:2,0:2:0:0:
359,137,146314,2,0,B|438:159|401:191|478:212,1,143.999995605469,10|4,0:2|0:3,0:2:0:0:
489,132,146751,5,8,0:3:0:0:
512,291,146897,2,0,P|502:325|494:360,1,71.9999978027344,4|8,1:3|0:3,0:2:0:0:
368,384,147188,1,4,1:3:0:0:
368,384,147334,1,0,3:2:0:0:
307,335,147479,1,10,0:2:0:0:
352,272,147625,1,0,3:2:0:0:
418,321,147770,1,4,0:3:0:0:
418,321,147916,1,8,0:3:0:0:
230,376,148062,6,0,B|149:371|171:342|95:329,1,143.999995605469,4|4,1:2|1:3,0:2:0:0:
95,329,148499,1,0,0:2:0:0:
0,237,148644,2,0,P|37:227|71:214,1,71.9999978027344,10|0,0:2|0:2,0:2:0:0:
166,102,148935,1,4,0:3:0:0:
166,102,149081,1,8,0:3:0:0:
71,102,149227,6,0,P|60:65|53:27,1,71.9999978027344,4|8,1:3|0:3,0:2:0:0:
232,0,149518,2,0,P|242:36|250:75,1,71.9999978027344,4|0,1:3|0:2,0:2:0:0:
242,245,149809,1,10,0:2:0:0:
161,207,149955,1,4,0:3:0:0:
233,161,150101,1,4,0:3:0:0:
345,217,150246,5,8,0:3:0:0:
345,217,150319,1,8,0:3:0:0:
345,217,150392,2,0,P|384:209|427:204,1,71.9999978027344,4|0,1:3|0:2,0:2:0:0:
512,53,150683,2,0,P|454:38|405:18,1,107.999996704102,4|0,1:3|0:2,0:2:0:0:
409,20,150974,2,0,P|401:55|391:94,1,71.9999978027344,10|0,0:2|0:2,0:2:0:0:
498,147,151266,1,4,0:3:0:0:
498,147,151411,1,8,0:3:0:0:
316,0,151557,6,0,L|301:73,1,71.9999978027344,4|8,1:3|0:3,0:2:0:0:
190,133,151848,1,4,1:3:0:0:
249,201,151994,1,0,3:2:0:0:
189,133,152139,2,0,P|121:149|107:226,1,143.999995605469,10|4,0:2|0:3,0:2:0:0:
104,323,152576,5,8,0:3:0:0:
104,323,152649,1,8,0:3:0:0:
104,323,152722,2,0,P|139:310|184:302,1,71.9999978027344,4|0,1:3|0:2,0:2:0:0:
19,139,153013,2,0,P|11:174|0:207,1,71.9999978027344,4|0,1:3|0:2,0:2:0:0:
225,204,153304,2,0,P|194:138|178:68,1,143.999995605469,10|4,0:2|0:3,0:2:0:0:
401,14,153741,5,8,0:3:0:0:
401,14,153814,1,8,0:3:0:0:
401,14,153887,2,0,P|412:48|418:83,1,71.9999978027344,4|8,1:3|0:2,0:2:0:0:
323,229,154178,1,4,0:3:0:0:
302,93,154324,1,8,0:2:0:0:
302,93,154397,1,8,0:2:0:0:
302,93,154469,1,8,0:2:0:0:
442,253,154615,1,8,0:3:0:0:
512,196,154761,1,4,0:3:0:0:
512,196,155052,6,0,P|471:159|418:168,2,111.999996582031,6|2|2,1:2|0:2|0:2,0:2:0:0:
473,341,155489,2,0,P|419:350|379:313,1,111.999996582031,4|0,1:2|0:2,0:2:0:0:
379,313,155926,6,0,B|334:287|278:310|302:338|248:366|202:351,1,191.999994140625,6|0,1:2|0:2,0:2:0:0:
17,247,156363,2,0,P|63:236|109:222,1,95.9999970703126,4|0,1:2|0:2,0:2:0:0:
109,222,156806,6,0,P|91:132|70:44,1,167.999994873047,12|0,0:2|0:2,0:2:0:0:
28,0,157377,6,0,B|114:12|75:58|160:81,2,160,6|8|0,1:2|0:2|1:2,0:2:0:0:
0,184,158101,2,0,P|40:170|78:164,1,80,0|0,1:2|0:2,0:2:0:0:
222,21,158391,5,8,0:2:0:0:
299,63,158536,2,0,P|304:98|312:141,1,80,2|0,0:2|1:2,0:2:0:0:
250,318,158827,1,8,0:2:0:0:
250,318,158973,1,2,0:2:0:0:
168,288,159119,2,0,P|157:245|153:193,1,80,2|0,1:2|1:2,0:2:0:0:
340,324,159410,6,0,P|384:287|440:301,1,120,10|0,0:2|0:2,0:2:0:0:
440,301,159702,2,0,P|429:339|424:379,1,80,2|0,1:2|0:2,0:2:0:0:
296,194,159994,2,0,P|385:189|416:119,1,160,10|0,0:2|1:2,0:2:0:0:
416,135,160431,1,0,1:2:0:0:
319,31,160577,2,0,P|284:43|238:53,1,80,2|8,0:2|0:2,0:2:0:0:
76,214,160868,6,0,P|41:201|-5:192,1,80,2|0,0:2|1:2,0:2:0:0:
56,10,161160,1,8,0:2:0:0:
56,10,161452,2,0,P|90:22|137:32,1,80,2|0,1:2|1:2,0:2:0:0:
339,124,161743,1,10,0:2:0:0:
339,124,162035,6,0,B|256:124|275:165|190:175,1,160,2|8,1:2|0:2,0:2:0:0:
190,175,162471,1,0,3:2:0:0:
370,235,162617,1,2,1:2:0:0:
436,177,162763,2,0,P|442:140|456:98,1,80,0|0,1:2|0:2,0:2:0:0:
480,312,163054,5,8,0:2:0:0:
416,361,163200,2,0,P|377:349|338:342,1,80,2|0,0:2|1:2,0:2:0:0:
179,264,163491,1,8,0:2:0:0:
138,346,163636,2,0,P|214:350|259:288,1,160,2|0,0:2|1:2,0:2:0:0:
40,184,164073,1,10,0:2:0:0:
40,184,164365,6,0,P|51:215|60:266,1,80,2|0,1:2|0:2,0:2:0:0:
289,126,164656,2,0,P|213:135|166:74,1,160,10|0,0:2|1:2,0:2:0:0:
166,74,165093,1,0,1:2:0:0:
295,232,165238,2,0,L|377:210,1,80,2|8,0:2|0:2,0:2:0:0:
511,46,165530,6,0,L|434:24,1,80,2|0,0:2|1:2,0:2:0:0:
356,92,165821,1,10,0:2:0:0:
474,222,165967,1,8,0:2:0:0:
474,222,166039,1,8,0:2:0:0:
474,222,166112,1,8,0:2:0:0:
512,126,166258,5,8,0:2:0:0:
454,308,166403,1,8,0:2:0:0:
512,126,166549,1,8,0:2:0:0:
372,211,166695,6,0,B|284:214|318:259|228:272,1,160,6|8,1:2|0:2,0:2:0:0:
228,272,167135,1,0,3:2:0:0:
276,115,167282,1,2,1:2:0:0:
193,90,167429,2,0,P|185:50|176:11,1,80,0|0,1:2|0:2,0:2:0:0:
351,61,167723,5,8,0:2:0:0:
163,186,167870,2,0,P|124:175|84:168,1,80,2|0,0:2|1:2,0:2:0:0:
73,324,168161,1,8,0:2:0:0:
73,324,168451,2,0,P|111:334|151:341,1,80,2|0,1:2|1:2,0:2:0:0:
389,266,168742,2,0,P|347:225|290:237,1,120,10|0,0:2|0:2,0:2:0:0:
290,237,169032,2,0,P|289:274|280:316,1,80,2|0,1:2|0:2,0:2:0:0:
512,175,169323,2,0,P|436:161|413:89,1,160,10|0,0:2|1:2,0:2:0:0:
413,89,169759,1,0,1:2:0:0:
230,37,169904,2,0,P|270:29|313:15,1,80,2|8,0:2|0:2,0:2:0:0:
290,237,170195,6,0,P|251:224|212:215,1,80,2|0,0:2|1:2,0:2:0:0:
85,86,170486,1,8,0:2:0:0:
85,86,170776,1,0,1:2:0:0:
5,162,170922,1,0,1:2:0:0:
136,291,171067,1,8,0:2:0:0:
136,291,171358,6,0,B|51:303|80:356|2:371,2,160,14|0|0,1:2|1:2|1:2,0:2:0:0:
212,309,172086,1,2,0:2:0:0:
118,171,172231,2,0,P|127:129|135:86,1,80,2|0,1:2|1:2,0:2:0:0:
312,20,172523,1,8,0:2:0:0:
347,103,172668,1,8,0:2:0:0:
266,172,172814,1,8,0:2:0:0:
207,9,172959,1,8,0:2:0:0:
266,172,173105,1,8,0:2:0:0:
413,35,173255,1,8,0:2:0:0:
133,92,173405,2,0,P|94:80|55:73,1,80,10|8,0:2|0:2,0:2:0:0:
315,302,173705,5,14,0:2:0:0:
355,164,173847,1,0,1:2:0:0:
315,302,173989,1,0,1:2:0:0:
193,198,174131,5,14,0:2:0:0:
396,245,174276,1,0,1:2:0:0:
193,198,174422,1,0,1:2:0:0:
256,64,174567,5,14,0:2:0:0:
190,315,174714,1,0,1:2:0:0:
256,64,174862,1,0,1:2:0:0:
84,219,175010,5,14,0:2:0:0:
368,358,175154,2,0,P|406:347|464:337,1,80,10|0,0:2|1:2,0:2:0:0:
364,83,175442,1,10,0:2:0:0:
280,169,175586,1,8,0:2:0:0:
280,169,175659,1,8,0:2:0:0:
279,169,175731,2,8,P|283:188|287:208,1,40,8|8,0:2|0:2,0:2:0:0:
482,165,175875,2,8,P|478:145|474:125,1,40,8|8,0:2|0:2,0:2:0:0:
395,259,176019,6,0,B|330:269|344:301|281:321,1,132.00000402832,4|0,1:1|0:2,0:2:0:0:
201,375,176310,2,0,P|191:326|174:283,1,88.000002685547,10|0,0:2|0:2,0:2:0:0:
238,55,176601,1,2,1:2:0:0:
385,169,176747,1,2,1:2:0:0:
238,55,176892,5,10,0:2:0:0:
133,131,177038,2,0,P|48:127|6:53,1,176.000005371094,2|0,1:2|1:2,0:2:0:0:
109,28,177475,1,8,0:2:0:0:
170,243,177620,1,2,0:2:0:0:
257,133,177766,1,2,1:2:0:0:
44,199,177912,1,0,1:2:0:0:
257,133,178057,2,0,P|302:148|349:157,1,88.000002685547,10|0,0:2|0:2,0:2:0:0:
436,354,178349,6,0,P|401:300|338:298,1,132.00000402832,2|0,1:2|0:2,0:2:0:0:
338,298,178640,2,0,P|330:333|321:388,1,88.000002685547,10|0,0:2|0:2,0:2:0:0:
512,257,178931,1,2,1:2:0:0:
341,156,179077,1,2,1:2:0:0:
493,18,179222,1,10,0:2:0:0:
512,131,179368,2,0,B|409:104|453:72|358:50,1,176.000005371094,2|0,1:2|1:2,0:2:0:0:
228,194,179805,1,8,0:2:0:0:
320,264,179951,2,0,P|362:250|405:242,1,88.000002685547,2|0,3:2|1:2,0:2:0:0:
225,68,180242,5,2,1:2:0:0:
100,200,180387,1,10,0:2:0:0:
224,328,180533,1,2,0:2:0:0:
224,328,180679,1,0,1:2:0:0:
228,194,180824,5,2,1:2:0:0:
83,303,180970,1,10,0:2:0:0:
0,151,181116,1,2,0:2:0:0:
0,151,181261,1,0,1:2:0:0:
156,145,181407,5,2,1:2:0:0:
285,44,181552,1,10,0:2:0:0:
401,163,181698,2,0,P|390:205|383:249,1,88.000002685547,2|0,1:2|0:2,0:2:0:0:
268,384,181989,5,2,1:2:0:0:
193,285,182135,1,10,0:2:0:0:
285,180,182281,1,2,0:2:0:0:
135,66,182426,2,0,P|90:77|45:82,1,88.000002685547,2|0,1:2|1:2,0:2:0:0:
75,222,182718,2,0,P|119:210|165:206,1,88.000002685547,10|0,0:2|0:2,0:2:0:0:
324,17,183009,5,6,1:2:0:0:
246,87,183154,1,2,0:2:0:0:
383,162,183300,1,10,0:2:0:0:
246,87,183446,1,2,0:2:0:0:
161,206,183591,1,2,1:2:0:0:
299,323,183737,2,0,P|303:279|314:236,1,88.000002685547,2|8,1:2|0:2,0:2:0:0:
21,17,184028,6,0,P|50:95|134:106,1,176.000005371094,6|0,1:2|1:2,0:2:0:0:
14,302,184465,1,10,0:2:0:0:
221,247,184611,2,0,P|122:225|48:204,1,176.000005371094,4|0,1:2|1:2,0:2:0:0:
194,335,185048,2,8,L|249:346,1,44.0000013427735,10|8,0:2|0:2,0:2:0:0:
283,177,185193,2,8,L|228:163,1,44.0000013427735,10|8,0:2|0:2,0:2:0:0:
152,119,185339,6,0,B|158:56|205:64|200:-1,1,132.00000402832,6|0,1:2|0:2,0:2:0:0:
200,0,185630,1,14,0:2:0:0:
349,119,185776,2,0,P|393:131|434:140,1,88.000002685547,2|0,0:2|1:2,0:2:0:0:
477,71,186067,1,0,1:2:0:0:
250,292,186213,5,10,0:2:0:0:
180,225,186358,2,0,B|86:235|115:274|21:295,1,176.000005371094,2|0,1:2|1:2,0:2:0:0:
8,99,186795,2,0,P|47:111|100:123,1,88.000002685547,8|0,0:2|0:2,0:2:0:0:
145,349,187086,1,2,1:2:0:0:
21,294,187232,1,2,1:2:0:0:
187,139,187378,1,10,0:2:0:0:
283,229,187523,1,2,0:2:0:0:
444,46,187669,6,0,P|362:32|313:99,1,176.000005371094,2|10,1:2|0:2,0:2:0:0:
458,279,188106,2,0,P|464:235|479:190,1,88.000002685547,2|0,0:2|1:2,0:2:0:0:
414,128,188397,1,0,1:2:0:0:
263,349,188543,1,10,0:2:0:0:
212,259,188688,2,0,P|296:253|349:319,1,176.000005371094,2|0,1:2|1:2,0:2:0:0:
122,359,189125,2,0,P|113:316|99:274,1,88.000002685547,8|0,0:2|0:2,0:2:0:0:
308,121,189417,5,2,1:2:0:0:
212,259,189562,1,0,1:2:0:0:
308,121,189708,2,0,P|351:136|406:148,1,88.000002685547,10|0,0:2|0:2,0:2:0:0:
244,351,189999,5,6,1:2:0:0:
112,172,190145,1,2,1:2:0:0:
199,134,190290,2,0,P|214:89|223:49,1,88.000002685547,8|0,0:2|0:2,0:2:0:0:
24,0,190582,2,0,P|9:45|0:84,1,88.000002685547,0|0,1:2|1:2,0:2:0:0:
87,287,190873,1,8,0:2:0:0:
235,219,191019,1,2,1:2:0:0:
90,91,191164,5,2,0:2:0:0:
182,297,191310,1,2,1:2:0:0:
90,91,191455,1,10,0:2:0:0:
260,126,191601,2,0,P|302:113|342:96,1,88.000002685547,2|0,0:2|1:2,0:2:0:0:
379,14,191892,1,0,1:2:0:0:
488,262,192038,2,0,P|454:207|390:201,1,132.00000402832,10|0,0:2|0:2,0:2:0:0:
390,201,192329,1,2,1:2:0:0:
268,352,192475,2,0,P|261:308|247:258,1,88.000002685547,2|8,1:2|0:2,0:2:0:0:
386,305,192766,5,2,1:2:0:0:
174,376,192912,1,8,0:2:0:0:
386,305,193057,1,2,1:2:0:0:
235,159,193203,1,8,0:2:0:0:
137,223,193349,6,0,P|53:236|0:172,1,176.000005371094,6|0,1:2|1:2,0:2:0:0:
130,0,193785,2,0,P|136:41|151:95,1,88.000002685547,8|0,0:2|0:2,0:2:0:0:
331,204,194077,1,8,1:2:0:0:
367,226,194150,1,8,0:2:0:0:
409,223,194222,1,8,0:2:0:0:
441,203,194295,1,8,0:2:0:0:
457,162,194368,2,8,P|451:136|442:102,1,44.0000013427735,8|8,1:2|0:2,0:2:0:0:
300,286,194514,2,8,P|306:312|315:346,1,44.0000013427735,8|8,0:2|0:2,0:2:0:0:
457,283,194659,5,6,1:2:0:0:
236,137,194805,2,0,P|279:129|325:112,1,88.000002685547,2|8,0:2|0:2,0:2:0:0:
136,345,195096,2,0,P|179:352|221:368,1,88.000002685547,2|8,0:2|0:2,0:2:0:0:
76,62,195387,2,0,P|119:55|161:40,1,88.000002685547,2|8,1:2|0:2,0:2:0:0:
57,275,195679,1,0,1:2:0:0:
0,150,195824,5,8,0:2:0:0:
257,227,195970,1,2,1:2:0:0:
136,345,196116,1,8,0:2:0:0:
138,146,196261,2,0,P|151:183|159:230,1,88.000002685547,2|8,0:2|0:2,0:2:0:0:
431,139,196552,2,0,P|417:176|409:223,1,88.000002685547,2|8,1:2|0:2,0:2:0:0:
228,31,196844,1,0,1:2:0:0:
363,22,196989,5,8,0:2:0:0:
259,179,197135,1,2,1:2:0:0:
122,43,197281,1,8,0:2:0:0:
53,169,197426,2,0,P|96:162|137:145,1,88.000002685547,2|8,0:2|0:2,0:2:0:0:
217,384,197718,1,2,0:2:0:0:
314,312,197863,2,0,P|272:296|229:288,1,88.000002685547,8|0,0:2|0:2,0:2:0:0:
87,352,198154,5,8,0:2:0:0:
250,162,198300,1,0,1:2:0:0:
250,162,198373,1,0,1:2:0:0:
250,162,198446,1,8,0:2:0:0:
74,69,198591,1,0,1:2:0:0:
74,69,198664,1,0,1:2:0:0:
74,69,198737,2,0,P|84:105|99:167,1,88.000002685547,8|0,0:2|1:2,0:2:0:0:
80,182,198955,1,0,1:2:0:0:
80,182,199028,1,8,0:2:0:0:
219,54,199174,1,0,1:2:0:0:
219,54,199247,1,0,1:2:0:0:
219,54,199319,5,12,0:2:0:0:
288,248,199465,1,2,0:2:0:0:
178,271,199611,1,8,0:2:0:0:
347,104,199756,2,0,P|389:118|431:126,1,88.000002685547,2|8,0:2|0:2,0:2:0:0:
358,381,200048,2,0,P|399:367|446:362,1,88.000002685547,2|8,1:2|0:2,0:2:0:0:
263,161,200339,1,0,1:2:0:0:
212,368,200485,5,8,0:2:0:0:
108,155,200630,1,2,1:2:0:0:
302,265,200776,1,8,0:2:0:0:
77,368,200921,2,0,P|68:321|55:276,1,88.000002685547,2|8,1:2|0:2,0:2:0:0:
433,275,201213,2,0,P|422:317|413:361,1,88.000002685547,4|8,0:3|0:2,0:2:0:0:
259,87,201504,5,8,0:3:0:0:
260,81,201577,1,8,0:3:0:0:
261,75,201650,2,0,B|293:110|293:110|330:78,1,96,6|0,1:2|0:2,0:2:0:0:
300,4,201941,6,0,B|225:16|256:69|175:89,1,155.999992858887,14|0,0:2|0:2,0:2:0:0:
100,112,202232,1,2,1:2:0:0:
97,104,202305,1,2,3:2:0:0:
94,95,202378,1,2,1:2:0:0:
312,210,202523,1,2,0:2:0:0:
210,335,202669,1,10,0:2:0:0:
122,254,202815,5,2,0:2:0:0:
213,170,202960,1,0,1:2:0:0:
415,319,203106,1,10,0:2:0:0:
493,241,203252,2,0,P|501:196|515:147,1,88.000002685547,2|0,0:2|1:2,0:2:0:0:
211,258,203543,5,0,1:2:0:0:
330,354,203688,1,10,0:2:0:0:
211,258,203834,1,2,0:2:0:0:
310,147,203980,5,0,1:2:0:0:
353,62,204125,1,2,1:2:0:0:
122,13,204271,5,8,0:2:0:0:
166,140,204417,1,2,0:2:0:0:
396,159,204562,5,0,1:2:0:0:
246,59,204708,1,2,1:2:0:0:
295,259,204853,5,8,0:2:0:0:
444,78,204999,1,10,0:2:0:0:
144,224,205145,5,2,0:2:0:0:
42,167,205290,1,0,1:2:0:0:
118,50,205436,1,10,0:2:0:0:
236,196,205582,1,2,0:2:0:0:
55,340,205727,2,0,P|45:297|31:255,1,88.000002685547,2|0,1:2|1:2,0:2:0:0:
340,130,206019,2,0,P|326:192|316:267,1,132.00000402832,8|0,0:2|0:2,0:2:0:0:
316,259,206310,5,2,1:2:0:0:
410,379,206455,1,0,1:2:0:0:
488,310,206601,1,8,0:2:0:0:
289,372,206747,1,2,0:2:0:0:
488,310,206892,1,0,1:2:0:0:
370,201,207038,1,0,1:2:0:0:
488,143,207184,2,0,P|497:100|511:58,1,88.000002685547,8|8,0:2|0:2,0:2:0:0:
268,19,207475,5,2,0:2:0:0:
195,84,207620,1,0,1:2:0:0:
273,191,207766,1,8,0:2:0:0:
144,267,207912,1,2,0:2:0:0:
273,191,208057,1,0,1:2:0:0:
354,323,208203,1,0,1:2:0:0:
147,384,208349,2,0,P|109:373|47:358,1,88.000002685547,8|0,0:2|0:2,0:2:0:0:
372,118,208640,6,0,P|407:194|491:203,1,176.000005371094,6|8,1:2|0:2,0:2:0:0:
472,109,209077,1,2,1:2:0:0:
346,284,209222,1,8,0:2:0:0:
231,168,209368,1,2,1:2:0:0:
346,284,209514,1,8,0:2:0:0:
254,81,209659,6,0,P|211:153|128:150,1,176.000005371094,6|0,1:2|1:2,0:2:0:0:
65,355,210096,1,10,0:2:0:0:
0,237,210242,1,2,0:2:0:0:
254,265,210387,1,8,0:2:0:0:
190,379,210533,1,8,0:2:0:0:
190,379,210606,1,8,0:2:0:0:
190,379,210679,1,8,0:2:0:0:
190,379,210752,1,8,0:2:0:0:
190,379,210824,1,8,0:2:0:0:
190,379,210897,1,8,0:2:0:0:
190,379,210970,6,0,B|194:327|159:290|150:321|108:279|118:229,1,176.000005371094,6|8,1:2|0:2,0:2:0:0:
292,103,211407,2,0,P|281:145|274:189,1,88.000002685547,2|0,0:2|1:2,0:2:0:0:
41,15,211698,1,2,1:2:0:0:
41,15,211989,6,0,P|90:82|173:68,1,176.000005371094,10|0,0:2|1:2,0:2:0:0:
436,114,212426,1,10,0:2:0:0:
344,1,212572,1,2,0:2:0:0:
274,188,212718,2,0,L|189:210,1,88.000002685547,2|0,1:2|1:2,0:2:0:0:
97,170,213009,1,8,0:2:0:0:
269,66,213154,5,2,0:2:0:0:
356,227,213300,1,2,1:2:0:0:
269,66,213446,1,2,0:2:0:0:
467,194,213591,1,8,0:2:0:0:
279,284,213737,1,2,0:2:0:0:
359,129,213883,1,0,1:2:0:0:
461,266,214028,1,2,1:2:0:0:
365,357,214174,1,2,0:2:0:0:
164,233,214319,1,8,0:2:0:0:
170,340,214465,5,2,1:2:0:0:
356,227,214611,1,2,1:2:0:0:
171,131,214756,1,10,0:2:0:0:
56,278,214902,2,0,P|45:235|38:191,1,88.000002685547,2|0,0:2|1:2,0:2:0:0:
236,53,215193,1,2,1:2:0:0:
236,53,215339,1,10,0:2:0:0:
258,184,215485,5,2,0:2:0:0:
100,67,215630,2,0,P|61:83|14:90,1,88.000002685547,4|2,1:2|0:2,0:2:0:0:
254,279,215921,2,0,P|304:214|391:227,1,176.000005371094,8|0,0:2|1:2,0:2:0:0:
349,317,216358,1,0,1:2:0:0:
349,317,216504,1,2,0:2:0:0:
176,174,216650,1,10,0:2:0:0:
155,324,216795,5,2,0:2:0:0:
267,127,216941,2,0,P|261:82|245:35,1,88.000002685547,2|8,1:2|0:2,0:2:0:0:
171,24,217232,1,2,0:2:0:0:
383,141,217378,1,2,1:2:0:0:
439,50,217523,1,2,1:2:0:0:
268,128,217669,1,10,0:2:0:0:
442,299,217815,1,2,0:2:0:0:
512,225,217960,1,2,1:2:0:0:
512,225,218252,6,0,B|413:229|445:286|357:296,1,176.000005371094,10|0,0:2|1:2,0:2:0:0:
278,267,218688,1,0,1:2:0:0:
431,112,218834,5,10,0:2:0:0:
187,1,218980,2,0,P|206:88|224:174,1,176.000005371094,4|0,1:2|1:2,0:2:0:0:
24,200,219417,5,8,0:2:0:0:
87,384,219562,2,0,P|159:342|157:259,1,176.000005371094,4|0,1:2|1:2,0:2:0:0:
123,87,219999,5,8,0:2:0:0:
123,87,220072,1,8,0:2:0:0:
123,87,220145,1,8,0:2:0:0:
123,87,220218,1,8,0:2:0:0:
123,87,220290,2,0,B|100:132|100:132|62:101,1,96,6|0,1:2|0:2,0:2:0:0:
66,15,220582,6,0,B|135:23|123:72|203:83,1,155.999992858887,14|0,0:2|0:2,0:2:0:0:
202,83,220873,1,2,1:2:0:0:
62,224,221019,1,0,1:2:0:0:
192,334,221164,2,0,P|232:318|280:307,1,88.000002685547,2|8,0:2|0:2,0:2:0:0:
429,73,221455,5,2,0:2:0:0:
319,170,221601,1,0,1:2:0:0:
490,266,221747,2,0,P|497:219|515:168,1,88.000002685547,10|0,0:2|0:2,0:2:0:0:
235,233,222038,5,2,1:2:0:0:
366,379,222184,1,0,1:2:0:0:
235,233,222329,2,0,B|158:243|192:281|126:299,1,132.00000402832,10|0,0:2|0:2,0:2:0:0:
45,346,222620,6,0,P|37:302|24:260,1,88.000002685547,2|0,1:2|0:2,0:2:0:0:
209,83,222912,1,10,0:2:0:0:
92,24,223057,2,0,P|104:66|110:109,1,88.000002685547,2|0,0:2|1:2,0:2:0:0:
355,30,223349,2,0,P|343:72|337:115,1,88.000002685547,2|0,1:2|0:2,0:2:0:0:
228,307,223640,5,10,0:2:0:0:
141,227,223785,2,0,P|182:217|232:202,1,88.000002685547,2|0,0:2|1:2,0:2:0:0:
481,170,224077,1,10,0:2:0:0:
404,271,224222,1,2,0:2:0:0:
226,113,224368,1,2,1:2:0:0:
404,271,224514,1,0,1:2:0:0:
365,43,224659,2,0,B|315:68|315:68|339:120,1,107.999996704102,14|0,0:2|0:2,0:2:0:0:
427,108,224951,6,0,B|336:124|375:171|281:199,1,176.000005371094,6|8,1:2|0:2,0:2:0:0:
198,201,225387,1,0,3:2:0:0:
148,368,225533,1,0,1:2:0:0:
62,332,225679,1,0,1:2:0:0:
121,254,225824,1,2,0:2:0:0:
287,381,225970,1,8,0:2:0:0:
361,321,226116,2,0,P|369:276|380:231,1,88.000002685547,2|0,0:2|1:2,0:2:0:0:
262,63,226407,1,8,0:2:0:0:
184,170,226552,1,8,0:2:0:0:
184,170,226625,1,8,0:2:0:0:
184,170,226698,1,8,0:2:0:0:
322,175,226844,5,8,0:2:0:0:
131,63,226989,1,8,0:2:0:0:
322,175,227135,1,8,0:2:0:0:
58,377,227281,6,0,P|12:306|50:226,1,176.000005371094,4|8,1:1|0:2,0:2:0:0:
101,152,227718,1,0,1:2:0:0:
253,371,227863,1,10,0:2:0:0:
134,317,228009,1,0,1:2:0:0:
322,175,228154,1,8,0:2:0:0:
452,316,228300,1,6,1:2:0:0:
452,316,228591,6,0,P|464:273|470:230,1,88.000002685547,6|8,1:2|0:2,0:2:0:0:
192,109,228883,1,8,0:2:0:0:
192,109,228955,1,8,0:2:0:0:
192,109,229028,1,8,0:2:0:0:
323,338,229174,1,8,0:2:0:0:
402,136,229319,1,8,0:2:0:0:
193,245,229465,1,8,0:2:0:0:
452,316,229611,6,0,P|409:242|325:234,1,176.000005371094,4|8,1:1|0:2,0:2:0:0:
105,137,230048,2,0,L|117:189,1,44.0000013427735,4|0,1:1|0:2,0:2:0:0:
105,137,230339,1,0,3:2:0:0:
31,318,230485,5,6,1:2:0:0:
256,192,230630,12,0,234271,0:2:0:0:
226,9,254368,6,0,B|167:23|167:23|131:68|180:114,1,155.999992858887,6|0,1:2|0:2,0:2:0:0:
34,177,254659,2,0,B|108:168|104:221|186:216,1,155.999992858887,6|0,1:2|0:2,0:2:0:0:
260,346,254951,2,0,P|273:269|291:193,1,155.999992858887,6|0,1:2|0:2,0:2:0:0:
290,193,255249,5,4,1:1:0:0:
162,318,255394,1,2,0:2:0:0:
393,281,255540,2,0,P|438:290|493:301,1,88.000002685547,10|0,0:2|0:2,0:2:0:0:
271,97,255832,1,2,1:2:0:0:
486,26,255978,1,0,1:2:0:0:
435,161,256124,5,10,0:2:0:0:
335,48,256270,2,0,B|235:55|263:114|179:119,1,176.000005371094,2|0,1:2|1:2,0:2:0:0:
64,236,256708,1,8,0:2:0:0:
0,159,256854,2,0,P|14:114|29:68,1,88.000002685547,2|0,3:2|1:2,0:2:0:0:
269,305,257146,5,2,1:2:0:0:
78,332,257292,1,10,0:2:0:0:
101,160,257438,1,2,0:2:0:0:
101,160,257584,1,4,1:2:0:0:
202,359,257729,5,2,1:2:0:0:
343,234,257875,1,10,0:2:0:0:
229,75,258020,1,2,0:2:0:0:
229,75,258166,1,0,1:2:0:0:
234,228,258312,5,2,1:2:0:0:
392,113,258457,1,10,0:2:0:0:
505,251,258603,2,0,P|493:283|481:338,1,88.000002685547,2|0,1:2|0:2,0:2:0:0:
244,383,258894,5,2,1:2:0:0:
151,259,259040,1,10,0:2:0:0:
268,141,259185,1,2,0:2:0:0:
139,42,259331,2,0,B|97:54|97:54|92:53|92:53|50:65,1,88.000002685547,2|0,1:2|1:2,0:2:0:0:
349,208,259622,2,0,B|391:196|391:196|395:196|395:196|438:185,1,88.000002685547,10|0,0:2|0:2,0:2:0:0:
289,20,259914,5,2,1:2:0:0:
289,20,260058,1,0,1:2:0:0:
174,192,260203,1,10,0:2:0:0:
97,146,260347,1,2,0:2:0:0:
254,107,260492,1,2,1:2:0:0:
182,304,260636,1,0,1:2:0:0:
254,107,260781,1,10,0:2:0:0:
372,236,260926,6,0,P|456:245|511:181,1,176.000005371094,6|0,1:2|1:2,0:2:0:0:
334,380,261359,1,8,0:2:0:0:
170,212,261504,2,0,P|77:239|-10:263,1,176.000005371094,4|2,1:2|1:2,0:2:0:0:
123,319,261938,2,8,P|144:313|166:308,1,44.0000013427735,10|8,0:2|0:2,0:2:0:0:
113,148,262086,2,8,P|92:154|71:160,1,44.0000013427735,10|8,0:2|0:2,0:2:0:0:
258,206,262235,6,0,B|323:210|315:244|381:248,1,132.00000402832,6|0,1:2|0:2,0:2:0:0:
380,248,262545,1,12,0:2:0:0:
240,102,262686,2,0,P|254:60|261:17,1,88.000002685547,2|0,0:2|1:2,0:2:0:0:
180,1,262969,1,0,1:2:0:0:
467,154,263111,5,10,0:2:0:0:
505,62,263252,2,0,P|420:65|379:138,1,176.000005371094,2|0,1:2|1:2,0:2:0:0:
397,370,263697,1,8,0:2:0:0:
494,295,263846,1,0,3:2:0:0:
300,226,263994,2,0,P|259:235|201:245,1,88.000002685547,2|0,1:2|1:2,0:2:0:0:
91,67,264279,1,10,0:2:0:0:
207,129,264422,1,2,0:2:0:0:
67,333,264565,5,6,1:2:0:0:
207,129,264710,1,2,1:2:0:0:
27,193,264856,1,10,0:2:0:0:
205,338,265001,1,2,0:2:0:0:
378,87,265147,2,0,L|360:-3,1,88.000002685547,6|0,1:2|1:2,0:2:0:0:
73,39,265438,2,0,L|91:129,1,88.000002685547,10|0,0:2|0:2,0:2:0:0:
347,375,265730,5,6,1:2:0:0:
398,290,265875,1,0,1:2:0:0:
352,195,266022,1,8,0:2:0:0:
246,175,266166,1,8,0:3:0:0:
132,313,266312,5,10,1:2:0:0:
216,375,266458,1,8,0:2:0:0:
216,375,266531,1,8,0:2:0:0:
216,375,266603,2,8,L|236:311,1,44.0000013427735,8|8,0:2|0:2,0:2:0:0:
47,260,266749,1,8,0:2:0:0:
39,284,266822,1,8,0:2:0:0:
33,309,266895,5,6,1:2:0:0:
154,195,267040,1,2,0:2:0:0:
103,125,267186,2,0,P|59:116|17:103,1,88.000002685547,12|0,0:2|0:2,0:2:0:0:
232,0,267477,1,0,1:2:0:0:
286,155,267623,1,0,1:2:0:0:
198,98,267768,1,8,0:2:0:0:
399,24,267914,1,2,1:2:0:0:
395,234,268060,5,2,0:2:0:0:
505,179,268205,2,0,P|512:130|524:87,1,88.000002685547,2|8,1:2|0:2,0:2:0:0:
388,133,268496,1,2,0:2:0:0:
505,286,268642,1,2,1:2:0:0:
388,133,268788,1,2,1:2:0:0:
307,293,268933,2,0,B|234:293|255:339|186:338,1,132.00000402832,10|0,0:2|0:2,0:2:0:0:
106,226,269225,6,0,P|147:239|191:247,1,88.000002685547,6|0,1:2|1:2,0:2:0:0:
86,370,269516,1,8,0:2:0:0:
2,206,269661,1,0,1:2:0:0:
109,126,269807,1,8,0:2:0:0:
307,293,269953,1,0,1:2:0:0:
411,178,270098,1,8,0:2:0:0:
316,0,270244,6,0,P|241:35|238:119,1,176.000005371094,4|0,1:2|1:2,0:2:0:0:
512,266,270681,1,10,0:2:0:0:
419,84,270827,1,2,0:2:0:0:
278,247,270972,1,8,1:2:0:0:
302,289,271045,1,8,0:2:0:0:
343,311,271118,1,8,0:2:0:0:
386,300,271191,1,8,0:2:0:0:
418,270,271263,2,8,P|424:248|430:227,1,44.0000013427735,8|8,1:2|0:2,0:2:0:0:
247,352,271409,5,8,0:2:0:0:
247,352,271482,1,8,0:2:0:0:
247,352,271555,2,0,P|204:340|158:331,1,88.000002685547,6|2,1:2|0:2,0:2:0:0:
31,89,271846,1,8,0:2:0:0:
141,52,271992,2,0,P|136:93|122:146,1,88.000002685547,2|8,0:2|0:2,0:2:0:0:
441,39,272283,2,0,P|446:80|460:133,1,88.000002685547,2|8,1:2|0:2,0:2:0:0:
235,41,272574,5,0,1:2:0:0:
304,198,272720,1,8,0:2:0:0:
357,74,272865,1,2,0:2:0:0:
171,212,273011,1,8,0:2:0:0:
248,303,273157,2,0,P|289:310|337:323,1,88.000002685547,2|8,0:2|0:2,0:2:0:0:
108,91,273448,2,0,P|149:83|197:71,1,88.000002685547,2|8,1:2|0:2,0:2:0:0:
49,296,273739,5,0,1:2:0:0:
5,144,273885,1,8,0:2:0:0:
289,194,274030,1,2,0:2:0:0:
190,358,274176,1,8,0:2:0:0:
126,246,274322,2,0,P|138:203|147:160,1,88.000002685547,2|8,0:2|0:2,0:2:0:0:
459,224,274613,2,0,P|446:181|437:138,1,88.000002685547,2|8,1:2|0:2,0:2:0:0:
288,276,274904,1,0,1:2:0:0:
432,371,275050,5,8,0:2:0:0:
328,157,275195,1,0,1:2:0:0:
328,157,275268,1,0,1:2:0:0:
328,157,275341,1,8,0:2:0:0:
206,296,275487,1,0,1:2:0:0:
206,296,275560,1,0,1:2:0:0:
206,296,275632,1,8,0:2:0:0:
386,301,275778,1,0,1:2:0:0:
386,301,275851,1,0,1:2:0:0:
386,301,275924,1,8,0:2:0:0:
218,143,276069,5,0,1:2:0:0:
218,143,276142,1,0,1:2:0:0:
218,143,276215,1,8,0:2:0:0:
106,309,276361,1,2,0:2:0:0:
7,109,276506,1,8,0:2:0:0:
119,196,276652,2,0,P|75:202|33:216,1,88.000002685547,2|8,0:2|0:2,0:2:0:0:
255,20,276943,2,0,P|211:13|169:0,1,88.000002685547,2|8,1:2|0:2,0:2:0:0:
263,234,277234,5,0,1:2:0:0:
402,63,277380,1,8,0:2:0:0:
477,280,277526,1,2,0:2:0:0:
375,171,277671,1,8,0:2:0:0:
487,134,277817,2,0,P|493:90|505:48,1,88.000002685547,2|8,0:2|0:2,0:2:0:0:
253,318,278108,1,2,1:2:0:0:
177,249,278254,2,0,P|170:205|158:163,1,88.000002685547,8|0,0:2|1:2,0:2:0:0:
391,261,278545,5,12,0:2:0:0:
168,357,278691,1,2,0:2:0:0:
391,261,278836,1,8,0:2:0:0:
188,67,278982,2,0,P|231:87|274:95,1,88.000002685547,2|8,0:2|0:2,0:2:0:0:
2,301,279273,2,0,P|45:280|88:272,1,88.000002685547,2|8,1:2|0:2,0:2:0:0:
89,58,279564,5,0,1:2:0:0:
89,58,279637,1,0,1:2:0:0:
89,58,279710,1,8,0:2:0:0:
9,166,279856,1,0,1:2:0:0:
9,166,279928,1,0,1:2:0:0:
9,166,280001,1,8,0:2:0:0:
206,235,280147,1,0,1:2:0:0:
206,235,280220,1,0,1:2:0:0:
206,235,280293,1,8,0:2:0:0:
291,12,280438,5,8,0:2:0:0:
269,11,280511,1,8,0:2:0:0:
249,19,280584,1,8,0:2:0:0:
236,31,280657,1,8,0:2:0:0:
227,48,280729,1,8,0:2:0:0:
223,67,280802,1,8,0:2:0:0:
228,81,280875,5,6,1:2:0:0:
422,103,281021,1,2,0:2:0:0:
380,7,281166,1,8,0:2:0:0:
181,159,281312,2,0,P|138:149|97:132,1,88.000002685547,2|8,0:2|0:2,0:2:0:0:
260,358,281603,2,0,P|217:367|176:384,1,88.000002685547,2|8,1:2|0:2,0:2:0:0:
409,193,281895,1,0,1:2:0:0:
428,346,282040,5,8,0:2:0:0:
281,182,282186,1,2,0:2:0:0:
386,96,282331,1,8,0:2:0:0:
492,270,282477,2,0,P|498:226|513:183,1,88.000002685547,2|8,0:2|0:2,0:2:0:0:
177,266,282768,2,0,P|170:222|156:177,1,88.000002685547,2|8,1:2|0:2,0:2:0:0:
343,264,283060,1,0,1:2:0:0:
117,365,283205,5,8,0:2:0:0:
343,264,283351,1,2,0:2:0:0:
233,126,283496,1,8,0:2:0:0:
403,17,283642,2,0,B|435:47|435:47|421:90,1,88.000002685547,2|8,0:2|0:2,0:2:0:0:
133,27,283933,1,2,1:2:0:0:
63,199,284079,2,0,B|31:169|31:169|45:126,1,88.000002685547,8|0,0:2|1:2,0:2:0:0:
311,195,284370,5,8,0:2:0:0:
148,308,284516,1,0,1:2:0:0:
148,308,284589,1,0,1:2:0:0:
148,308,284661,1,8,0:2:0:0:
146,140,284807,1,0,1:2:0:0:
146,140,284880,1,0,1:2:0:0:
146,140,284953,1,8,0:2:0:0:
316,282,285098,1,0,1:2:0:0:
316,282,285171,1,0,1:2:0:0:
316,282,285244,1,8,0:2:0:0:
367,138,285390,5,0,1:2:0:0:
367,138,285462,1,0,1:2:0:0:
367,138,285535,1,12,0:2:0:0:
211,258,285681,1,2,0:2:0:0:
323,366,285827,1,0,1:2:0:0:
405,273,285972,5,0,1:2:0:0:
323,366,286118,1,8,0:2:0:0:
200,162,286263,1,8,0:2:0:0:
464,194,286409,1,8,0:2:0:0:
213,361,286555,1,8,0:2:0:0:
163,36,286700,1,12,0:2:0:0:
163,36,287283,6,0,B|140:51|140:51|129:68|129:68|138:80|145:126,1,88.000002685547,2|2,0:1|0:2,0:2:0:0:
301,246,287574,2,0,B|316:227|316:227|340:221|340:221|360:180|315:140,1,117.333336914063,2|2,0:1|0:2,0:2:0:0:
249,65,287865,6,0,P|206:112|142:107,1,132.00000402832,6|0,1:2|0:2,0:2:0:0:
47,136,288157,2,0,P|57:93|62:49,1,88.000002685547,10|0,0:2|0:2,0:2:0:0:
214,222,288448,1,2,1:2:0:0:
96,331,288594,1,0,1:2:0:0:
96,331,288666,1,0,3:2:0:0:
96,331,288739,1,2,0:2:0:0:
86,235,288885,5,8,0:2:0:0:
261,349,289030,1,2,0:2:0:0:
334,282,289176,1,0,1:2:0:0:
276,150,289322,1,8,0:2:0:0:
176,309,289467,5,2,0:2:0:0:
276,150,289613,1,0,1:2:0:0:
368,152,289759,1,0,1:2:0:0:
455,304,289904,1,10,0:2:0:0:
386,359,290050,1,0,3:2:0:0:
334,282,290195,5,2,1:2:0:0:
334,282,290341,1,0,1:2:0:0:
496,209,290487,2,0,P|503:166|509:122,1,88.000002685547,10|0,0:2|0:2,0:2:0:0:
286,23,290778,1,2,1:2:0:0:
373,156,290924,1,0,1:2:0:0:
373,156,290996,1,0,3:2:0:0:
373,156,291069,1,2,0:2:0:0:
418,56,291215,5,8,0:2:0:0:
254,196,291361,1,2,0:2:0:0:
155,134,291506,1,0,1:2:0:0:
172,38,291652,1,8,0:2:0:0:
161,235,291797,5,2,0:2:0:0:
172,38,291943,1,2,1:2:0:0:
245,100,292089,1,0,1:2:0:0:
86,193,292234,2,0,P|43:181|0:175,1,88.000002685547,8|0,0:2|3:2,0:2:0:0:
308,26,292526,5,6,1:2:0:0:
308,26,292671,1,0,1:2:0:0:
425,202,292817,2,0,P|429:158|440:115,1,88.000002685547,10|0,0:2|0:2,0:2:0:0:
227,210,293108,1,2,1:2:0:0:
374,325,293254,1,0,1:2:0:0:
374,325,293327,1,0,3:2:0:0:
374,325,293399,1,2,0:2:0:0:
323,243,293545,5,8,0:2:0:0:
238,356,293691,1,2,0:2:0:0:
160,293,293836,1,0,1:2:0:0:
295,153,293982,1,8,0:2:0:0:
181,54,294128,5,2,0:2:0:0:
73,180,294273,1,0,1:2:0:0:
181,54,294419,1,0,1:2:0:0:
22,0,294564,2,0,P|32:32|46:93,1,88.000002685547,10|0,0:2|3:2,0:2:0:0:
382,244,294856,6,0,P|392:159|413:67,1,176.000005371094,6|8,1:2|0:2,0:2:0:0:
481,185,295293,1,2,1:2:0:0:
274,134,295438,1,8,0:2:0:0:
481,185,295584,1,0,1:2:0:0:
276,288,295729,1,10,0:2:0:0:
352,362,295875,6,0,P|435:366|478:294,1,176.000005371094,6|0,1:2|1:2,0:2:0:0:
205,222,296312,2,0,B|137:235|158:265|90:284,1,132.00000402832,12|0,0:2|0:2,0:2:0:0:
90,283,296603,1,4,1:3:0:0:
0,186,296749,1,8,0:2:0:0:
0,186,296822,1,8,0:2:0:0:
0,186,296895,2,8,P|6:160|15:130,1,44.0000013427735,8|8,0:2|0:2,0:2:0:0:
91,72,297040,1,8,0:2:0:0:
91,72,297113,1,8,0:2:0:0:
91,72,297186,6,0,B|152:80|130:117|204:135,1,132.00000402832,6|0,1:2|0:2,0:2:0:0:
300,137,297477,2,0,B|319:95|319:95|288:66,1,88.000002685547,14|0,0:2|0:2,0:2:0:0:
89,209,297768,1,2,1:2:0:0:
198,303,297914,1,0,1:2:0:0:
198,303,297987,1,0,3:2:0:0:
198,303,298060,1,2,0:2:0:0:
125,365,298205,5,8,0:2:0:0:
201,210,298351,1,2,0:2:0:0:
279,252,298496,1,0,1:2:0:0:
401,210,298642,1,8,0:2:0:0:
476,334,298788,5,2,0:2:0:0:
401,210,298933,1,0,1:2:0:0:
467,156,299079,1,0,1:2:0:0:
365,46,299225,1,10,0:2:0:0:
281,73,299370,1,0,3:2:0:0:
297,160,299516,5,2,1:2:0:0:
297,160,299661,1,0,1:2:0:0:
127,26,299807,2,0,P|170:20|211:4,1,88.000002685547,10|0,0:2|0:2,0:2:0:0:
193,217,300098,1,2,1:2:0:0:
78,156,300244,1,0,1:2:0:0:
78,156,300317,1,0,3:2:0:0:
78,156,300390,1,2,0:2:0:0:
168,120,300535,5,8,0:2:0:0:
60,249,300681,1,2,0:2:0:0:
90,334,300827,1,0,1:2:0:0:
214,369,300972,1,8,0:2:0:0:
288,224,301118,1,2,0:2:0:0:
214,369,301263,1,2,1:2:0:0:
174,275,301409,1,0,1:2:0:0:
326,355,301555,2,0,P|367:339|410:330,1,88.000002685547,8|0,0:2|3:2,0:2:0:0:
217,141,301846,5,6,1:2:0:0:
217,141,301992,1,0,1:2:0:0:
422,63,302137,2,0,P|379:53|338:37,1,88.000002685547,10|0,0:2|0:2,0:2:0:0:
364,244,302428,1,2,1:2:0:0:
498,158,302574,1,0,1:2:0:0:
498,158,302647,1,0,3:2:0:0:
498,158,302720,1,2,0:2:0:0:
392,152,302865,5,8,0:2:0:0:
486,302,303011,1,2,0:2:0:0:
404,368,303157,1,0,1:2:0:0:
303,330,303302,1,8,0:2:0:0:
276,149,303448,5,2,0:2:0:0:
183,290,303594,1,0,1:2:0:0:
46,202,303739,1,0,1:2:0:0:
105,124,303885,1,10,0:2:0:0:
182,170,304030,1,0,3:2:0:0:
43,381,304176,6,0,P|32:338|16:297,1,88.000002685547,6|0,1:2|1:2,0:2:0:0:
276,149,304470,1,8,0:2:0:0:
250,261,304617,1,2,1:2:0:0:
395,127,304764,1,8,0:2:0:0:
209,86,304911,1,2,1:2:0:0:
304,349,305058,1,10,0:2:0:0:
453,264,305205,1,4,1:1:0:0:
453,264,305499,5,6,1:2:0:0:
335,200,305646,1,8,0:2:0:0:
207,339,305785,1,2,0:2:0:0:
40,211,305925,2,0,B|66:180|66:180|107:188,1,80,8|8,0:0|0:0,0:0:0:0:
148,201,306154,1,8,0:2:0:0:
149,207,306231,1,8,0:2:0:0:
151,214,306307,1,8,0:2:0:0:
152,220,306384,1,8,0:2:0:0:
116,338,306511,6,0,L|69:350,3,47.9999985351563,2|0|0|0,0:2|0:2|0:2|0:2,0:2:0:0:
193,231,307676,2,0,L|239:243,3,47.9999985351563,2|0|0|0,0:2|0:2|0:2|0:2,0:2:0:0:
380,341,308841,2,0,L|334:354,3,47.9999985351563,2|0|0|0,0:2|0:2|0:2|0:2,0:2:0:0:
438,196,310006,2,0,L|485:209,3,47.9999985351563,2|0|0|0,0:2|0:2|0:2|0:2,0:2:0:0:
508,369,311171,6,0,L|513:345,1,23.9999992675781,2|0,0:2|0:2,0:2:0:0:
441,307,311462,2,0,L|424:362,2,47.9999985351563,2|0|0,0:2|0:2|0:2,0:2:0:0:
290,245,312336,6,0,L|266:239,1,23.9999992675781,2|0,0:2|0:2,0:2:0:0:
233,311,312627,2,0,L|287:325,2,47.9999985351563,2|0|0,0:2|0:2|0:2,0:2:0:0:
13,193,313501,6,0,L|4:224,1,23.9999992675781,2|0,0:2|0:2,0:2:0:0:
74,256,313792,2,0,L|91:202,2,47.9999985351563,2|0|0,0:2|0:2|0:2,0:2:0:0:
74,256,314666,1,2,0:2:0:0:
256,192,314811,12,0,319180,0:2:0:0:
