osu file format v14

[General]
AudioFilename: audio.mp3
AudioLeadIn: 0
PreviewTime: 98040
Countdown: 0
SampleSet: Soft
StackLeniency: 0.3
Mode: 0
LetterboxInBreaks: 0
WidescreenStoryboard: 0

[Editor]
Bookmarks: 28822,50155,71488,92821,98155,119488,130155,140821,162154,183488,188821,210154,231487,252822,262155,279488,299488,319488,320821,342154
DistanceSpacing: 0.3
BeatDivisor: 6
GridSize: 32
TimelineZoom: 2.6

[Metadata]
Title:Ano Natsu ga Houwa Suru feat. KAF
TitleUnicode:あの夏が飽和する feat. 花譜
Artist:Iori Kanzaki
ArtistUnicode:カンザキイオリ
Creator:Vanya2
Version:Lost
Source:
Tags:alevi vinal2 japanese rock jrock j-rock pop jpop j-pop swing duet 不器用な男 clumsy man KAMITSUBAKI STUDIO 神椿スタジオ thinkr self cover self-cover virtual youtuber artist vtuber vsinger
BeatmapID:3618986
BeatmapSetID:1767982

[Difficulty]
HPDrainRate:5
CircleSize:4
OverallDifficulty:8.7
ApproachRate:9.2
SliderMultiplier:2
SliderTickRate:1

[Events]
//Background and Video events
0,0,"yyy (1).jpg",0,0
//Break Periods
2,252999,261545
//Storyboard Layer 0 (Background)
//Storyboard Layer 1 (Fail)
//Storyboard Layer 2 (Pass)
//Storyboard Layer 3 (Foreground)
//Storyboard Layer 4 (Overlay)
//Storyboard Sound Samples

[TimingPoints]
4818,666.666666666666,4,2,1,60,1,0
27484,631.57894736842,4,2,1,40,1,0
27484,-66.6666666666665,4,2,1,40,0,0
27725,624.999999999999,4,2,1,40,1,0
28037,576.923076923076,4,2,1,40,1,0
28133,566.037735849056,4,2,1,40,1,0
28368,631.57894736842,4,2,1,40,1,0
28822,666.666666666666,4,2,1,80,1,0
28822,-66.6666666666665,4,2,1,80,0,0
30266,-66.6666666666665,4,2,1,5,0,0
30488,-66.6666666666665,4,2,1,80,0,0
30599,-66.6666666666665,4,2,1,5,0,0
30821,-66.6666666666665,4,2,1,80,0,0
31155,-125,4,2,1,80,0,0
31488,-66.6666666666665,4,2,1,80,0,0
32932,-66.6666666666665,4,2,1,5,0,0
33155,-66.6666666666665,4,2,1,80,0,0
33266,-66.6666666666665,4,2,1,5,0,0
33488,-66.6666666666665,4,2,1,80,0,0
35599,-66.6666666666665,4,2,1,5,0,0
35821,-66.6666666666665,4,2,1,80,0,0
35932,-66.6666666666665,4,2,1,5,0,0
36155,-66.6666666666665,4,2,1,80,0,0
36488,-125,4,2,1,80,0,0
36821,-66.6666666666665,4,2,1,80,0,0
38266,-66.6666666666665,4,2,1,5,0,0
38488,-66.6666666666665,4,2,1,80,0,0
38599,-66.6666666666665,4,2,1,5,0,0
38821,-66.6666666666665,4,2,1,80,0,0
40932,-66.6666666666665,4,2,1,5,0,0
41155,-66.6666666666665,4,2,1,80,0,0
41266,-66.6666666666665,4,2,1,5,0,0
41488,-66.6666666666665,4,2,1,80,0,0
41821,-125,4,2,1,80,0,0
42155,-66.6666666666665,4,2,1,80,0,0
43599,-66.6666666666665,4,2,1,5,0,0
43821,-66.6666666666665,4,2,1,80,0,0
43932,-66.6666666666665,4,2,1,5,0,0
44155,-66.6666666666665,4,2,1,80,0,0
46266,-66.6666666666665,4,2,1,5,0,0
46488,-66.6666666666665,4,2,1,80,0,0
46599,-66.6666666666665,4,2,1,5,0,0
46821,-66.6666666666665,4,2,1,80,0,0
47155,-125,4,2,1,80,0,0
47821,-55.5555555555555,4,2,1,80,0,0
50155,-83.3333333333335,4,2,1,50,0,0
71488,-66.6666666666665,4,2,1,60,0,0
87488,-55.5555555555555,4,2,1,70,0,0
88932,-55.5555555555555,4,2,1,5,0,0
89155,-55.5555555555555,4,2,1,70,0,0
89266,-55.5555555555555,4,2,1,5,0,0
89488,-55.5555555555555,4,2,1,70,0,0
91488,-66.6666666666665,4,2,1,70,0,0
91765,-66.6666666666665,4,2,1,5,0,0
91821,-55.5555555555555,4,2,1,70,0,0
92098,-55.5555555555555,4,2,1,5,0,0
92155,-45.4545454545455,4,2,1,75,0,0
92432,-45.4545454545455,4,2,1,5,0,0
92488,-38.4615384615385,4,2,1,75,0,0
92765,-38.4615384615385,4,2,1,5,0,0
92821,-45.4545454545455,4,2,1,80,0,0
98155,666.666666666666,4,2,1,90,1,0
98155,-38.4615384615385,4,2,1,90,0,0
108821,-66.6666666666665,4,2,1,90,0,0
109488,-38.4615384615385,4,2,1,90,0,0
119488,-38.4615384615385,4,2,1,40,0,0
120826,666.666666666666,4,2,1,40,1,0
122165,666.666666666666,4,2,1,40,1,0
124817,666.666666666666,4,2,1,40,1,0
124817,-500,4,2,1,40,0,0
130155,666.666666666666,4,2,1,40,1,0
130155,-83.3333333333335,4,2,1,40,0,0
140155,-38.4615384615385,4,2,1,50,0,0
140266,-38.4615384615385,4,2,1,5,0,0
140821,-83.3333333333335,4,2,1,60,0,0
162154,-66.6666666666665,4,2,1,60,0,0
175821,-38.4615384615385,4,2,1,60,0,0
176043,-38.4615384615385,4,2,1,5,0,0
176154,-125,4,2,1,60,0,0
176821,-38.4615384615385,4,2,1,60,0,0
178154,-55.5555555555555,4,2,1,70,0,0
179599,-55.5555555555555,4,2,1,5,0,0
179821,-55.5555555555555,4,2,1,70,0,0
179932,-55.5555555555555,4,2,1,5,0,0
180154,-55.5555555555555,4,2,1,70,0,0
182154,-66.6666666666665,4,2,1,70,0,0
182431,-66.6666666666665,4,2,1,5,0,0
182488,-55.5555555555555,4,2,1,70,0,0
182765,-55.5555555555555,4,2,1,5,0,0
182821,-45.4545454545455,4,2,1,75,0,0
183098,-45.4545454545455,4,2,1,5,0,0
183154,-38.4615384615385,4,2,1,75,0,0
183431,-38.4615384615385,4,2,1,5,0,0
183488,-250,4,2,1,80,0,0
184099,-250,4,2,1,5,0,0
184154,-45.4545454545455,4,2,1,60,0,0
184431,-45.4545454545455,4,2,1,5,0,0
184488,-45.4545454545455,4,2,1,65,0,0
184765,-45.4545454545455,4,2,1,5,0,0
184821,-41.6666666666667,4,2,1,70,0,0
185098,-41.6666666666667,4,2,1,5,0,0
185154,-41.6666666666667,4,2,1,75,0,0
185431,-41.6666666666667,4,2,1,5,0,0
185488,-41.6666666666667,4,2,1,80,0,0
185765,-41.6666666666667,4,2,1,5,0,0
185821,-41.6666666666667,4,2,1,85,0,0
186154,-45.4545454545455,4,2,1,90,0,0
188821,666.666666666666,4,2,1,90,1,0
188821,-38.4615384615385,4,2,1,90,0,0
210154,-38.4615384615385,4,2,1,80,0,0
210431,-38.4615384615385,4,2,1,5,0,0
210487,-83.3333333333335,4,2,1,80,0,0
210709,-83.3333333333335,4,2,1,5,0,0
210820,-38.4615384615385,4,2,1,80,0,0
211097,-38.4615384615385,4,2,1,5,0,0
211154,-83.3333333333335,4,2,1,80,0,0
211376,-83.3333333333335,4,2,1,5,0,0
211487,-38.4615384615385,4,2,1,80,0,0
211764,-38.4615384615385,4,2,1,5,0,0
211820,-83.3333333333335,4,2,1,80,0,0
212042,-83.3333333333335,4,2,1,5,0,0
212154,-38.4615384615385,4,2,1,80,0,0
212431,-38.4615384615385,4,2,1,5,0,0
212487,-83.3333333333335,4,2,1,80,0,0
212709,-83.3333333333335,4,2,1,5,0,0
212820,-38.4615384615385,4,2,1,80,0,0
213097,-38.4615384615385,4,2,1,5,0,0
213154,-83.3333333333335,4,2,1,80,0,0
213376,-83.3333333333335,4,2,1,5,0,0
213487,-38.4615384615385,4,2,1,80,0,0
213764,-38.4615384615385,4,2,1,5,0,0
213820,-83.3333333333335,4,2,1,80,0,0
214042,-83.3333333333335,4,2,1,5,0,0
214154,-38.4615384615385,4,2,1,80,0,0
214431,-38.4615384615385,4,2,1,5,0,0
214487,-83.3333333333335,4,2,1,80,0,0
214709,-83.3333333333335,4,2,1,5,0,0
214820,-38.4615384615385,4,2,1,80,0,0
215097,-38.4615384615385,4,2,1,5,0,0
215154,-83.3333333333335,4,2,1,80,0,0
215376,-83.3333333333335,4,2,1,5,0,0
215487,-100,4,2,1,80,0,0
215764,-100,4,2,1,5,0,0
215820,-100,4,2,1,80,0,0
216097,-100,4,2,1,5,0,0
216154,-83.3333333333335,4,2,1,80,0,0
216431,-83.3333333333335,4,2,1,5,0,0
216487,-83.3333333333335,4,2,1,80,0,0
216764,-83.3333333333335,4,2,1,5,0,0
216820,-66.6666666666665,4,2,1,80,0,0
217097,-66.6666666666665,4,2,1,5,0,0
217154,-66.6666666666665,4,2,1,80,0,0
217431,-66.6666666666665,4,2,1,5,0,0
217487,-55.5555555555555,4,2,1,80,0,0
217764,-55.5555555555555,4,2,1,5,0,0
217820,-55.5555555555555,4,2,1,80,0,0
218097,-55.5555555555555,4,2,1,5,0,0
218154,-45.4545454545455,4,2,1,80,0,0
218431,-45.4545454545455,4,2,1,5,0,0
218487,-45.4545454545455,4,2,1,80,0,0
218764,-45.4545454545455,4,2,1,5,0,0
218820,-38.4615384615385,4,2,1,80,0,0
219097,-38.4615384615385,4,2,1,5,0,0
219154,-38.4615384615385,4,2,1,80,0,0
219431,-38.4615384615385,4,2,1,5,0,0
219487,-38.4615384615385,4,2,1,80,0,0
220820,-79.3650793650795,4,2,1,80,0,0
221042,-79.3650793650795,4,2,1,5,0,0
221154,-79.3650793650795,4,2,1,80,0,0
221376,-79.3650793650795,4,2,1,5,0,0
221487,-79.3650793650795,4,2,1,80,0,0
221709,-79.3650793650795,4,2,1,5,0,0
221820,-79.3650793650795,4,2,1,80,0,0
222042,-79.3650793650795,4,2,1,5,0,0
222154,-66.6666666666665,4,2,1,80,0,0
222376,-66.6666666666665,4,2,1,5,0,0
222487,-66.6666666666665,4,2,1,80,0,0
222709,-66.6666666666665,4,2,1,5,0,0
222820,-66.6666666666665,4,2,1,80,0,0
223042,-66.6666666666665,4,2,1,5,0,0
223154,-66.6666666666665,4,2,1,80,0,0
223376,-66.6666666666665,4,2,1,5,0,0
223487,-53.191489361702,4,2,1,80,0,0
223709,-53.191489361702,4,2,1,5,0,0
223820,-53.191489361702,4,2,1,80,0,0
224042,-53.191489361702,4,2,1,5,0,0
224154,-53.191489361702,4,2,1,80,0,0
224376,-53.191489361702,4,2,1,5,0,0
224487,-53.191489361702,4,2,1,80,0,0
224709,-53.191489361702,4,2,1,5,0,0
224820,-44.2477876106194,4,2,1,80,0,0
225042,-44.2477876106194,4,2,1,5,0,0
225154,-44.2477876106194,4,2,1,80,0,0
225376,-44.2477876106194,4,2,1,5,0,0
225487,-44.2477876106194,4,2,1,80,0,0
225709,-44.2477876106194,4,2,1,5,0,0
225820,-44.2477876106194,4,2,1,80,0,0
226042,-44.2477876106194,4,2,1,5,0,0
226154,-36.231884057971,4,2,1,80,0,0
226376,-36.231884057971,4,2,1,5,0,0
226487,-36.231884057971,4,2,1,80,0,0
226709,-36.231884057971,4,2,1,5,0,0
226820,-36.231884057971,4,2,1,80,0,0
227042,-36.231884057971,4,2,1,5,0,0
227154,-36.231884057971,4,2,1,80,0,0
227376,-36.231884057971,4,2,1,5,0,0
227487,-30.6748466257669,4,2,1,80,0,0
227709,-30.6748466257669,4,2,1,5,0,0
227820,-30.6748466257669,4,2,1,80,0,0
228042,-30.6748466257669,4,2,1,5,0,0
228154,-30.6748466257669,4,2,1,80,0,0
228376,-30.6748466257669,4,2,1,5,0,0
228487,-30.6748466257669,4,2,1,80,0,0
228709,-30.6748466257669,4,2,1,5,0,0
228820,-30.6748466257669,4,2,1,80,0,0
231487,-45.4545454545455,4,2,1,60,0,0
239487,-38.4615384615385,4,2,1,60,0,0
242154,-45.4545454545455,4,2,1,70,0,0
248820,-38.4615384615385,4,2,1,75,0,0
250154,-38.4615384615385,4,2,1,80,0,0
250487,-45.4545454545455,4,2,1,80,0,0
251489,666.666666666666,4,2,1,80,1,0
251727,666.666666666666,4,2,1,80,1,0
251965,666.666666666666,4,2,1,80,1,0
252184,666.666666666666,4,2,1,80,1,0
252184,-35.7142857142857,4,2,1,80,0,0
252350,-35.7142857142857,4,2,1,5,0,0
252406,666.666666666666,4,2,1,80,1,0
252406,-35.7142857142857,4,2,1,80,0,0
252572,-35.7142857142857,4,2,1,5,0,0
252628,666.666666666666,4,2,1,80,1,0
252628,-35.7142857142857,4,2,1,80,0,0
252794,-35.7142857142857,4,2,1,5,0,0
252822,666.666666666666,4,2,1,5,1,0
262155,666.666666666666,4,2,1,40,1,0
262155,-90.9090909090909,4,2,1,40,0,0
275488,-333.333333333333,4,2,1,40,0,0
278155,666.666666666666,4,2,1,90,1,0
278821,-38.4615384615385,4,2,1,90,0,0
279488,-76.9230769230769,4,2,1,90,0,0
280155,-38.4615384615385,4,2,1,90,0,0
298154,-30.6748466257669,4,2,1,90,0,0
298320,-30.6748466257669,4,2,1,5,0,0
298377,-30.6748466257669,4,2,1,90,0,0
298543,-30.6748466257669,4,2,1,5,0,0
298599,-30.6748466257669,4,2,1,90,0,0
298765,-30.6748466257669,4,2,1,5,0,0
298821,-38.4615384615385,4,2,1,90,0,0
315488,-45.4545454545455,4,2,1,90,0,0
315765,-45.4545454545455,4,2,1,5,0,0
315821,-45.4545454545455,4,2,1,90,0,0
316098,-45.4545454545455,4,2,1,5,0,0
316154,-45.4545454545455,4,2,1,90,0,0
316431,-45.4545454545455,4,2,1,5,0,0
316488,-45.4545454545455,4,2,1,90,0,0
316765,-45.4545454545455,4,2,1,5,0,0
316821,-38.4615384615385,4,2,1,90,0,0
317098,-38.4615384615385,4,2,1,5,0,0
317154,-38.4615384615385,4,2,1,90,0,0
317431,-38.4615384615385,4,2,1,5,0,0
317488,-38.4615384615385,4,2,1,90,0,0
317765,-38.4615384615385,4,2,1,5,0,0
317821,-38.4615384615385,4,2,1,90,0,0
318098,-38.4615384615385,4,2,1,5,0,0
318154,-30.6748466257669,4,2,1,90,0,0
318431,-30.6748466257669,4,2,1,5,0,0
318488,-30.6748466257669,4,2,1,90,0,0
318765,-30.6748466257669,4,2,1,5,0,0
318821,-30.6748466257669,4,2,1,90,0,0
320821,-125,4,2,1,80,0,0
321488,-66.6666666666667,4,2,1,80,0,0
322265,-66.6666666666667,4,2,1,5,0,0
322488,-66.6666666666667,4,2,1,80,0,0
322599,-66.6666666666667,4,2,1,5,0,0
322821,-66.6666666666667,4,2,1,80,0,0
323154,-125,4,2,1,80,0,0
323488,-66.6666666666667,4,2,1,80,0,0
324932,-66.6666666666667,4,2,1,5,0,0
325043,-66.6666666666667,4,2,1,80,0,0
325265,-66.6666666666667,4,2,1,5,0,0
325488,-66.6666666666667,4,2,1,80,0,0
327599,-66.6666666666667,4,2,1,5,0,0
327821,-66.6666666666667,4,2,1,80,0,0
327932,-66.6666666666667,4,2,1,5,0,0
328154,-66.6666666666667,4,2,1,80,0,0
328488,-125,4,2,1,80,0,0
328821,-55.5555555555556,4,2,1,80,0,0
332932,-55.5555555555556,4,2,1,5,0,0
333154,-55.5555555555556,4,2,1,80,0,0
333265,-55.5555555555556,4,2,1,5,0,0
333488,-55.5555555555556,4,2,1,80,0,0
333821,-100,4,2,1,80,0,0
334154,-55.5555555555556,4,2,1,80,0,0
338265,-55.5555555555556,4,2,1,5,0,0
338488,-55.5555555555556,4,2,1,80,0,0
338599,-55.5555555555556,4,2,1,5,0,0
338821,-55.5555555555556,4,2,1,80,0,0
342154,-55.5555555555556,4,2,1,40,0,0
350488,-55.5555555555556,4,2,1,60,0,0
350765,-55.5555555555556,4,2,1,5,0,0
350821,-45.4545454545455,4,2,1,65,0,0
351098,-45.4545454545455,4,2,1,5,0,0
351154,-30.6748466257669,4,2,1,70,0,0
351431,-30.6748466257669,4,2,1,5,0,0
351488,-27.7777777777778,4,2,1,75,0,0
351765,-27.7777777777778,4,2,1,5,0,0
351821,-27.7777777777778,4,2,1,80,0,0
352043,-27.7777777777778,4,2,1,5,0,0
352154,-27.7777777777778,4,2,1,85,0,0
352488,-45.4545454545455,4,2,1,85,0,0
352710,-45.4545454545455,4,2,1,90,0,0

[Colours]
Combo1 : 37,226,170
Combo2 : 152,250,165
Combo3 : 252,153,148
Combo4 : 168,228,239

[HitObjects]
464,299,27484,6,0,L|458:321,1,18.75,0|0,1:2|1:2,2:0:0:0:
478,291,27725,1,0,3:2:0:0:
231,46,28037,5,0,1:2:0:0:
190,114,28133,1,0,1:2:0:0:
413,224,28368,5,0,1:2:0:0:
373,154,28473,1,8,2:3:0:0:
153,363,28822,6,0,B|63:343|113:307|27:289,1,150,6|2,3:2|2:0,2:0:0:0:
248,175,29377,1,2,2:0:0:0:
294,243,29488,2,0,P|279:292|268:339,1,100,10|2,1:2|2:0,2:0:0:0:
345,361,29822,2,0,P|356:312|370:264,1,100,2|2,2:0|3:2,2:0:0:0:
432,202,30155,6,0,P|457:197|481:190,1,50.0000000000001,2|0,3:2|2:0,2:0:0:0:
322,40,30488,6,0,P|345:32|370:27,1,50.0000000000001,2|0,3:2|2:0,2:0:0:0:
236,188,30821,6,0,P|188:192|161:153,1,100,10|0,1:2|2:0,2:0:0:0:
84,131,31155,2,0,P|78:105|71:80,1,53.3333333333333,2|0,2:0|2:0,2:0:0:0:
77,149,31488,6,0,P|59:75|38:4,1,150,2|2,3:2|2:0,2:0:0:0:
293,132,32044,1,2,2:0:0:0:
224,176,32155,2,0,P|212:224|198:272,1,100,10|2,1:2|2:0,2:0:0:0:
208,352,32488,2,0,P|168:379|125:359,1,100,2|2,2:0|3:2,2:0:0:0:
50,331,32821,6,0,P|44:306|37:282,1,50.0000000000001,2|0,3:2|2:0,2:0:0:0:
142,171,33155,6,0,P|136:146|129:122,1,50.0000000000001,2|0,3:2|2:0,2:0:0:0:
311,267,33488,6,0,P|305:242|298:218,2,50.0000000000001,10|2|2,1:2|2:0|2:0,2:0:0:0:
385,314,33821,2,0,B|444:327|411:351|469:363,1,100,2|0,2:0|2:0,2:0:0:0:
374,318,34155,6,0,P|346:253|398:205,1,150,2|2,3:2|2:0,2:0:0:0:
244,35,34710,1,2,2:0:0:0:
339,0,34821,2,0,P|324:47|312:96,1,100,10|2,1:2|2:0,2:0:0:0:
230,125,35155,2,0,B|171:138|204:162|146:174,1,100,2|2,2:0|3:2,2:0:0:0:
78,223,35488,6,0,P|53:216|29:210,1,50.0000000000001,2|0,3:2|2:0,2:0:0:0:
185,367,35821,6,0,P|160:372|136:379,1,50.0000000000001,2|0,3:2|2:0,2:0:0:0:
251,204,36155,6,0,B|310:217|277:241|335:253,1,100,10|2,1:2|2:0,2:0:0:0:
407,219,36488,2,0,P|413:193|421:167,1,53.3333333333333,2|2,2:0|2:0,2:0:0:0:
478,106,36766,5,2,2:0:0:0:
485,113,36821,2,0,P|413:133|339:150,1,150,2|2,3:2|2:0,2:0:0:0:
173,40,37377,1,2,2:0:0:0:
245,25,37488,2,0,P|281:56|273:102,1,100,10|2,1:2|2:0,2:0:0:0:
193,132,37821,2,0,P|156:163|164:209,1,100,2|2,2:0|3:2,2:0:0:0:
235,267,38155,6,0,P|241:242|248:218,1,50.0000000000001,2|0,3:2|2:0,2:0:0:0:
83,336,38488,6,0,P|77:311|70:287,1,50.0000000000001,2|0,3:2|2:0,2:0:0:0:
285,384,38821,6,0,P|296:335|311:287,1,100,10|2,1:2|2:0,2:0:0:0:
378,235,39155,1,2,1:2:0:0:
281,54,39377,5,0,1:2:0:0:
344,101,39488,2,0,P|409:74|410:3,1,150,6|2,3:2|2:0,2:0:0:0:
208,139,40044,1,2,2:0:0:0:
271,186,40155,2,0,P|283:234|297:282,1,100,10|2,1:2|2:0,2:0:0:0:
234,336,40488,2,0,B|175:349|208:373|150:385,1,100,2|2,2:0|3:2,2:0:0:0:
81,341,40821,6,0,P|56:335|32:328,1,50.0000000000001,2|0,3:2|2:0,2:0:0:0:
188,237,41155,6,0,P|163:231|139:224,1,50.0000000000001,2|0,3:2|2:0,2:0:0:0:
96,81,41488,6,0,P|47:68|0:54,1,100,10|0,1:2|2:0,2:0:0:0:
107,92,41821,2,0,P|132:84|158:78,1,53.3333333333333,2|0,2:0|2:0,2:0:0:0:
101,105,42155,6,0,P|174:119|243:148,1,150,2|2,3:2|2:0,2:0:0:0:
450,23,42710,1,2,2:0:0:0:
375,0,42821,2,0,B|356:57|394:41|375:97,1,100,10|2,1:2|2:0,2:0:0:0:
427,166,43155,2,0,P|474:174|504:137,1,100,2|2,2:0|3:2,2:0:0:0:
417,173,43488,6,0,P|423:197|429:221,1,50.0000000000001,2|0,3:2|2:0,2:0:0:0:
269,95,43821,6,0,P|262:119|256:143,1,50.0000000000001,2|0,3:2|2:0,2:0:0:0:
108,237,44155,6,0,P|102:212|95:188,2,50.0000000000001,10|2|2,1:2|2:0|2:0,2:0:0:0:
80,315,44488,2,0,P|43:349|8:384,1,100,2|0,2:0|2:0,2:0:0:0:
166,298,44821,6,0,P|239:315|310:338,1,150,2|2,3:2|2:0,2:0:0:0:
486,216,45377,1,2,2:0:0:0:
394,174,45488,2,0,P|407:222|418:270,1,100,10|2,1:2|2:0,2:0:0:0:
383,166,45821,2,0,B|324:152|357:129|299:117,1,100,2|2,2:0|3:2,2:0:0:0:
246,56,46155,6,0,P|221:62|197:68,1,50.0000000000001,2|0,3:2|2:0,2:0:0:0:
101,212,46488,6,0,P|76:218|52:224,1,50.0000000000001,2|0,3:2|2:0,2:0:0:0:
226,364,46821,6,0,P|237:315|250:267,1,100,10|0,1:2|2:0,2:0:0:0:
327,289,47155,2,0,P|319:314|313:340,1,53.3333333333333,2|0,2:0|3:2,2:0:0:0:
254,255,47488,5,2,3:2:0:0:
188,64,47821,2,0,B|117:79|156:108|87:122,1,120,6|2,1:2|2:0,2:0:0:0:
248,7,48155,2,0,B|318:22|279:51|348:65,1,120,14|2,1:2|2:0,2:0:0:0:
422,37,48488,1,2,3:2:0:0:
512,234,48710,5,2,1:2:0:0:
494,228,48821,2,0,P|465:219|435:213,1,60.0000000000001,2|0,3:2|2:0,2:0:0:0:
361,172,49044,1,0,3:2:0:0:
486,148,49155,6,0,P|427:161|369:177,1,120,6|2,1:2|2:0,2:0:0:0:
318,242,49488,1,2,3:2:0:0:
299,244,49599,5,2,3:2:0:0:
265,211,49710,1,2,1:2:0:0:
266,165,49821,1,2,1:2:0:0:
18,319,50044,5,2,1:2:0:0:
87,280,50155,2,0,B|159:296|119:324|187:339,1,120,6|2,3:2|2:0,2:0:0:0:
318,242,50710,1,2,2:0:0:0:
322,257,50821,2,0,P|304:314|291:372,1,120,2|2,1:2|2:0,2:0:0:0:
161,204,51377,5,2,3:2:0:0:
164,220,51488,1,2,3:2:0:0:
312,71,51821,1,2,3:2:0:0:
242,5,52155,2,0,B|194:42|194:42|217:96,1,120,0|2,1:2|2:0,2:0:0:0:
369,184,52710,5,2,2:0:0:0:
384,188,52821,2,0,P|441:170|499:157,1,120,2|2,3:2|2:0,2:0:0:0:
303,249,53488,2,0,P|246:231|188:218,1,120,2|2,1:2|2:0,2:0:0:0:
25,48,54044,5,2,3:2:0:0:
28,64,54155,1,2,3:2:0:0:
152,143,54488,1,0,3:2:0:0:
69,237,54821,2,0,P|125:234|150:284,1,120,0|2,1:2|2:0,2:0:0:0:
28,332,55488,6,0,P|85:314|143:301,1,120,2|2,3:2|2:0,2:0:0:0:
317,166,56155,2,0,P|322:146|339:106,2,59.9999999999999,2|2|2,1:2|2:0|2:0,2:0:0:0:
122,0,56710,5,0,3:2:0:0:
125,16,56821,1,2,3:2:0:0:
252,107,57155,1,2,3:2:0:0:
339,17,57488,2,0,P|363:68|419:65,1,120,0|0,1:2|2:0,2:0:0:0:
509,209,58044,5,2,2:0:0:0:
495,201,58155,2,0,P|437:219|379:232,1,120,2|2,3:2|2:0,2:0:0:0:
211,121,58821,2,0,P|267:118|291:169,1,120,2|2,1:2|2:0,2:0:0:0:
112,340,59377,5,2,3:2:0:0:
115,355,59488,1,0,3:2:0:0:
253,257,59821,1,0,3:2:0:0:
348,382,60155,2,0,P|335:343|327:304,1,79.9999999999998,2|0,1:2|2:0,2:0:0:0:
333,290,60488,1,0,1:2:0:0:
458,114,60710,5,2,1:2:0:0:
383,148,60821,2,0,B|311:132|351:104|283:89,1,120,6|2,3:2|2:0,2:0:0:0:
137,54,61377,1,2,2:0:0:0:
152,59,61488,2,0,B|224:43|184:15|252:0,1,120,2|2,1:2|2:0,2:0:0:0:
77,170,62044,5,2,3:2:0:0:
80,185,62155,1,2,3:2:0:0:
223,291,62488,1,2,3:2:0:0:
288,184,62821,2,0,P|230:202|172:215,1,120,0|0,1:2|2:0,2:0:0:0:
0,278,63377,5,2,2:0:0:0:
3,262,63488,2,0,P|59:259|83:310,1,120,0|2,3:2|2:0,2:0:0:0:
236,377,64155,2,0,B|308:361|267:333|336:318,1,120,2|2,1:2|2:0,2:0:0:0:
479,183,64710,5,2,3:2:0:0:
476,198,64821,1,0,3:2:0:0:
290,95,65155,1,2,3:2:0:0:
374,28,65488,2,0,B|422:65|422:65|399:119,1,120,2|0,1:2|2:0,2:0:0:0:
244,273,66155,6,0,P|230:214|212:157,1,120,2|2,3:2|2:0,2:0:0:0:
54,50,66710,1,2,2:0:0:0:
45,63,66821,2,0,P|68:114|124:111,1,120,2|2,1:2|2:0,2:0:0:0:
300,56,67377,5,0,3:2:0:0:
297,71,67488,1,2,3:2:0:0:
134,206,67821,1,0,3:2:0:0:
258,283,68155,2,0,B|186:299|226:327|158:342,1,120,0|2,1:2|2:0,2:0:0:0:
341,379,68710,5,2,1:2:0:0:
352,374,68821,2,0,P|365:314|383:258,1,120,2|2,3:2|2:0,2:0:0:0:
502,122,69377,1,0,2:0:0:0:
509,136,69488,2,0,P|485:187|429:184,1,120,2|0,1:2|2:0,2:0:0:0:
265,154,70044,5,2,3:2:0:0:
252,145,70155,2,0,P|238:85|220:29,1,120,0|0,3:2|3:2,2:0:0:0:
72,157,70821,2,0,P|111:165|149:177,1,79.9999999999998,0|0,1:2|1:2,2:0:0:0:
161,187,71155,1,8,2:3:0:0:
27,313,71377,5,6,2:3:0:0:
95,348,71488,2,0,P|167:328|241:311,1,150,6|2,3:2|2:0,2:0:0:0:
365,163,72044,1,2,2:0:0:0:
277,139,72155,2,0,P|290:188|301:235,1,100,0|2,1:2|2:0,2:0:0:0:
375,286,72488,2,0,P|421:276|437:231,1,100,0|2,3:2|2:0,2:0:0:0:
512,112,72821,6,0,B|422:92|472:56|386:38,1,150,2|2,3:2|3:2,2:0:0:0:
267,132,73377,1,2,2:0:0:0:
253,138,73488,2,0,P|204:124|156:113,1,100,0|2,1:2|2:0,2:0:0:0:
83,44,73821,2,0,P|131:33|179:19,1,100,0|2,3:2|3:2,2:0:0:0:
55,143,74155,6,0,P|110:193|160:248,1,150,2|2,3:2|2:0,2:0:0:0:
34,371,74710,1,2,2:0:0:0:
74,309,74821,2,0,B|133:296|100:272|158:260,1,100,2|0,1:2|2:0,2:0:0:0:
244,277,75155,2,0,P|275:313|259:358,1,100,2|2,3:2|2:0,2:0:0:0:
237,267,75488,6,0,P|259:195|275:122,1,150,2|2,3:2|3:2,2:0:0:0:
336,251,76044,1,2,2:0:0:0:
346,261,76155,1,2,1:2:0:0:
182,131,76377,1,2,2:0:0:0:
167,134,76488,1,0,3:2:0:0:
362,57,76710,5,2,3:2:0:0:
287,20,76821,2,0,B|259:107|315:82|288:166,1,150,2|2,3:2|2:0,2:0:0:0:
462,322,77488,2,0,B|400:254|394:315|335:249,1,150,2|2,1:2|3:2,2:0:0:0:
90,323,78155,2,0,B|179:303|129:267|215:249,1,150,2|2,3:2|3:2,2:0:0:0:
160,59,78821,2,0,P|94:85|96:156,1,150,2|0,1:2|3:2,2:0:0:0:
223,263,79377,5,0,3:2:0:0:
235,270,79488,2,0,P|307:250|381:233,1,150,2|0,3:2|2:0,2:0:0:0:
154,42,80155,2,0,P|226:62|299:78,1,150,0|2,1:2|3:2,2:0:0:0:
484,145,80710,5,0,3:2:0:0:
420,105,80821,2,0,B|361:118|394:142|336:154,1,100,2|0,3:2|2:0,2:0:0:0:
258,107,81155,2,0,P|241:62|272:25,1,100,2|2,3:2|2:0,2:0:0:0:
353,20,81488,1,2,1:2:0:0:
225,246,81821,1,0,1:2:0:0:
45,53,82044,5,2,1:2:0:0:
142,0,82155,2,0,P|122:72|105:146,1,150,6|2,3:2|2:0,2:0:0:0:
0,306,82821,2,0,P|15:261|62:252,1,100,2|0,1:2|2:0,2:0:0:0:
127,303,83155,2,0,P|175:314|223:327,1,100,0|2,3:2|2:0,2:0:0:0:
310,260,83488,6,0,B|275:231|286:181|286:181|282:181|282:181|269:223|213:237,1,150,2|0,3:2|3:2,2:0:0:0:
330,378,84044,1,2,2:0:0:0:
342,383,84155,2,0,P|389:368|438:358,1,100,2|0,1:2|2:0,2:0:0:0:
506,311,84488,2,0,P|522:266|491:229,1,100,0|2,3:2|3:2,2:0:0:0:
512,113,84821,6,0,P|440:134|366:150,1,150,2|2,3:2|2:0,2:0:0:0:
204,0,85488,2,0,B|263:13|230:37|288:49,1,100,2|2,1:2|2:0,2:0:0:0:
186,73,85821,2,0,B|127:86|160:110|102:122,1,100,0|2,3:2|2:0,2:0:0:0:
36,49,86155,6,0,P|56:120|72:194,1,150,2|0,3:2|3:2,2:0:0:0:
277,189,86710,5,2,2:0:0:0:
209,148,86821,1,0,1:2:0:0:
106,340,87044,5,0,3:2:0:0:
174,299,87155,1,0,1:2:0:0:
400,312,87377,5,2,1:2:0:0:
314,376,87488,2,0,P|295:288|269:201,1,180,6|2,3:2|2:0,2:0:0:0:
448,90,88155,2,0,P|462:171|385:202,1,180,2|2,1:2|3:2,2:0:0:0:
236,69,88710,5,0,3:2:0:0:
169,121,88821,2,0,P|139:127|110:134,1,60.0000000000001,0|0,3:2|2:0,2:0:0:0:
298,16,89155,2,0,P|327:22|356:29,1,60.0000000000001,2|0,3:2|2:0,2:0:0:0:
246,251,89488,2,0,B|213:150|280:180|247:75,1,180,2|2,1:2|3:2,2:0:0:0:
512,145,90044,1,0,3:2:0:0:
504,161,90155,6,0,P|416:179|329:205,2,180,2|0|0,3:2|3:2|1:2,2:0:0:0:
504,161,91155,1,2,3:2:0:0:
350,317,91377,5,0,3:2:0:0:
343,302,91488,2,0,P|293:293|253:354,1,125,2|0,3:2|2:0,2:0:0:0:
185,384,91821,6,0,B|95:364|145:328|59:310,1,150,2|0,3:2|2:0,2:0:0:0:
11,252,92155,6,0,P|38:170|123:170,1,183.333333333333,6|0,1:2|2:0,2:0:0:0:
208,151,92488,6,0,P|294:99|271:0,1,216.666666666666,2|0,3:2|2:0,2:0:0:0:
143,91,92821,6,0,P|165:160|183:231,1,146.666666666667,6|0,3:2|2:0,2:0:0:0:
276,283,93155,2,0,B|363:263|314:228|398:210,1,146.666666666667,0|0,3:2|2:0,2:0:0:0:
512,171,93488,2,0,P|410:174|383:76,1,220,0|0,1:2|2:0,2:0:0:0:
135,79,94044,5,0,3:2:0:0:
208,151,94155,2,0,P|225:79|248:10,1,146.666666666667,0|0,3:2|2:0,2:0:0:0:
75,186,94488,2,0,P|57:114|34:45,1,146.666666666667,0|0,3:2|2:0,2:0:0:0:
158,240,94821,2,0,B|245:260|196:295|280:313,1,146.666666666667,0|0,1:2|2:0,2:0:0:0:
355,276,95155,1,2,3:2:0:0:
254,83,95377,5,2,2:0:0:0:
357,21,95488,2,0,P|345:55|336:91,1,73.3333333333333,2|0,3:2|2:0,2:0:0:0:
468,220,95710,2,0,B|496:153|496:153|437:108,1,146.666666666667,0|0,1:2|2:0,2:0:0:0:
287,227,96044,5,0,3:2:0:0:
219,177,96155,2,0,P|149:200|78:216,1,146.666666666667,4|0,1:2|2:0,2:0:0:0:
9,136,96488,2,0,P|5:66|67:35,1,146.666666666667,6|0,1:2|2:0,2:0:0:0:
217,4,96821,6,0,P|229:38|238:74,1,73.3333333333333,2|0,1:2|2:0,2:0:0:0:
159,235,97044,2,0,P|171:269|180:305,1,73.3333333333333,0|0,1:2|2:0,2:0:0:0:
329,139,97266,5,0,1:2:0:0:
389,190,97377,1,0,1:2:0:0:
318,146,97488,6,0,P|309:181|296:216,1,73.3333333333333,2|0,3:2|2:0,2:0:0:0:
482,384,97710,2,0,P|491:349|504:314,1,73.3333333333333,2|0,3:2|2:0,2:0:0:0:
37,230,98155,6,0,B|140:207|82:165|181:144,1,173.333333333333,6|0,3:2|2:0,2:0:0:0:
237,83,98488,2,0,P|236:40|205:11,1,86.6666666666666,2|0,2:0|2:0,2:0:0:0:
130,0,98710,1,2,2:0:0:0:
48,124,98821,6,0,P|74:206|95:290,1,173.333333333333,10|2,1:2|2:0,2:0:0:0:
61,384,99155,2,0,P|110:318|190:335,1,173.333333333333,2|2,2:0|3:2,2:0:0:0:
278,384,99488,6,0,P|319:370|361:360,1,86.6666666666666,2|0,3:2|2:0,2:0:0:0:
222,229,99710,1,2,2:0:0:0:
282,175,99821,2,0,P|323:188|365:198,1,86.6666666666666,0|0,3:2|2:0,2:0:0:0:
506,78,100043,5,2,2:0:0:0:
452,20,100155,2,0,P|370:30|345:108,1,173.333333333333,8|2,1:2|2:0,2:0:0:0:
275,163,100488,2,0,B|210:138|210:138|197:105|197:105|133:81,1,173.333333333333,2|2,2:0|2:0,2:0:0:0:
28,152,100821,6,0,B|-5:230|-5:230|64:284,1,173.333333333333,2|0,3:2|2:0,2:0:0:0:
135,339,101155,2,0,P|176:325|218:315,1,86.6666666666666,2|0,2:0|2:0,2:0:0:0:
290,361,101377,1,2,2:0:0:0:
393,243,101488,6,0,P|379:283|368:326,1,86.6666666666666,10|0,1:2|2:0,2:0:0:0:
184,138,101710,1,2,2:0:0:0:
189,154,101821,2,0,P|203:195|213:237,1,86.6666666666666,2|0,2:0|2:0,2:0:0:0:
384,51,102043,5,2,3:2:0:0:
305,6,102155,2,0,B|273:106|338:77|307:173,1,173.333333333333,2|0,3:2|2:0,2:0:0:0:
102,143,102488,2,0,P|101:100|130:70,1,86.6666666666666,2|0,3:2|2:0,2:0:0:0:
204,59,102710,1,2,2:0:0:0:
220,225,102821,6,0,P|135:245|53:272,1,173.333333333333,8|0,1:2|2:0,2:0:0:0:
229,237,103155,2,0,P|271:247|312:261,1,86.6666666666666,0|0,1:2|2:0,2:0:0:0:
375,210,103377,1,2,1:2:0:0:
431,382,103488,6,0,P|410:297|383:215,1,173.333333333333,6|0,3:2|2:0,2:0:0:0:
492,157,103821,2,0,P|416:189|355:134,1,173.333333333333,2|0,2:0|2:0,2:0:0:0:
232,62,104155,6,0,B|129:85|187:127|88:148,1,173.333333333333,10|0,1:2|2:0,2:0:0:0:
21,107,104488,2,0,P|9:66|29:29,1,86.6666666666666,2|0,2:0|2:0,2:0:0:0:
231,151,104710,5,2,3:2:0:0:
166,218,104821,2,0,P|139:300|118:384,1,173.333333333333,2|2,3:2|2:0,2:0:0:0:
74,227,105154,2,0,P|12:281|36:360,1,173.333333333333,2|2,3:2|2:0,2:0:0:0:
202,365,105488,6,0,P|213:322|226:281,1,86.6666666666666,10|0,1:2|2:0,2:0:0:0:
344,193,105710,1,2,2:0:0:0:
339,176,105821,2,0,P|328:133|315:92,1,86.6666666666666,2|0,2:0|2:0,2:0:0:0:
486,288,106043,5,2,2:0:0:0:
512,215,106154,2,0,P|430:225|406:304,1,173.333333333333,2|0,3:2|2:0,2:0:0:0:
284,384,106488,2,0,B|181:361|239:319|140:298,1,173.333333333333,6|0,1:2|2:0,2:0:0:0:
26,176,106821,6,0,B|80:106|80:106|158:139,1,173.333333333333,14|2,1:2|2:0,2:0:0:0:
131,298,107154,2,0,P|120:255|107:214,1,86.6666666666666,2|0,3:2|2:0,2:0:0:0:
232,82,107377,5,2,1:2:0:0:
296,132,107488,2,0,P|377:121|401:42,1,173.333333333333,2|0,3:2|3:2,2:0:0:0:
171,35,107821,2,0,P|197:117|218:201,1,173.333333333333,6|0,1:2|2:0,2:0:0:0:
479,293,108154,5,10,1:2:0:0:
420,234,108266,1,8,2:3:0:0:
337,255,108377,1,8,2:3:0:0:
381,373,108488,5,8,2:3:0:0:
387,347,108599,1,4,2:3:0:0:
394,322,108710,1,4,2:3:0:0:
243,285,108821,6,0,P|145:309|51:340,1,200,6|0,3:2|2:0,2:0:0:0:
155,109,109377,1,2,2:0:0:0:
49,75,109488,6,0,P|75:157|96:241,1,173.333333333333,14|0,1:2|2:0,2:0:0:0:
166,102,109821,2,0,B|269:79|211:37|310:16,1,173.333333333333,2|2,2:0|3:2,2:0:0:0:
452,120,110154,6,0,P|438:161|428:203,1,86.6666666666666,2|0,3:2|2:0,2:0:0:0:
361,248,110377,1,2,2:0:0:0:
292,162,110488,2,0,P|319:244|338:328,1,173.333333333333,2|0,3:2|2:0,2:0:0:0:
230,370,110821,6,0,P|211:290|276:239,1,173.333333333333,10|2,1:2|2:0,2:0:0:0:
422,302,111154,2,0,P|392:332|350:333,1,86.6666666666666,2|0,3:2|2:0,2:0:0:0:
367,140,111377,5,2,1:2:0:0:
292,162,111488,2,0,B|193:141|251:99|148:76,1,173.333333333333,2|2,3:2|2:0,2:0:0:0:
58,166,111821,2,0,B|-11:111|-11:111|21:33,1,173.333333333333,2|0,2:0|2:0,2:0:0:0:
209,151,112154,6,0,P|182:233|161:317,1,173.333333333333,10|0,1:2|2:0,2:0:0:0:
70,174,112488,2,0,P|83:215|93:257,1,86.6666666666666,2|0,1:2|2:0,2:0:0:0:
221,374,112710,1,0,3:2:0:0:
45,333,112821,6,0,P|129:353|211:380,1,173.333333333333,0|0,3:2|2:0,2:0:0:0:
301,361,113154,2,0,P|331:284|275:225,1,173.333333333333,0|0,3:2|2:0,2:0:0:0:
190,118,113488,6,0,P|241:182|320:163,1,173.333333333333,10|0,1:2|2:0,2:0:0:0:
378,91,113821,2,0,P|365:50|355:8,1,86.6666666666666,2|0,1:2|2:0,2:0:0:0:
200,205,114043,5,2,1:2:0:0:
118,173,114154,2,0,P|106:131|91:91,1,86.6666666666666,6|0,3:2|2:0,2:0:0:0:
49,281,114377,2,0,B|152:258|94:216|193:195,1,173.333333333333,2|0,2:0|2:0,2:0:0:0:
275,222,114710,1,2,2:0:0:0:
362,106,114821,6,0,P|438:76|497:132,1,173.333333333333,10|0,1:2|2:0,2:0:0:0:
403,289,115154,2,0,P|372:259|371:217,1,86.6666666666666,2|0,3:2|2:0,2:0:0:0:
425,155,115377,1,2,1:2:0:0:
509,294,115488,6,0,P|425:314|343:341,1,173.333333333333,2|0,3:2|2:0,2:0:0:0:
248,379,115821,2,0,B|186:360|186:360|171:318|171:318|110:298,1,173.333333333333,2|0,3:2|2:0,2:0:0:0:
81,203,116154,6,0,P|94:162|105:119,1,86.6666666666666,10|0,1:2|2:0,2:0:0:0:
286,163,116377,1,2,2:0:0:0:
279,179,116488,2,0,P|265:220|255:262,1,86.6666666666666,2|0,3:2|2:0,2:0:0:0:
181,182,116710,1,0,3:2:0:0:
351,125,116821,6,0,P|268:152|184:172,1,173.333333333333,2|0,3:2|1:2,2:0:0:0:
368,206,117154,2,0,P|410:216|451:230,1,86.6666666666666,2|0,3:2|2:0,2:0:0:0:
348,34,117377,5,2,3:2:0:0:
448,0,117488,2,0,P|434:40|423:83,1,86.6666666666666,10|0,1:2|2:0,2:0:0:0:
298,268,117710,5,10,2:3:0:0:
392,289,117821,2,0,P|378:248|367:205,1,86.6666666666666,6|0,1:2|2:0,2:0:0:0:
202,24,118043,5,4,2:3:0:0:
152,85,118154,2,0,B|53:106|111:148|8:171,1,173.333333333333,2|0,3:2|1:2,2:0:0:0:
159,168,118488,2,0,B|258:189|200:231|303:254,1,173.333333333333,6|2,3:2|3:2,2:0:0:0:
137,384,118821,5,10,1:2:0:0:
111,313,118932,1,0,1:2:0:0:
159,256,119043,1,0,1:2:0:0:
309,246,119154,5,2,1:2:0:0:
357,189,119266,1,0,1:2:0:0:
331,118,119377,1,0,1:2:0:0:
314,113,119488,5,2,3:2:0:0:
339,113,120826,1,2,2:0:0:0:
193,341,122165,5,2,2:0:0:0:
193,341,123498,1,2,2:0:0:0:
39,76,124817,6,0,P|52:34|62:-6,2,80,2|2|2,2:0|2:0|2:0,2:0:0:0:
39,76,128817,1,2,2:0:0:0:
135,313,130155,6,0,B|253:347|291:189|215:184|161:242|225:290,1,240,2|2,2:0|2:0,2:0:0:0:
217,263,131488,2,0,B|360:294|279:352|416:381,1,240,2|2,2:0|2:0,2:0:0:0:
429,374,132821,6,0,B|446:351|469:348|469:348|453:300|446:250|446:250|401:218|365:256,1,240,2|2,2:0|2:0,2:0:0:0:
366,256,133821,1,0,2:0:0:0:
269,152,134155,6,0,B|302:147|316:119|316:119|313:150|339:171,3,120,2|2|2|2,2:0|2:0|2:0|2:0,2:0:0:0:
269,320,135488,6,0,P|243:202|208:88,1,240,2|2,2:0|2:0,2:0:0:0:
197,81,136821,2,0,B|147:49|85:66|70:130|70:130|118:144|128:92,1,240,2|2,2:0|2:0,2:0:0:0:
114,90,138155,6,0,B|82:117|82:117|125:272|125:272|161:283,1,240,2|2,2:0|2:0,2:0:0:0:
161,283,139155,1,0,2:0:0:0:
298,136,139488,6,0,P|284:173|275:212,1,79.9999999999998,2|8,2:0|2:0,2:0:0:0:
324,275,139821,2,0,P|362:281|392:257,1,79.9999999999998,8|0,2:0|2:0,2:0:0:0:
424,182,140155,6,0,B|466:164|466:164|453:203,1,86.6666666666666,2|0,2:0|2:0,2:0:0:0:
197,363,140821,6,0,B|149:326|149:326|172:272,1,120,6|2,3:2|2:0,2:0:0:0:
268,182,141377,1,2,2:0:0:0:
272,167,141488,2,0,P|254:110|241:52,1,120,2|2,1:2|2:0,2:0:0:0:
87,176,142043,5,2,3:2:0:0:
38,113,142155,2,0,P|95:131|153:144,1,120,2|2,3:2|3:2,2:0:0:0:
321,253,142821,6,0,P|353:231|356:192,1,79.9999999999998,0|2,1:2|2:0,2:0:0:0:
422,146,143155,2,0,P|419:107|387:84,1,79.9999999999998,2|2,2:0|2:0,2:0:0:0:
287,6,143488,6,0,B|271:78|243:38|228:106,1,120,2|2,3:2|2:0,2:0:0:0:
87,176,144154,2,0,B|102:244|130:204|146:276,1,120,2|0,1:2|2:0,2:0:0:0:
263,374,144710,5,2,3:2:0:0:
311,316,144821,2,0,P|286:264|230:268,1,120,0|0,3:2|3:2,2:0:0:0:
413,157,145488,1,2,1:2:0:0:
297,81,145821,1,2,2:0:0:0:
361,225,146043,5,0,3:2:0:0:
370,237,146154,2,0,P|428:250|485:268,1,120,2|2,3:2|2:0,2:0:0:0:
388,55,146821,2,0,B|334:32|334:32|297:79,1,120,2|2,1:2|2:0,2:0:0:0:
129,49,147377,5,0,1:2:0:0:
179,112,147488,2,0,B|251:128|211:156|279:171,1,120,2|0,3:2|3:2,2:0:0:0:
112,277,148154,6,0,P|73:273|51:241,1,79.9999999999998,0|2,1:2|2:0,2:0:0:0:
92,175,148488,2,0,P|130:178|152:210,1,79.9999999999998,2|2,2:0|2:0,2:0:0:0:
63,346,148821,6,0,P|120:328|178:315,1,120,2|2,3:2|2:0,2:0:0:0:
325,377,149488,2,0,P|376:353|373:296,1,120,2|2,1:2|2:0,2:0:0:0:
303,167,150043,5,2,3:2:0:0:
290,157,150154,2,0,P|286:137|258:55,2,79.9999999999998,2|0|0,3:2|3:2|3:2,2:0:0:0:
377,196,150821,2,0,P|381:176|409:94,1,79.9999999999998,2|0,1:2|3:2,2:0:0:0:
463,67,151154,1,0,1:2:0:0:
457,47,151266,1,8,2:3:0:0:
451,28,151377,1,4,2:3:0:0:
368,0,151488,6,0,P|343:52|287:48,1,120,6|2,3:2|2:0,2:0:0:0:
147,150,152043,1,2,2:0:0:0:
142,134,152154,2,0,B|96:116|96:116|87:93|87:93|43:77,1,120,2|2,1:2|2:0,2:0:0:0:
63,258,152710,5,0,1:2:0:0:
18,317,152821,2,0,P|65:284|112:315,1,120,2|2,3:2|3:2,2:0:0:0:
232,384,153488,2,0,P|270:380|292:348,1,79.9999999999998,2|2,1:2|2:0,2:0:0:0:
281,270,153821,2,0,P|303:238|341:235,1,79.9999999999998,2|2,2:0|2:0,2:0:0:0:
438,384,154154,6,0,P|451:325|469:268,1,120,2|2,3:2|2:0,2:0:0:0:
304,144,154821,2,0,P|291:202|273:259,1,120,2|2,1:2|2:0,2:0:0:0:
465,185,155377,5,2,1:2:0:0:
421,119,155488,2,0,B|349:103|389:74|321:60,1,120,2|2,3:2|3:2,2:0:0:0:
200,181,156154,2,0,B|128:197|168:226|100:240,1,120,2|0,1:2|2:0,2:0:0:0:
0,87,156710,5,2,2:0:0:0:
8,73,156821,2,0,P|65:67|90:118,1,120,2|2,3:2|2:0,2:0:0:0:
239,8,157488,2,0,P|182:5|160:57,1,120,2|2,1:2|2:0,2:0:0:0:
300,181,158043,5,0,1:2:0:0:
363,124,158154,2,0,P|344:66|331:8,1,120,2|0,3:2|3:2,2:0:0:0:
216,193,158821,6,0,P|219:231|251:253,1,79.9999999999998,0|0,1:2|2:0,2:0:0:0:
280,326,159154,2,0,P|315:342|350:325,1,79.9999999999998,2|0,2:0|1:2,2:0:0:0:
479,283,159488,6,0,B|433:265|433:265|424:242|424:242|380:226,1,120,2|2,3:2|2:0,2:0:0:0:
236,106,160154,2,0,B|192:122|192:122|183:145|183:145|137:163,1,120,2|2,1:2|2:0,2:0:0:0:
253,312,160710,5,2,1:2:0:0:
318,271,160821,2,0,B|341:217|341:217|293:180,1,120,0|0,3:2|3:2,2:0:0:0:
91,232,161488,2,0,P|130:240|168:252,1,79.9999999999998,0|0,1:2|1:2,2:0:0:0:
180,262,161821,1,8,2:3:0:0:
30,107,162043,5,6,2:3:0:0:
71,42,162154,2,0,P|143:23|215:1,1,150,6|2,3:2|2:0,2:0:0:0:
386,168,162710,1,2,2:0:0:0:
310,188,162821,2,0,B|290:140|290:140|330:111,1,100,0|2,1:2|2:0,2:0:0:0:
348,39,163154,2,0,B|379:-1|379:-1|424:18,1,100,0|2,3:2|2:0,2:0:0:0:
512,145,163488,6,0,P|490:216|470:289,1,150,2|2,3:2|3:2,2:0:0:0:
270,259,164043,1,2,2:0:0:0:
276,278,164154,2,0,P|290:325|301:374,1,100,0|2,1:2|2:0,2:0:0:0:
199,207,164488,2,0,P|185:254|174:303,1,100,0|2,3:2|3:2,2:0:0:0:
376,251,164821,6,0,P|325:195|272:142,1,150,2|2,3:2|2:0,2:0:0:0:
58,0,165377,1,2,2:0:0:0:
0,50,165488,2,0,P|-9:96|27:127,1,100,2|0,1:2|2:0,2:0:0:0:
99,174,165821,2,0,B|158:161|125:137|183:125,1,100,2|2,3:2|2:0,2:0:0:0:
260,148,166154,5,2,3:2:0:0:
152,273,166377,1,2,2:0:0:0:
162,283,166488,1,0,3:2:0:0:
337,341,166710,1,2,2:0:0:0:
327,351,166821,2,0,P|316:302|301:254,1,100,2|0,1:2|2:0,2:0:0:0:
354,194,167154,2,0,P|400:185|431:222,1,100,0|2,3:2|3:2,2:0:0:0:
342,186,167488,6,0,B|369:98|313:123|340:39,1,150,2|2,3:2|2:0,2:0:0:0:
144,158,168154,2,0,B|206:225|212:164|271:230,1,150,2|2,1:2|3:2,2:0:0:0:
277,6,168710,1,2,2:0:0:0:
267,0,168821,2,0,B|177:19|227:56|141:74,1,150,2|2,3:2|3:2,2:0:0:0:
35,203,169488,2,0,P|18:129|0:56,1,150,2|2,1:2|3:2,2:0:0:0:
172,235,170043,5,0,3:2:0:0:
185,228,170154,2,0,P|201:154|220:81,1,150,2|2,3:2|2:0,2:0:0:0:
0,281,170710,1,2,2:0:0:0:
58,334,170821,2,0,B|117:347|84:371|142:383,1,100,2|0,1:2|2:0,2:0:0:0:
202,325,171154,2,0,B|261:312|228:288|286:276,1,100,10|0,3:2|2:0,2:0:0:0:
377,343,171488,6,0,P|371:318|365:294,1,50.0000000000001,2|0,3:2|2:0,2:0:0:0:
345,216,171710,1,2,1:2:0:0:
432,183,171821,2,0,P|401:219|354:211,1,100,2|2,3:2|1:2,2:0:0:0:
281,162,172154,2,0,P|264:88|245:15,1,150,2|0,1:2|1:2,2:0:0:0:
493,127,172710,5,2,1:2:0:0:
479,50,172821,2,0,P|428:0|360:23,1,150,6|2,3:2|2:0,2:0:0:0:
222,98,173488,2,0,P|175:89|158:44,1,100,2|2,1:2|2:0,2:0:0:0:
233,107,173821,2,0,P|239:132|245:156,1,50.0000000000001,0|0,3:2|2:0,2:0:0:0:
182,203,174043,1,2,1:2:0:0:
80,189,174154,6,0,P|98:261|115:334,1,150,2|2,3:2|3:2,2:0:0:0:
254,384,174821,2,0,B|313:371|280:347|338:335,1,100,2|2,1:2|2:0,2:0:0:0:
247,267,175154,1,0,1:2:0:0:
242,283,175266,1,0,1:2:0:0:
237,298,175377,1,0,1:2:0:0:
511,153,175821,6,0,P|462:219|382:202,1,173.333333333333,4|0,3:2|2:0,2:0:0:0:
307,174,176154,2,0,P|280:133|298:76,1,106.666666666667,4|0,3:2|2:0,2:0:0:0:
356,27,176710,1,0,1:2:0:0:
368,117,176821,6,0,P|283:137|201:164,1,173.333333333333,0|2,3:2|3:2,2:0:0:0:
81,185,177154,2,0,P|165:205|247:232,1,173.333333333333,6|2,3:2|2:0,2:0:0:0:
416,335,177488,5,8,2:3:0:0:
439,319,177599,1,8,2:3:0:0:
449,284,177710,1,8,2:3:0:0:
433,249,177821,1,10,2:3:0:0:
384,230,177932,1,4,2:3:0:0:
329,261,178043,1,6,2:3:0:0:
296,332,178154,6,0,B|192:310|251:267|145:243,1,180,6|2,3:2|3:2,2:0:0:0:
242,62,178821,2,0,P|319:91|306:173,1,180,2|2,1:2|3:2,2:0:0:0:
132,339,179377,1,0,2:0:0:0:
64,285,179488,6,0,P|58:255|51:226,1,60.0000000000001,0|0,3:2|2:0,2:0:0:0:
217,231,179821,2,0,P|222:201|229:172,1,60.0000000000001,2|0,3:2|2:0,2:0:0:0:
312,363,180154,2,0,P|371:295|437:233,1,180,2|2,1:2|3:2,2:0:0:0:
193,37,180710,5,0,3:2:0:0:
179,49,180821,2,0,P|207:134|228:221,2,180,2|0|0,3:2|3:2|1:2,2:0:0:0:
179,49,181821,1,2,3:2:0:0:
387,38,182043,5,0,3:2:0:0:
396,51,182154,2,0,P|378:98|305:102,1,125,2|0,3:2|2:0,2:0:0:0:
247,145,182488,6,0,P|178:126|168:56,1,150,2|0,3:2|2:0,2:0:0:0:
259,160,182821,6,0,P|229:246|206:335,1,183.333333333333,6|0,1:2|2:0,2:0:0:0:
290,329,183154,6,0,P|386:361|446:279,1,216.666666666666,2|0,3:2|2:0,2:0:0:0:
406,208,183488,6,0,P|396:172|384:137,1,73.3333333333333,6|0,3:2|2:0,2:0:0:0:
463,131,184154,6,0,P|376:101|287:78,1,183.333333333333,0|0,1:2|2:0,2:0:0:0:
489,51,184488,2,0,P|400:27|313:-1,1,183.333333333333,0|0,1:2|2:0,2:0:0:0:
220,127,184821,6,0,P|125:133|84:48,1,200,0|0,1:2|2:0,2:0:0:0:
100,46,185154,2,0,P|152:124|99:202,1,200,0|0,1:2|2:0,2:0:0:0:
90,191,185488,2,0,P|131:106|225:113,1,200,0|0,1:2|2:0,2:0:0:0:
298,177,185821,2,0,B|269:270|329:243|300:332,1,160,0|2,1:2|2:0,2:0:0:0:
370,220,186154,6,0,P|404:232|440:241,1,73.3333333333333,6|0,3:2|2:0,2:0:0:0:
230,297,186377,2,0,P|158:314|89:337,1,146.666666666667,0|0,1:2|2:0,2:0:0:0:
178,182,186710,5,0,3:2:0:0:
111,136,186821,2,0,P|49:167|53:237,1,146.666666666667,0|8,1:2|2:3,2:0:0:0:
190,175,187154,2,0,P|207:103|230:34,1,146.666666666667,2|4,1:2|2:3,2:0:0:0:
429,190,187488,5,10,2:3:0:0:
434,203,187599,1,8,2:3:0:0:
379,255,187710,1,4,2:3:0:0:
307,222,187821,2,0,P|298:186|285:151,1,73.3333333333333,6|0,2:3|3:2,2:0:0:0:
120,322,188043,5,0,3:2:0:0:
191,378,188154,2,0,P|199:342|212:307,1,73.3333333333333,6|0,1:2|2:0,2:0:0:0:
14,90,188377,1,0,1:2:0:0:
4,168,188488,1,0,1:2:0:0:
55,226,188599,1,0,1:2:0:0:
134,230,188710,1,0,1:2:0:0:
190,175,188821,6,0,B|221:74|156:103|187:7,1,173.333333333333,6|0,3:2|2:0,2:0:0:0:
278,147,189154,2,0,P|319:134|362:123,1,86.6666666666666,2|0,2:0|2:0,2:0:0:0:
403,57,189376,1,2,2:0:0:0:
451,205,189487,6,0,P|368:178|284:157,1,173.333333333333,10|2,1:2|2:0,2:0:0:0:
243,243,189821,2,0,B|296:250|307:290|307:290|296:250|341:216,1,173.333333333333,2|2,2:0|3:2,2:0:0:0:
190,175,190154,6,0,P|158:202|155:244,1,86.6666666666666,2|0,3:2|2:0,2:0:0:0:
284,157,190376,1,2,2:0:0:0:
221,85,190487,2,0,P|181:71|143:89,1,86.6666666666666,0|0,3:2|2:0,2:0:0:0:
279,171,190709,5,2,2:0:0:0:
356,114,190821,2,0,P|438:124|463:202,1,173.333333333333,8|2,1:2|2:0,2:0:0:0:
512,271,191154,2,0,B|447:296|447:296|434:329|434:329|370:353,1,173.333333333333,2|2,2:0|2:0,2:0:0:0:
311,301,191487,6,0,P|226:279|144:253,1,173.333333333333,2|0,3:2|2:0,2:0:0:0:
65,250,191821,2,0,P|33:277|30:319,1,86.6666666666666,2|0,2:0|2:0,2:0:0:0:
155,244,192043,1,2,2:0:0:0:
72,139,192154,6,0,P|113:153|155:163,1,86.6666666666666,10|0,1:2|2:0,2:0:0:0:
300,81,192376,1,2,2:0:0:0:
316,87,192487,2,0,P|357:101|399:111,1,86.6666666666666,2|0,2:0|2:0,2:0:0:0:
291,0,192709,5,2,3:2:0:0:
223,39,192821,2,0,B|192:140|257:111|226:207,1,173.333333333333,2|0,3:2|2:0,2:0:0:0:
370,352,193154,2,0,P|380:309|394:268,1,86.6666666666666,2|0,3:2|2:0,2:0:0:0:
354,196,193376,1,2,2:0:0:0:
206,327,193487,6,0,B|103:303|160:261|62:240,1,173.333333333333,8|0,1:2|2:0,2:0:0:0:
214,141,193821,2,0,P|232:179|217:218,1,86.6666666666666,0|0,1:2|2:0,2:0:0:0:
132,141,194043,1,2,1:2:0:0:
300,81,194154,6,0,P|217:107|133:128,1,173.333333333333,6|2,3:2|2:0,2:0:0:0:
42,70,194487,2,0,B|96:0|96:0|174:33,1,173.333333333333,2|2,2:0|2:0,2:0:0:0:
214,141,194821,6,0,B|268:210|268:210|346:177,1,173.333333333333,8|2,1:2|2:0,2:0:0:0:
341,15,195154,2,0,P|306:38|299:80,1,86.6666666666666,2|0,2:0|2:0,2:0:0:0:
460,195,195376,1,2,3:2:0:0:
410,93,195487,6,0,P|383:175|362:259,1,173.333333333333,2|2,3:2|2:0,2:0:0:0:
278,297,195821,2,0,P|196:292|165:216,1,173.333333333333,2|2,3:2|2:0,2:0:0:0:
214,141,196154,6,0,P|254:154|297:165,1,86.6666666666666,10|0,1:2|2:0,2:0:0:0:
80,40,196376,1,2,2:0:0:0:
95,32,196487,2,0,P|135:18|178:7,1,86.6666666666666,2|0,2:0|2:0,2:0:0:0:
0,216,196709,5,2,2:0:0:0:
31,287,196821,2,0,B|96:312|96:312|109:345|109:345|173:369,1,173.333333333333,2|0,3:2|2:0,2:0:0:0:
306,311,197154,2,0,P|358:247|323:173,1,173.333333333333,6|0,1:2|2:0,2:0:0:0:
235,65,197487,6,0,B|281:30|270:-9|270:-9|281:30|334:37,1,173.333333333333,14|2,1:2|2:0,2:0:0:0:
265,237,197821,2,0,P|234:207|235:165,1,86.6666666666666,2|0,3:2|2:0,2:0:0:0:
438,6,198043,5,2,1:2:0:0:
493,70,198154,2,0,P|466:152|445:236,1,173.333333333333,2|0,3:2|3:2,2:0:0:0:
322,172,198487,2,0,B|257:197|257:197|244:230|244:230|180:254,1,173.333333333333,6|0,1:2|2:0,2:0:0:0:
38,128,198821,5,10,1:2:0:0:
118,106,198932,1,8,2:3:0:0:
179,166,199043,1,8,2:3:0:0:
94,289,199154,5,8,2:3:0:0:
68,283,199265,1,4,2:3:0:0:
43,276,199376,1,4,2:3:0:0:
141,366,199487,6,0,P|223:339|307:318,1,173.333333333333,6|0,3:2|2:0,2:0:0:0:
263,228,199821,2,0,P|223:242|180:253,1,86.6666666666666,2|0,2:0|2:0,2:0:0:0:
317,325,200043,1,2,2:0:0:0:
444,253,200154,6,0,B|475:152|410:181|441:85,1,173.333333333333,10|2,1:2|2:0,2:0:0:0:
363,206,200487,2,0,P|281:199|251:122,1,173.333333333333,2|0,2:0|3:2,2:0:0:0:
204,58,200821,6,0,P|162:71|120:81,1,86.6666666666666,2|0,3:2|2:0,2:0:0:0:
263,228,201043,1,2,2:0:0:0:
196,284,201154,2,0,P|113:256|29:235,1,173.333333333333,0|0,3:2|2:0,2:0:0:0:
250,122,201487,6,0,P|332:129|362:205,1,173.333333333333,8|0,1:2|2:0,2:0:0:0:
387,284,201821,2,0,P|339:351|258:339,1,173.333333333333,2|2,2:0|2:0,2:0:0:0:
196,284,202098,5,2,2:0:0:0:
188,279,202154,2,0,P|167:194|139:112,1,173.333333333333,2|2,3:2|2:0,2:0:0:0:
64,1,202487,2,0,P|49:40|68:78,1,86.6666666666666,2|0,2:0|2:0,2:0:0:0:
151,105,202709,1,2,2:0:0:0:
7,127,202820,6,0,P|34:159|76:161,1,86.6666666666666,10|0,1:2|2:0,2:0:0:0:
164,97,203043,1,2,2:0:0:0:
88,244,203154,2,0,P|129:236|152:201,1,86.6666666666666,2|0,2:0|2:0,2:0:0:0:
175,92,203376,1,2,3:2:0:0:
77,2,203487,6,0,P|62:41|81:79,1,86.6666666666666,2|0,3:2|2:0,2:0:0:0:
244,200,203709,1,2,1:2:0:0:
316,159,203820,2,0,P|316:76|242:40,1,173.333333333333,2|2,3:2|2:0,2:0:0:0:
325,173,204154,6,0,B|390:198|390:198|403:231|403:231|467:255,1,173.333333333333,8|0,1:2|2:0,2:0:0:0:
339,384,204487,2,0,P|300:365|287:325,1,86.6666666666666,0|0,1:2|2:0,2:0:0:0:
326,258,204709,1,0,1:2:0:0:
448,144,204820,6,0,P|421:227|400:311,1,173.333333333333,6|0,3:2|2:0,2:0:0:0:
465,384,205154,2,0,P|492:352|489:309,1,86.6666666666666,2|0,2:0|2:0,2:0:0:0:
455,237,205376,1,2,2:0:0:0:
326,258,205487,6,0,P|241:236|159:210,1,173.333333333333,8|0,1:2|2:0,2:0:0:0:
96,139,205820,2,0,P|92:96|120:64,1,86.6666666666666,2|0,2:0|2:0,2:0:0:0:
262,209,206043,5,2,3:2:0:0:
207,273,206154,2,0,B|181:288|181:288|148:290|148:290|139:312|139:312|135:310|135:310|126:331|126:331|96:334|96:334|70:348,1,173.333333333333,2|0,3:2|2:0,2:0:0:0:
68,216,206487,2,0,B|95:180|95:180|96:138|96:138|117:174|117:174|158:192,1,173.333333333333,2|0,3:2|2:0,2:0:0:0:
146,51,206820,6,0,P|89:110|11:85,1,173.333333333333,10|2,1:2|2:0,2:0:0:0:
159,44,207154,2,0,B|261:67|204:109|302:130,1,173.333333333333,2|2,2:0|2:0,2:0:0:0:
386,136,207487,6,0,P|440:74|408:0,1,173.333333333333,2|0,3:2|2:0,2:0:0:0:
291,140,207820,2,0,P|304:181|313:223,1,86.6666666666666,6|0,1:2|2:0,2:0:0:0:
368,327,208043,5,0,3:2:0:0:
440,296,208154,2,0,P|454:256|435:218,1,86.6666666666666,14|0,1:2|2:0,2:0:0:0:
372,344,208376,5,2,2:0:0:0:
448,379,208487,2,0,P|489:371|512:336,1,86.6666666666666,2|0,3:2|2:0,2:0:0:0:
313,223,208709,5,2,1:2:0:0:
254,272,208820,2,0,B|151:295|208:337|110:358,1,173.333333333333,2|0,3:2|3:2,2:0:0:0:
47,313,209154,5,6,1:2:0:0:
37,295,209265,1,2,2:0:0:0:
46,269,209376,1,2,2:0:0:0:
75,242,209487,1,10,1:2:0:0:
129,238,209598,1,8,2:3:0:0:
200,199,209709,1,8,2:3:0:0:
232,105,209820,1,8,2:3:0:0:
170,25,209932,1,4,2:3:0:0:
72,45,210043,1,4,2:3:0:0:
136,129,210154,6,0,P|239:161|344:187,1,216.666666666666,12|0,3:2|2:0,2:0:0:0:
351,183,210487,2,0,P|372:145|356:104,1,79.9999999999998,8|0,3:2|2:0,2:0:0:0:
118,209,210820,6,0,P|223:234|326:267,1,216.666666666666,8|0,3:2|2:0,2:0:0:0:
330,274,211154,2,0,P|338:312|318:345,1,79.9999999999998,8|0,3:2|2:0,2:0:0:0:
61,269,211487,6,0,P|164:236|269:210,1,216.666666666666,8|0,3:2|2:0,2:0:0:0:
277,212,211820,2,0,P|310:232|319:270,1,79.9999999999998,8|0,3:2|2:0,2:0:0:0:
36,189,212154,6,0,P|141:163|244:130,1,216.666666666666,8|0,3:2|2:0,2:0:0:0:
250,125,212487,2,0,P|261:87|242:53,1,79.9999999999998,8|0,3:2|2:0,2:0:0:0:
59,0,212820,6,0,L|117:208,1,216.666666666666,8|0,3:2|2:0,2:0:0:0:
125,210,213154,2,0,P|166:197|201:188,1,79.9999999999998,8|0,3:2|2:0,2:0:0:0:
332,384,213487,6,0,L|390:175,1,216.666666666666,8|0,3:2|2:0,2:0:0:0:
398,174,213820,2,0,P|436:186|474:196,1,79.9999999999998,8|0,3:2|2:0,2:0:0:0:
474,371,214154,6,0,B|345:341|417:289|294:262,1,216.666666666666,8|0,3:2|2:0,2:0:0:0:
286,265,214487,2,0,L|263:341,1,79.9999999999998,8|0,3:2|2:0,2:0:0:0:
0,254,214820,6,0,B|128:224|56:172|179:145,1,216.666666666666,8|0,3:2|2:0,2:0:0:0:
188,148,215154,2,0,L|210:224,1,79.9999999999998,8|0,3:2|2:0,2:0:0:0:
297,274,215487,6,0,P|332:254|343:215,1,83.3333333333333,12|0,3:2|2:0,2:0:0:0:
332,206,215820,2,0,P|296:225|285:264,1,83.3333333333333,8|0,3:2|2:0,2:0:0:0:
396,145,216154,6,0,P|404:95|421:48,1,99.9999999999998,8|0,3:2|2:0,2:0:0:0:
314,122,216487,2,0,P|331:75|339:25,1,99.9999999999998,8|0,3:2|2:0,2:0:0:0:
234,172,216820,6,0,P|174:177|135:131,1,125,8|0,3:2|2:0,2:0:0:0:
141,116,217154,2,0,P|200:110|239:156,1,125,8|0,3:2|2:0,2:0:0:0:
113,373,217487,6,0,P|100:299|75:228,1,150,8|0,3:2|2:0,2:0:0:0:
202,346,217820,2,0,P|176:275|164:201,1,150,8|0,3:2|2:0,2:0:0:0:
332,206,218154,6,0,B|441:231|380:275|483:298,1,183.333333333333,8|0,3:2|2:0,2:0:0:0:
341,195,218487,2,0,B|450:220|389:264|492:287,1,183.333333333333,8|0,3:2|2:0,2:0:0:0:
343,92,218820,6,0,B|213:122|285:174|164:200,1,216.666666666666,8|0,3:2|2:0,2:0:0:0:
332,79,219154,2,0,B|202:109|274:161|153:187,1,216.666666666666,8|0,3:2|2:0,2:0:0:0:
244,30,219487,5,8,3:2:0:0:
248,50,219598,1,0,1:2:0:0:
254,70,219709,1,0,1:2:0:0:
370,151,219820,5,8,1:2:0:0:
418,94,219932,1,0,1:2:0:0:
392,23,220043,1,0,1:2:0:0:
278,147,220154,5,8,3:2:0:0:
274,167,220265,1,0,1:2:0:0:
268,187,220376,1,0,1:2:0:0:
183,276,220487,5,8,1:2:0:0:
135,219,220598,1,8,2:3:0:0:
161,148,220709,1,4,2:3:0:0:
262,265,220820,6,0,P|302:265|330:235,1,83.9999999999998,12|0,3:2|2:0,2:0:0:0:
396,282,221154,2,0,P|416:246|405:206,1,83.9999999999998,8|0,3:2|2:0,2:0:0:0:
477,174,221487,2,0,P|456:138|413:128,1,83.9999999999998,8|0,3:2|2:0,2:0:0:0:
422,50,221820,2,0,P|381:49|351:80,1,83.9999999999998,8|0,3:2|2:0,2:0:0:0:
230,171,222154,6,0,P|182:154|130:144,1,100,8|0,3:2|2:0,2:0:0:0:
272,68,222487,2,0,P|255:115|244:163,1,100,8|0,3:2|2:0,2:0:0:0:
169,27,222820,2,0,P|216:43|266:53,1,100,8|0,3:2|2:0,2:0:0:0:
127,128,223154,2,0,P|143:80|153:29,1,100,8|0,3:2|2:0,2:0:0:0:
212,250,223487,6,0,B|270:274|270:274|308:223,1,125.333333333334,8|0,3:2|2:0,2:0:0:0:
137,306,223820,2,0,B|78:330|78:330|40:278,1,125.333333333334,8|0,3:2|2:0,2:0:0:0:
45,266,224154,2,0,B|103:241|103:241|140:291,1,125.333333333334,8|0,3:2|2:0,2:0:0:0:
306,212,224487,2,0,B|247:187|247:187|209:237,1,125.333333333334,8|0,3:2|2:0,2:0:0:0:
345,335,224820,6,0,P|413:315|427:243,1,150.666666666667,8|0,3:2|2:0,2:0:0:0:
421,230,225154,2,0,P|403:299|457:346,1,150.666666666667,8|0,3:2|2:0,2:0:0:0:
474,349,225487,2,0,P|423:299|354:321,1,150.666666666667,8|0,3:2|2:0,2:0:0:0:
345,335,225820,2,0,P|413:315|427:243,1,150.666666666667,8|0,3:2|2:0,2:0:0:0:
258,177,226154,6,0,P|285:89|303:-2,1,184,12|0,3:2|2:0,2:0:0:0:
344,199,226487,2,0,P|362:109|389:18,1,184,8|0,3:2|2:0,2:0:0:0:
191,242,226820,2,0,P|162:155|141:63,1,184,8|0,3:2|2:0,2:0:0:0:
98,268,227154,2,0,P|78:178|49:89,1,184,8|0,3:2|2:0,2:0:0:0:
256,292,227487,6,0,P|327:210|407:137,1,217.333333333333,8|0,3:2|2:0,2:0:0:0:
116,50,227820,2,0,P|150:152|173:258,1,217.333333333333,8|0,3:2|2:0,2:0:0:0:
388,54,228154,2,0,P|281:32|178:0,1,217.333333333333,8|0,3:2|2:0,2:0:0:0:
51,191,228487,2,0,P|154:158|260:136,1,217.333333333333,8|0,3:2|2:0,2:0:0:0:
372,217,228820,5,12,3:2:0:0:
367,225,228932,1,0,1:2:0:0:
361,217,229043,1,0,1:2:0:0:
439,165,229154,5,0,3:2:0:0:
465,236,229265,1,0,1:2:0:0:
417,293,229376,1,0,1:2:0:0:
329,353,229487,5,0,3:2:0:0:
325,362,229598,1,8,2:3:0:0:
334,362,229709,1,8,2:3:0:0:
280,286,229820,5,0,1:2:0:0:
206,272,229932,1,0,1:2:0:0:
158,330,230043,1,0,1:2:0:0:
65,357,230154,5,0,3:2:0:0:
61,341,230265,1,0,1:2:0:0:
57,325,230376,1,0,1:2:0:0:
123,251,230487,5,0,1:2:0:0:
131,219,230598,1,8,2:3:0:0:
139,187,230709,1,8,2:3:0:0:
0,132,230820,5,4,2:3:0:0:
73,145,230932,1,4,2:3:0:0:
121,87,231043,1,4,2:3:0:0:
209,35,231154,5,4,2:3:0:0:
260,25,231265,1,0,3:2:0:0:
293,66,231376,1,0,3:2:0:0:
335,162,231487,6,0,P|315:235|301:320,1,146.666666666667,6|2,3:2|2:0,2:0:0:0:
219,281,231820,2,0,P|239:208|253:123,1,146.666666666667,2|10,3:2|2:3,2:0:0:0:
369,87,232154,6,0,P|403:108|413:149,1,73.3333333333333,2|0,1:2|2:0,2:0:0:0:
402,214,232376,1,8,2:3:0:0:
340,262,232487,2,0,B|282:240|282:240|271:211|271:211|215:190,1,146.666666666667,6|6,2:3|2:3,2:0:0:0:
136,130,232820,6,0,P|134:95|154:62,1,73.3333333333333,2|0,3:2|2:0,2:0:0:0:
220,192,233043,1,2,1:2:0:0:
132,258,233154,6,0,P|92:199|13:196,1,146.666666666667,2|2,3:2|3:2,2:0:0:0:
62,326,233487,5,2,1:2:0:0:
142,265,233654,2,0,B|201:288|167:311|232:338,1,110,2|0,2:0|1:2,2:0:0:0:
294,368,233932,5,8,2:3:0:0:
340,342,234043,5,6,2:3:0:0:
382,320,234154,6,0,P|354:256|277:268,1,146.666666666667,2|0,3:2|1:2,2:0:0:0:
237,158,234487,2,0,P|306:165|334:93,1,146.666666666667,2|10,3:2|2:3,2:0:0:0:
443,222,234820,6,0,P|430:188|437:148,1,73.3333333333333,2|0,1:2|2:0,2:0:0:0:
490,97,235043,1,10,2:3:0:0:
457,29,235154,2,0,B|366:48|419:86|325:107,1,146.666666666667,6|6,2:3|2:3,2:0:0:0:
232,6,235487,6,0,P|270:16|292:52,1,73.3333333333333,2|0,3:2|2:0,2:0:0:0:
237,158,235709,1,2,1:2:0:0:
153,101,235820,6,0,P|89:136|103:206,1,146.666666666667,2|2,3:2|3:2,2:0:0:0:
198,269,236154,5,2,1:2:0:0:
37,354,236376,5,2,2:0:0:0:
64,282,236487,1,0,1:2:0:0:
153,101,236709,5,10,2:3:0:0:
237,158,236820,2,0,B|327:177|274:215|368:236,1,146.666666666667,6|0,3:2|2:0,2:0:0:0:
437,232,237154,2,0,B|346:251|399:289|305:310,1,146.666666666667,2|10,3:2|2:3,2:0:0:0:
179,368,237487,6,0,P|167:333|125:310,1,73.3333333333333,0|0,1:2|2:0,2:0:0:0:
64,282,237709,1,10,2:3:0:0:
31,211,237820,2,0,B|88:189|88:189|99:160|99:160|155:139,1,146.666666666667,6|6,2:3|2:3,2:0:0:0:
252,67,238154,6,0,P|210:53|164:33,1,73.3333333333333,2|0,3:2|2:0,2:0:0:0:
229,158,238376,1,2,1:2:0:0:
338,136,238487,6,0,B|428:155|375:193|469:214,1,146.666666666667,2|2,3:2|3:2,2:0:0:0:
376,315,238820,5,2,1:2:0:0:
274,273,238987,2,0,B|205:287|245:316|173:332,1,110,2|0,2:0|1:2,2:0:0:0:
115,281,239265,5,8,2:3:0:0:
127,229,239376,5,6,2:3:0:0:
140,180,239487,6,0,B|197:156|197:156|215:120|215:120|293:93,1,173.333333333333,2|2,3:2|2:0,2:0:0:0:
380,102,239820,2,0,B|322:78|322:78|304:42|304:42|226:15,1,173.333333333333,2|10,3:2|2:3,2:0:0:0:
99,89,240154,6,0,P|69:59|72:9,1,86.6666666666666,2|0,1:2|2:0,2:0:0:0:
151,29,240376,1,10,2:3:0:0:
205,92,240487,2,0,B|170:199|239:168|206:272,1,173.333333333333,6|6,2:3|2:3,2:0:0:0:
165,328,240820,5,2,3:2:0:0:
371,198,241043,5,2,1:2:0:0:
442,236,241154,1,2,3:2:0:0:
297,132,241376,5,2,3:2:0:0:
225,175,241487,1,6,1:2:0:0:
340,31,241709,5,2,2:0:0:0:
413,70,241820,1,2,1:2:0:0:
510,195,242043,5,10,2:3:0:0:
457,244,242154,2,0,B|360:264|417:305|317:327,1,146.666666666667,6|2,3:2|2:0,2:0:0:0:
381,384,242487,2,0,B|301:360|357:326|261:303,1,146.666666666667,2|10,3:2|2:3,2:0:0:0:
190,333,242820,2,0,P|247:284|220:211,1,146.666666666667,0|10,1:2|2:3,2:0:0:0:
126,92,243376,1,6,2:3:0:0:
207,42,243487,6,0,B|303:62|246:103|346:125,1,146.666666666667,2|2,3:2|1:2,2:0:0:0:
404,115,243820,2,0,B|307:135|364:176|264:198,1,146.666666666667,2|2,3:2|3:2,2:0:0:0:
207,177,244154,2,0,P|274:209|264:293,1,146.666666666667,2|0,1:2|2:0,2:0:0:0:
208,315,244487,2,0,P|174:300|133:284,2,73.3333333333333,2|8|6,1:2|2:3|2:3,2:0:0:0:
309,384,244820,6,0,B|364:361|364:361|379:331|379:331|446:304,1,146.666666666667,2|2,3:2|2:0,2:0:0:0:
506,326,245154,2,0,P|439:286|454:209,1,146.666666666667,2|10,3:2|2:3,2:0:0:0:
504,117,245487,1,2,1:2:0:0:
504,117,245820,2,0,P|430:95|356:63,1,146.666666666667,6|6,2:3|2:3,2:0:0:0:
292,0,246154,5,2,3:2:0:0:
169,127,246376,5,2,1:2:0:0:
239,94,246487,1,2,3:2:0:0:
346,211,246709,5,2,3:2:0:0:
253,175,246820,2,0,B|204:199|204:199|190:237|190:237|134:268,1,146.666666666667,6|0,1:2|2:0,2:0:0:0:
64,258,247154,2,0,P|130:280|131:361,1,146.666666666667,2|8,1:2|2:3,2:0:0:0:
57,343,247487,5,4,3:2:0:0:
57,343,247820,6,0,P|127:313|198:291,1,146.666666666667,2|0,3:2|2:0,2:0:0:0:
278,309,248154,2,0,P|217:263|162:212,1,146.666666666667,2|0,3:2|2:0,2:0:0:0:
133,141,248487,2,0,P|123:216|107:289,1,146.666666666667,2|0,3:2|2:0,2:0:0:0:
223,379,248820,6,0,B|323:347|260:313|373:288,1,173.333333333333,2|0,3:2|2:0,2:0:0:0:
453,308,249154,2,0,B|353:276|416:242|303:217,1,173.333333333333,2|0,3:2|2:0,2:0:0:0:
207,218,249487,2,0,B|307:186|244:152|357:127,1,173.333333333333,2|0,3:2|2:0,2:0:0:0:
482,119,249820,2,0,B|382:87|445:53|332:28,1,173.333333333333,2|2,1:2|2:0,2:0:0:0:
252,69,250154,5,6,3:2:0:0:
117,121,250376,1,2,1:2:0:0:
54,71,250487,2,0,P|75:145|90:234,1,146.666666666667,2|2,3:2|3:2,2:0:0:0:
217,307,250820,6,0,P|287:299|313:229,1,146.666666666667,2|2,1:2|2:0,2:0:0:0:
168,243,251154,2,0,P|195:178|265:170,1,146.666666666667,6|2,1:2|2:0,2:0:0:0:
396,244,251489,5,2,1:2:0:0:
319,109,251727,5,2,1:2:0:0:
467,16,251965,5,0,1:2:0:0:
405,101,252184,6,0,P|338:73|252:30,1,140,2|0,1:2|2:0,2:0:0:0:
291,182,252406,6,0,P|348:137|428:84,1,140,0|0,1:2|2:0,2:0:0:0:
277,43,252628,6,0,P|286:115|292:211,1,140,0|0,1:2|2:0,2:0:0:0:
121,204,262155,6,0,P|140:260|151:330,1,110,2|2,2:0|2:0,2:0:0:0:
226,226,262710,1,2,2:0:0:0:
241,230,262821,2,0,B|268:205|314:219,1,73.3333333333333,2|0,2:0|2:0,2:0:0:0:
348,344,263155,2,0,P|348:299|365:279,1,73.3333333333333,2|2,2:0|2:0,2:0:0:0:
439,226,263488,1,2,2:0:0:0:
458,199,263710,2,0,B|406:193|418:158|327:150,1,110,2|2,2:0|2:0,2:0:0:0:
272,69,264377,1,2,2:0:0:0:
267,85,264488,2,0,P|228:95|199:119,1,73.3333333333333,2|2,2:0|2:0,2:0:0:0:
56,163,264821,6,0,P|92:172|111:211,1,73.3333333333333,2|0,2:0|2:0,2:0:0:0:
190,205,265155,2,0,P|196:233|173:278,1,73.3333333333333,2|0,2:0|2:0,2:0:0:0:
93,352,265488,2,0,B|85:295|50:311|47:242,1,110,2|2,2:0|2:0,2:0:0:0:
131,119,266043,1,2,2:0:0:0:
146,115,266155,2,0,P|161:72|175:45,1,73.3333333333333,2|0,2:0|2:0,2:0:0:0:
184,33,266488,2,0,P|240:24|281:69,1,110,2|2,2:0|2:0,2:0:0:0:
276,57,267043,1,2,2:0:0:0:
452,317,267488,6,0,P|407:300|377:296,1,73.3333333333333,2|0,2:0|2:0,2:0:0:0:
227,305,267821,2,0,P|248:344|279:360,1,73.3333333333333,2|0,2:0|2:0,2:0:0:0:
302,278,268155,2,0,P|306:230|329:170,1,110,2|0,2:0|2:0,2:0:0:0:
327,172,268710,1,2,2:0:0:0:
338,180,268821,2,0,P|359:170|413:160,1,73.3333333333333,2|2,2:0|2:0,2:0:0:0:
328,89,269155,2,0,P|294:74|258:65,1,73.3333333333333,2|0,2:0|2:0,2:0:0:0:
138,12,269488,2,0,P|173:41|180:82,1,73.3333333333333,2|2,2:0|2:0,2:0:0:0:
221,290,270155,6,0,B|170:303|176:330|121:335,1,110,2|2,2:0|2:0,2:0:0:0:
43,377,270710,1,0,2:0:0:0:
54,384,270821,2,0,L|39:306,1,73.3333333333333,2|2,2:0|2:0,2:0:0:0:
2,237,271155,2,0,L|19:161,1,73.3333333333333,2|0,2:0|2:0,2:0:0:0:
21,75,271488,1,2,2:0:0:0:
54,86,271710,2,0,B|99:70|99:70|118:77|118:77|158:62,1,110,2|2,2:0|2:0,2:0:0:0:
259,18,272155,2,0,B|240:73|240:73|289:112,1,110,2|0,2:0|2:0,2:0:0:0:
187,139,272710,5,2,2:0:0:0:
186,153,272821,2,0,L|253:203,1,73.3333333333333,2|2,2:0|2:0,2:0:0:0:
221,269,273155,2,0,P|252:278|290:257,1,73.3333333333333,2|2,2:0|2:0,2:0:0:0:
384,185,273488,6,0,P|372:242|372:265,1,73.3333333333333,2|0,2:0|2:0,2:0:0:0:
401,376,273821,2,0,P|419:341|454:328,1,73.3333333333333,2|2,2:0|2:0,2:0:0:0:
463,322,274155,2,0,B|479:290|479:290|463:252,1,73.3333333333333,2|2,2:0|2:0,2:0:0:0:
496,188,274488,1,2,2:0:0:0:
496,188,274710,2,0,B|436:169|456:141|402:129,1,110,2|0,2:0|2:0,2:0:0:0:
131,95,275377,5,0,2:0:0:0:
95,172,275488,2,0,P|128:144|217:86,1,150,2|0,2:0|2:0,2:0:0:0:
465,239,278155,5,10,2:3:0:0:
391,273,278266,1,8,2:3:0:0:
339,210,278377,1,4,2:3:0:0:
461,254,278488,5,6,2:3:0:0:
387,288,278599,1,0,3:2:0:0:
335,225,278710,1,6,2:3:0:0:
409,177,278821,6,0,P|430:93|456:10,1,173.333333333333,6|2,3:2|2:0,2:0:0:0:
95,172,279155,6,0,P|121:254|142:338,1,173.333333333333,6|2,1:2|2:0,2:0:0:0:
305,86,279488,6,0,B|202:62|259:20|161:0,1,173.333333333333,6|0,3:2|2:0,2:0:0:0:
12,165,280043,1,2,2:0:0:0:
28,168,280155,2,0,P|70:176|111:188,1,86.6666666666666,8|0,1:2|2:0,2:0:0:0:
256,289,280377,1,2,2:0:0:0:
183,349,280488,2,0,P|174:306|162:265,1,86.6666666666666,2|0,2:0|2:0,2:0:0:0:
284,73,280710,1,2,2:0:0:0:
205,186,280821,6,0,P|282:159|293:78,1,173.333333333333,2|0,3:2|2:0,2:0:0:0:
207,28,281155,2,0,P|166:42|124:52,1,86.6666666666666,2|0,2:0|2:0,2:0:0:0:
300,191,281377,5,2,2:0:0:0:
374,149,281488,2,0,P|384:106|398:65,1,86.6666666666666,10|0,1:2|2:0,2:0:0:0:
289,197,281710,1,2,2:0:0:0:
345,258,281821,2,0,P|384:272|422:253,1,86.6666666666666,2|0,2:0|2:0,2:0:0:0:
280,203,282043,5,2,3:2:0:0:
148,282,282155,2,0,P|107:268|65:258,1,86.6666666666666,2|0,3:2|2:0,2:0:0:0:
213,156,282377,2,0,B|181:257|247:228|216:324,1,173.333333333333,2|0,2:0|2:0,2:0:0:0:
284,373,282710,1,2,2:0:0:0:
461,331,282821,6,0,P|377:352|294:378,1,173.333333333333,8|0,1:2|2:0,2:0:0:0:
383,173,283155,2,0,P|415:200|417:242,1,86.6666666666666,0|0,1:2|2:0,2:0:0:0:
381,312,283377,1,2,1:2:0:0:
239,165,283488,6,0,B|304:140|304:140|317:107|317:107|381:83,1,173.333333333333,6|0,3:2|2:0,2:0:0:0:
237,253,283821,2,0,B|172:228|172:228|159:195|159:195|95:171,1,173.333333333333,2|0,2:0|2:0,2:0:0:0:
207,0,284155,6,0,P|284:26|295:107,1,173.333333333333,10|0,1:2|2:0,2:0:0:0:
225,148,284488,2,0,P|189:124|182:83,1,86.6666666666666,2|0,2:0|2:0,2:0:0:0:
406,0,284710,5,2,3:2:0:0:
467,74,284821,2,0,P|440:156|419:240,1,173.333333333333,2|2,3:2|2:0,2:0:0:0:
225,148,285155,2,0,P|267:139|308:127,1,86.6666666666666,2|0,3:2|2:0,2:0:0:0:
163,287,285377,5,2,2:0:0:0:
179,291,285488,2,0,P|221:299|262:311,1,86.6666666666666,10|0,1:2|2:0,2:0:0:0:
100,114,285710,1,2,2:0:0:0:
32,160,285821,2,0,P|13:197|27:237,1,86.6666666666666,2|0,2:0|2:0,2:0:0:0:
213,132,286043,1,2,2:0:0:0:
129,22,286155,6,0,P|120:64|108:105,1,86.6666666666666,2|0,3:2|2:0,2:0:0:0:
244,225,286377,1,2,2:0:0:0:
107,384,286488,2,0,P|98:341|86:299,1,86.6666666666666,6|0,1:2|2:0,2:0:0:0:
213,132,286710,5,2,2:0:0:0:
369,300,286821,2,0,P|326:308|284:320,1,86.6666666666666,14|0,1:2|2:0,2:0:0:0:
478,140,287043,1,2,2:0:0:0:
422,65,287155,2,0,P|379:56|337:44,1,86.6666666666666,2|0,3:2|2:0,2:0:0:0:
434,217,287377,1,2,1:2:0:0:
255,212,287488,6,0,B|355:180|326:245|423:215,1,173.333333333333,2|0,3:2|3:2,2:0:0:0:
268,4,287821,2,0,P|199:50|212:131,1,173.333333333333,6|0,1:2|2:0,2:0:0:0:
36,297,288155,5,10,1:2:0:0:
95,238,288266,1,8,2:3:0:0:
178,259,288377,1,8,2:3:0:0:
142,337,288488,5,8,2:3:0:0:
127,351,288599,1,4,2:3:0:0:
106,346,288710,1,4,2:3:0:0:
11,213,288821,6,0,P|38:130|59:46,1,173.333333333333,6|2,3:2|2:0,2:0:0:0:
234,0,289154,2,0,P|253:37|239:77,1,86.6666666666666,2|0,3:2|2:0,2:0:0:0:
171,115,289377,1,0,2:0:0:0:
255,212,289488,6,0,P|337:212|374:139,1,173.333333333333,10|2,1:2|2:0,2:0:0:0:
441,88,289821,2,0,B|395:53|406:14|406:14|395:53|342:60,1,173.333333333333,2|0,3:2|3:2,2:0:0:0:
421,241,290154,6,0,P|460:255|498:236,1,86.6666666666666,2|0,3:2|2:0,2:0:0:0:
296,143,290377,1,0,2:0:0:0:
255,212,290488,2,0,P|266:253|275:296,1,86.6666666666666,2|0,3:2|2:0,2:0:0:0:
70,193,290710,1,2,2:0:0:0:
183,107,290821,6,0,P|155:189|134:273,1,173.333333333333,8|2,1:2|2:0,2:0:0:0:
3,311,291154,2,0,B|81:278|81:278|135:348,1,173.333333333333,2|2,3:2|3:2,2:0:0:0:
215,351,291488,6,0,B|293:384|293:384|347:314,1,173.333333333333,6|2,3:2|2:0,2:0:0:0:
408,254,291821,2,0,P|396:212|387:169,1,86.6666666666666,2|0,3:2|2:0,2:0:0:0:
246,65,292043,1,0,2:0:0:0:
302,11,292154,2,0,P|343:13|371:45,1,86.6666666666666,10|0,1:2|2:0,2:0:0:0:
255,212,292377,1,2,2:0:0:0:
187,182,292488,2,0,P|145:193|102:202,1,86.6666666666666,2|0,3:2|2:0,2:0:0:0:
317,122,292710,5,2,3:2:0:0:
387,169,292821,2,0,P|428:166|456:134,1,86.6666666666666,6|0,3:2|2:0,2:0:0:0:
312,108,293043,1,0,1:2:0:0:
250,227,293154,2,0,P|261:268|270:311,1,86.6666666666666,2|0,3:2|2:0,2:0:0:0:
113,210,293377,1,2,2:0:0:0:
40,384,293488,6,0,B|142:361|84:319|183:297,1,173.333333333333,8|0,1:2|2:0,2:0:0:0:
250,227,293821,2,0,P|247:185|215:157,1,86.6666666666666,4|0,1:2|2:0,2:0:0:0:
141,129,294043,1,2,1:2:0:0:
190,308,294154,6,0,P|274:328|356:356,1,173.333333333333,6|2,3:2|2:0,2:0:0:0:
435,307,294488,2,0,P|476:235|431:167,1,173.333333333333,2|0,3:2|2:0,2:0:0:0:
386,98,294821,2,0,P|344:109|301:118,1,86.6666666666666,2|0,1:2|2:0,2:0:0:0:
125,49,295043,1,2,2:0:0:0:
196,0,295154,2,0,P|204:42|216:84,1,86.6666666666666,2|0,3:2|2:0,2:0:0:0:
60,231,295377,5,2,3:2:0:0:
0,177,295488,2,0,P|78:151|136:209,1,173.333333333333,2|0,3:2|2:0,2:0:0:0:
206,268,295821,2,0,B|271:243|271:243|284:210|284:210|348:186,1,173.333333333333,2|0,3:2|2:0,2:0:0:0:
424,234,296154,6,0,B|457:312|457:312|387:366,1,173.333333333333,10|0,1:2|2:0,2:0:0:0:
192,262,296488,2,0,P|203:220|212:177,1,86.6666666666666,0|0,3:2|2:0,2:0:0:0:
274,120,296710,1,2,3:2:0:0:
97,3,296821,6,0,P|108:44|117:87,1,86.6666666666666,6|0,3:2|2:0,2:0:0:0:
75,151,297043,1,2,1:2:0:0:
306,29,297154,2,0,P|294:70|285:113,1,86.6666666666666,2|0,1:2|3:2,2:0:0:0:
328,177,297377,1,0,1:2:0:0:
167,333,297488,5,10,3:2:0:0:
192,262,297599,1,0,1:2:0:0:
265,249,297710,1,0,1:2:0:0:
403,302,297821,5,2,1:2:0:0:
329,315,297932,1,0,1:2:0:0:
281,259,298043,1,2,1:2:0:0:
342,176,298154,6,0,P|394:127|381:29,1,163,6|0,3:2|2:0,2:0:0:0:
380,24,298377,2,0,P|395:94|487:132,1,163,6|0,3:2|2:0,2:0:0:0:
492,132,298599,2,0,P|423:110|344:170,1,163,4|0,3:2|2:0,2:0:0:0:
289,246,298821,6,0,B|185:223|243:180|145:159,1,173.333333333333,14|0,1:2|2:0,2:0:0:0:
96,33,299154,1,0,1:2:0:0:
167,7,299266,1,0,1:2:0:0:
224,55,299377,1,2,1:2:0:0:
145,159,299488,6,0,B|41:182|99:225|1:246,1,173.333333333333,6|0,3:2|2:0,2:0:0:0:
162,377,299821,2,0,P|182:293|210:211,1,173.333333333333,2|0,2:0|2:0,2:0:0:0:
28,93,300154,6,0,P|39:135|48:178,1,86.6666666666666,10|0,1:2|2:0,2:0:0:0:
107,232,300377,1,2,2:0:0:0:
224,138,300488,2,0,P|304:117|358:178,1,173.333333333333,2|2,3:2|3:2,2:0:0:0:
308,330,300821,6,0,P|299:287|288:245,1,86.6666666666666,2|0,3:2|2:0,2:0:0:0:
424,383,301043,2,0,P|444:299|472:217,1,173.333333333333,2|0,2:0|2:0,2:0:0:0:
430,143,301377,1,2,2:0:0:0:
321,38,301488,6,0,P|342:117|422:134,1,173.333333333333,8|0,1:2|2:0,2:0:0:0:
288,245,301821,2,0,B|184:268|242:311|144:332,1,173.333333333333,2|0,3:2|1:2,2:0:0:0:
36,169,302154,6,0,B|82:134|71:95|71:95|82:134|136:141,1,173.333333333333,2|0,3:2|2:0,2:0:0:0:
240,75,302488,2,0,P|212:42|170:39,1,86.6666666666666,2|0,2:0|2:0,2:0:0:0:
228,162,302710,5,2,2:0:0:0:
324,115,302821,2,0,P|338:75|320:37,1,86.6666666666666,10|0,1:2|2:0,2:0:0:0:
218,172,303043,1,0,2:0:0:0:
299,253,303154,2,0,P|340:242|383:233,1,86.6666666666666,2|0,3:2|2:0,2:0:0:0:
240,75,303377,5,2,3:2:0:0:
325,23,303488,2,0,P|366:33|409:42,1,86.6666666666666,2|0,3:2|2:0,2:0:0:0:
209,183,303710,1,2,1:2:0:0:
138,135,303821,2,0,P|123:95|141:57,1,86.6666666666666,0|0,3:2|2:0,2:0:0:0:
310,241,304043,5,2,2:0:0:0:
248,320,304154,2,0,P|164:340|82:368,1,173.333333333333,8|0,1:2|2:0,2:0:0:0:
321,231,304488,2,0,P|362:241|405:250,1,86.6666666666666,2|0,1:2|2:0,2:0:0:0:
486,268,304710,1,2,1:2:0:0:
362,104,304821,6,0,B|297:129|297:129|284:162|284:162|220:186,1,173.333333333333,6|0,3:2|2:0,2:0:0:0:
138,135,305154,2,0,P|138:52|211:15,1,173.333333333333,2|0,3:2|2:0,2:0:0:0:
141,228,305488,6,0,B|76:203|76:203|63:170|63:170|-1:146,1,173.333333333333,10|0,1:2|2:0,2:0:0:0:
213,378,305821,2,0,P|245:350|248:308,1,86.6666666666666,2|0,3:2|2:0,2:0:0:0:
149,218,306043,1,2,1:2:0:0:
0,362,306154,6,0,P|81:333|166:313,1,173.333333333333,2|0,3:2|2:0,2:0:0:0:
304,166,306488,2,0,P|262:176|219:185,1,86.6666666666666,2|0,3:2|2:0,2:0:0:0:
369,353,306710,5,0,2:0:0:0:
372,336,306821,2,0,P|380:293|391:251,1,86.6666666666666,10|0,1:2|2:0,2:0:0:0:
507,161,307043,2,0,P|424:160|387:87,1,173.333333333333,2|0,2:0|2:0,2:0:0:0:
345,18,307377,5,2,3:2:0:0:
212,112,307488,2,0,P|222:153|231:196,1,86.6666666666666,2|0,3:2|2:0,2:0:0:0:
295,84,307710,1,2,2:0:0:0:
218,30,307821,2,0,P|175:26|143:53,1,86.6666666666666,2|0,3:2|2:0,2:0:0:0:
31,166,308043,5,2,3:2:0:0:
0,74,308154,2,0,P|10:115|19:158,1,86.6666666666666,14|0,1:2|2:0,2:0:0:0:
167,320,308377,1,0,2:0:0:0:
235,211,308488,2,0,B|131:234|189:277|91:298,1,173.333333333333,6|0,1:2|2:0,2:0:0:0:
181,140,308821,6,0,B|259:107|259:107|313:177,1,173.333333333333,2|0,3:2|1:2,2:0:0:0:
286,281,309154,2,0,B|208:314|208:314|154:244,1,173.333333333333,6|0,3:2|2:0,2:0:0:0:
371,252,309488,5,10,2:3:0:0:
451,274,309599,1,8,2:3:0:0:
512,214,309710,1,8,2:3:0:0:
418,136,309821,5,4,2:3:0:0:
424,162,309932,1,4,2:3:0:0:
431,187,310043,1,4,2:3:0:0:
503,113,310154,6,0,P|418:93|337:64,1,173.333333333333,6|2,3:2|2:0,2:0:0:0:
266,110,310488,2,0,B|298:211|231:182|262:278,1,173.333333333333,2|2,3:2|2:0,2:0:0:0:
314,339,310821,2,0,P|353:352|392:334,1,86.6666666666666,14|0,1:2|2:0,2:0:0:0:
228,205,311043,1,2,2:0:0:0:
172,258,311154,2,0,P|182:300|191:343,1,86.6666666666666,2|0,3:2|2:0,2:0:0:0:
279,118,311377,5,0,1:2:0:0:
218,41,311488,2,0,P|176:28|134:14,1,86.6666666666666,2|0,3:2|2:0,2:0:0:0:
4,174,311710,2,0,P|85:144|169:125,1,173.333333333333,2|0,2:0|2:0,2:0:0:0:
229,185,312043,1,2,2:0:0:0:
108,331,312154,6,0,P|62:262|103:191,1,173.333333333333,8|0,1:2|2:0,2:0:0:0:
223,58,312488,2,0,B|145:25|145:25|91:95,1,173.333333333333,0|0,3:2|1:2,2:0:0:0:
240,192,312821,6,0,P|282:182|325:173,1,86.6666666666666,2|0,3:2|2:0,2:0:0:0:
456,21,313043,1,2,2:0:0:0:
382,42,313154,2,0,P|368:81|386:120,1,86.6666666666666,2|0,3:2|2:0,2:0:0:0:
512,257,313377,5,2,2:0:0:0:
447,310,313488,2,0,P|404:301|362:291,1,86.6666666666666,10|0,1:2|2:0,2:0:0:0:
229,185,313710,1,2,2:0:0:0:
160,234,313821,2,0,P|141:272|155:312,1,86.6666666666666,2|0,3:2|2:0,2:0:0:0:
334,180,314043,1,0,3:2:0:0:
298,30,314154,6,0,P|288:72|279:115,1,86.6666666666666,2|0,3:2|2:0,2:0:0:0:
79,206,314377,1,2,1:2:0:0:
12,64,314488,2,0,B|77:89|77:89|90:122|90:122|154:146,1,173.333333333333,2|0,3:2|2:0,2:0:0:0:
68,337,314821,6,0,P|33:313|24:271,1,86.6666666666666,10|0,1:2|2:0,2:0:0:0:
162,140,315043,1,2,2:0:0:0:
229,185,315154,2,0,P|239:227|248:270,1,86.6666666666666,0|0,1:2|2:0,2:0:0:0:
427,384,315377,5,0,1:2:0:0:
491,328,315488,2,0,P|490:245|406:215,1,183.333333333333,14|0,3:2|2:0,2:0:0:0:
335,183,315821,2,0,P|253:155|250:69,1,183.333333333333,10|0,3:2|2:0,2:0:0:0:
359,12,316154,6,0,P|337:101|318:190,1,183.333333333333,10|0,3:2|2:0,2:0:0:0:
229,185,316488,2,0,P|250:274|269:363,1,183.333333333333,10|0,3:2|2:0,2:0:0:0:
162,141,316821,6,0,P|76:151|58:273,1,216.666666666666,8|0,3:2|2:0,2:0:0:0:
126,306,317154,2,0,B|256:277|183:223|306:197,1,216.666666666666,10|0,3:2|2:0,2:0:0:0:
372,128,317488,6,0,P|457:138|475:260,1,216.666666666666,10|0,3:2|2:0,2:0:0:0:
408,293,317821,2,0,B|277:264|350:210|227:184,1,216.666666666666,8|0,3:2|2:0,2:0:0:0:
68,123,318154,6,0,B|140:67|123:6|123:6|140:67|224:78,1,271.666666666666,10|0,3:2|2:0,2:0:0:0:
303,91,318488,2,0,B|364:150|491:65|432:-41|350:-11|347:34,1,271.666666666666,10|0,3:2|2:0,2:0:0:0:
471,218,318821,2,0,P|481:164|493:111,1,108.666666666667,10|0,1:2|2:0,2:0:0:0:
334,312,319043,1,2,1:2:0:0:
246,272,319154,2,0,P|235:218|223:165,1,108.666666666667,2|0,1:2|2:0,2:0:0:0:
470,365,319377,5,6,3:2:0:0:
10,24,320821,6,0,P|61:39|113:51,1,106.666666666667,4|0,3:2|2:0,2:0:0:0:
224,177,321377,1,2,2:0:0:0:
159,233,321488,2,0,P|115:212|111:165,1,99.9999999999999,8|0,1:2|2:0,2:0:0:0:
168,242,321821,2,0,P|153:289|142:338,1,99.9999999999999,2|0,2:0|3:2,2:0:0:0:
50,276,322154,6,0,P|45:251|38:227,1,50,0|0,3:2|2:0,2:0:0:0:
237,166,322488,6,0,P|242:141|249:117,1,50,0|0,3:2|2:0,2:0:0:0:
340,296,322821,6,0,P|383:316|422:288,1,99.9999999999999,8|2,1:2|2:0,2:0:0:0:
474,231,323154,2,0,P|466:205|460:179,1,53.3333333333333,0|0,2:0|2:0,2:0:0:0:
488,235,323488,6,0,P|467:162|450:89,1,150,2|0,3:2|2:0,2:0:0:0:
237,166,324043,1,2,2:0:0:0:
244,172,324099,1,2,2:0:0:0:
251,179,324154,2,0,P|299:190|347:204,1,99.9999999999999,10|2,1:2|2:0,2:0:0:0:
364,117,324488,2,0,P|315:105|267:91,1,99.9999999999999,2|2,2:0|3:2,2:0:0:0:
186,48,324821,6,0,P|181:23|174:-1,1,50,2|0,3:2|2:0,2:0:0:0:
0,108,325043,5,2,1:2:0:0:
75,156,325154,2,0,P|80:131|87:107,1,50,0|0,3:2|2:0,2:0:0:0:
213,293,325488,6,0,B|154:306|187:330|129:342,1,99.9999999999999,8|0,1:2|2:0,2:0:0:0:
222,282,325821,2,0,B|281:295|248:319|306:331,1,99.9999999999999,2|0,1:2|1:2,2:0:0:0:
385,304,326154,6,0,P|402:235|346:190,1,150,6|0,3:2|2:0,2:0:0:0:
186,48,326710,1,2,2:0:0:0:
277,25,326821,2,0,P|263:73|251:121,1,99.9999999999999,10|0,1:2|2:0,2:0:0:0:
175,159,327154,2,0,B|116:146|149:122|91:110,1,99.9999999999999,2|2,2:0|3:2,2:0:0:0:
48,177,327488,6,0,P|23:182|-1:189,1,50,0|0,3:2|2:0,2:0:0:0:
161,344,327821,6,0,P|136:337|112:332,1,50,2|0,3:2|2:0,2:0:0:0:
262,211,328154,6,0,P|309:215|329:258,1,99.9999999999999,10|0,1:2|2:0,2:0:0:0:
394,304,328488,2,0,P|386:329|381:355,1,53.3333333333333,2|0,2:0|2:0,2:0:0:0:
408,293,328821,6,0,P|460:271|467:214,2,120,2|2|0,3:2|1:2|2:0,2:0:0:0:
305,86,329488,2,0,P|288:143|273:201,1,120,10|0,1:2|2:0,2:0:0:0:
123,307,329821,1,2,1:2:0:0:
56,265,329932,2,0,P|50:235|41:206,1,60,2|0,2:0|3:2,2:0:0:0:
168,71,330154,6,0,P|159:42|153:12,1,60,2|0,3:2|2:0,2:0:0:0:
0,138,330377,1,2,1:2:0:0:
9,115,330488,2,0,P|17:86|23:56,1,60,0|2,1:2|1:2,2:0:0:0:
185,192,330710,1,0,1:2:0:0:
195,180,330821,5,10,1:2:0:0:
239,167,330932,1,0,3:2:0:0:
273,201,331043,1,0,1:2:0:0:
343,261,331154,5,0,1:2:0:0:
387,274,331266,1,0,1:2:0:0:
421,240,331377,1,0,1:2:0:0:
468,167,331488,5,10,2:3:0:0:
463,155,331599,5,8,2:3:0:0:
470,144,331710,5,6,2:3:0:0:
482,145,331821,5,6,2:3:0:0:
488,157,331932,5,0,3:2:0:0:
481,166,332043,5,2,3:2:0:0:
387,108,332154,6,0,B|316:92|355:63|286:49,1,120,14|2,1:2|2:0,2:0:0:0:
206,72,332488,2,0,P|176:121|204:171,1,120,2|2,2:0|3:2,2:0:0:0:
266,223,332821,6,0,P|294:214|324:208,1,60,2|0,3:2|2:0,2:0:0:0:
135,345,333154,6,0,P|164:350|193:359,1,60,2|0,3:2|2:0,2:0:0:0:
40,229,333488,6,0,P|25:170|8:113,1,120,10|0,1:2|2:0,2:0:0:0:
120,38,333821,2,0,P|110:69|103:102,1,66.6666666666667,2|0,2:0|2:0,2:0:0:0:
135,31,334154,6,0,B|241:54|181:97|286:119,1,180,2|2,3:2|2:0,2:0:0:0:
467,32,334710,1,2,2:0:0:0:
376,0,334821,2,0,P|392:57|407:115,1,120,10|2,1:2|2:0,2:0:0:0:
363,178,335154,2,0,P|305:177|277:127,1,120,2|2,2:0|3:2,2:0:0:0:
215,77,335488,6,0,P|223:48|229:18,1,60,2|0,3:2|2:0,2:0:0:0:
113,171,335710,5,2,1:2:0:0:
46,136,335821,2,0,P|37:107|31:77,1,60,2|0,3:2|2:0,2:0:0:0:
203,284,336154,6,0,P|194:312|188:342,2,60,10|2|2,1:2|2:0|2:0,2:0:0:0:
138,238,336488,2,0,P|132:208|123:179,1,60,2|0,1:2|2:0,2:0:0:0:
288,291,336710,5,0,1:2:0:0:
357,248,336821,2,0,B|463:271|403:314|508:336,1,180,6|2,3:2|2:0,2:0:0:0:
405,173,337377,1,2,2:0:0:0:
476,121,337488,2,0,P|490:179|507:236,1,120,10|2,1:2|2:0,2:0:0:0:
369,89,337821,2,0,P|327:132|284:173,1,120,2|2,2:0|3:2,2:0:0:0:
357,248,338154,6,0,P|386:253|415:262,1,60,2|0,3:2|2:0,2:0:0:0:
212,353,338488,6,0,P|182:358|153:367,1,60,2|0,3:2|2:0,2:0:0:0:
149,166,338821,6,0,P|196:170|216:241,1,120,10|0,1:2|2:0,2:0:0:0:
137,157,339154,2,0,B|158:87|114:107|136:40,1,120,2|0,2:0|3:2,2:0:0:0:
200,2,339488,5,2,3:2:0:0:
79,219,339821,6,0,P|23:208|8:153,1,120,6|2,1:2|2:0,2:0:0:0:
231,247,340154,2,0,P|286:236|301:181,1,120,14|2,1:2|2:0,2:0:0:0:
144,282,340488,1,2,3:2:0:0:
284,61,340710,5,2,1:2:0:0:
273,66,340821,2,0,P|244:74|214:80,1,60,2|0,3:2|2:0,2:0:0:0:
344,119,341043,1,0,3:2:0:0:
383,0,341154,2,0,P|366:57|351:115,1,120,6|2,1:2|2:0,2:0:0:0:
497,237,341488,5,2,3:2:0:0:
453,224,341599,1,2,1:2:0:0:
419,258,341710,1,2,1:2:0:0:
349,318,341821,5,2,1:2:0:0:
305,331,341932,1,2,1:2:0:0:
271,297,342043,1,2,1:2:0:0:
325,243,342154,5,2,2:0:0:0:
256,192,342266,12,2,350154,2:0:0:0:
187,241,350488,6,0,P|258:217|331:200,1,150,0|0,3:2|2:0,2:0:0:0:
319,115,350821,6,0,P|231:143|142:165,1,183.333333333333,2|0,3:2|2:0,2:0:0:0:
255,302,351154,6,0,B|309:246|262:175|253:181|243:185|194:119|251:55,1,271.666666666666,2|0,3:2|2:0,2:0:0:0:
270,42,351488,6,0,B|325:118|264:184|254:179|244:171|184:244|238:311,1,300,2|0,3:2|2:0,2:0:0:0:
320,355,351821,6,0,P|385:331|346:192,1,240,6|0,2:3|2:0,2:0:0:0:
168,352,352154,5,2,1:2:0:0:
165,365,352266,1,0,1:2:0:0:
92,383,352377,1,2,1:2:0:0:
46,318,352488,2,0,P|56:282|62:245,1,73.3333333333333,0|0,1:2|2:0,2:0:0:0:
261,35,352710,5,6,3:2:0:0:
