osu file format v14

[General]
AudioFilename: audio.mp3
AudioLeadIn: 0
PreviewTime: 71623
Countdown: 0
SampleSet: Soft
StackLeniency: 0.7
Mode: 0
LetterboxInBreaks: 0
WidescreenStoryboard: 1

[Editor]
Bookmarks: 1829,14535,25829,37123,48417,59712,72417,95006,107712,119006,130300,143006,165594,176888,188182,199476,216417,223476,238829
DistanceSpacing: 1.32
BeatDivisor: 4
GridSize: 32
TimelineZoom: 1.4

[Metadata]
Title:Kimagure Romantic
TitleUnicode:気まぐれロマンティック
Artist:Inui Toko
ArtistUnicode:戌亥とこ
Creator:newton-
Version:Xenon's Hard
Source:セレブと貧乏太郎
Tags:xenon- xehn xen amateurre sanairrt imagination vol. 2 virtual youtuber vtuber nijisanji にじさんじ 2434 水野良樹 mizuno yoshiki いきものがかり ikimono gakari ikimono-gakari cover からかい上手の高木さん karakai jouzu no takagi-san the celebrity and poor tarou serebu to binbou tarou japanese pop jpop full version
BeatmapID:2437512
BeatmapSetID:1130251

[Difficulty]
HPDrainRate:5
CircleSize:3.8
OverallDifficulty:6.5
ApproachRate:8
SliderMultiplier:0.999999999999999
SliderTickRate:1

[Events]
//Background and Video events
0,0,"2434.jpg",0,0
//Break Periods
2,177087,187432
//Storyboard Layer 0 (Background)
//Storyboard Layer 1 (Fail)
//Storyboard Layer 2 (Pass)
//Storyboard Layer 3 (Foreground)
//Storyboard Layer 4 (Overlay)
//Storyboard Sound Samples

[TimingPoints]
418,352.941176470588,4,2,1,40,1,0
1123,-100,4,2,1,40,0,0
1829,-66.6666666666667,4,2,1,70,0,0
14535,-83.3333333333333,4,2,1,40,0,0
37123,-74.0740740740741,4,2,1,50,0,0
59006,-74.0740740740741,4,2,1,60,0,0
72417,-62.5,4,2,1,70,0,1
95006,-66.6666666666667,4,2,1,70,0,0
107712,-83.3333333333333,4,2,1,50,0,0
119006,-74.0740740740741,4,2,1,50,0,0
130300,-74.0740740740741,4,2,1,60,0,0
143006,-62.5,4,2,1,70,0,1
165594,-66.6666666666667,4,2,1,70,0,0
176888,-83.3333333333333,4,2,1,70,0,0
188182,-83.3333333333333,4,2,1,40,0,0
193829,-83.3333333333333,4,2,1,40,0,0
195241,-83.3333333333333,4,2,1,50,0,0
196653,-66.6666666666667,4,2,1,60,0,0
199829,-62.5,4,2,1,70,0,1
216417,-100,4,2,1,70,0,0
217829,-100,4,2,1,50,0,0
219241,-200,4,2,1,50,0,0
219329,-200,4,2,1,5,0,0
222065,-200,4,2,1,30,0,0
222417,-142.857142857143,4,2,1,30,0,0
223476,-83.3333333333333,4,2,1,50,0,0
224712,-74.0740740740741,4,2,1,70,0,0
226300,-66.6666666666667,4,2,1,70,0,0
238829,-90.9090909090909,4,2,1,70,0,0
239712,-90.9090909090909,4,2,1,5,0,0

[Colours]
Combo1 : 187,94,0
Combo2 : 248,73,90
Combo3 : 255,117,51
Combo4 : 170,85,85

[HitObjects]
105,110,1123,6,0,B|160:116|185:63|185:63|196:121|252:128,1,200,2|2,0:0|0:0,0:0:0:0:
170,181,2006,5,2,3:2:0:0:
168,196,2094,1,0,3:2:0:0:
166,212,2182,1,14,0:0:0:0:
222,270,2359,2,0,L|296:260,1,75.000002861023,2|8,0:0|0:0,0:0:0:0:
364,217,2712,1,2,3:2:0:0:
439,244,2888,1,10,0:0:0:0:
491,183,3065,6,0,P|492:145|476:112,1,75.000002861023,2|8,3:2|0:0,0:0:0:0:
410,67,3417,1,2,0:0:0:0:
339,105,3594,1,10,0:0:0:0:
281,49,3770,2,0,L|132:30,1,150.000005722046,2|2,0:0|3:2,0:0:0:0:
74,86,4300,1,10,0:0:0:0:
292,172,4653,6,0,P|308:205|306:242,1,75.000002861023,8|2,0:0|0:0,0:0:0:0:
254,302,5006,1,10,0:0:0:0:
179,275,5182,2,0,L|104:284,1,75.000002861023,2|8,0:0|0:0,0:0:0:0:
38,239,5535,1,2,3:2:0:0:
76,169,5712,1,10,0:0:0:0:
38,99,5888,6,0,P|104:131|178:128,1,150.000005722046,2|2,3:2|0:0,0:0:0:0:
246,86,6417,2,0,L|320:95,1,75.000002861023,10|0,0:0|0:0,0:0:0:0:
392,60,6770,1,10,0:0:0:0:
448,118,6947,1,0,3:1:0:0:
409,188,7123,1,8,0:0:0:0:
330,174,7300,1,2,3:2:0:0:
315,176,7388,1,0,3:2:0:0:
300,178,7476,6,0,B|226:167|236:230|162:220,1,150.000005722046,14|10,0:0|0:0,0:0:0:0:
101,272,8006,2,0,P|99:309|115:342,1,75.000002861023,2|8,0:0|0:0,0:0:0:0:
192,365,8359,1,2,3:2:0:0:
258,322,8535,1,10,0:0:0:0:
329,357,8712,6,0,L|432:344,1,75.000002861023,2|8,3:2|0:0,0:0:0:0:
459,291,9065,1,2,0:0:0:0:
412,226,9241,1,10,0:0:0:0:
457,160,9417,2,0,P|460:85|427:19,1,150.000005722046,2|2,0:0|3:2,0:0:0:0:
350,0,9947,1,10,0:0:0:0:
377,180,10300,6,0,P|343:163|306:165,1,75.000002861023,10|0,0:0|0:2,0:0:0:0:
289,243,10653,2,0,P|322:259|359:257,1,75.000002861023,10|2,0:0|0:2,0:0:0:0:
436,237,11006,1,10,0:0:0:0:
479,305,11182,1,0,3:2:0:0:
428,367,11359,1,10,0:0:0:0:
354,338,11535,1,0,3:2:0:0:
359,257,11712,6,0,B|285:267|295:204|221:214,1,150.000005722046,14|8,0:0|0:0,0:0:0:0:
156,261,12241,1,0,0:2:0:0:
94,210,12417,2,0,L|105:114,1,75.000002861023,8|0,0:0|3:2,0:0:0:0:
172,96,12770,2,0,L|166:48,3,37.5000014305115,10|2|2|2,0:0|0:0|3:2|0:0,0:0:0:0:
159,45,13123,6,0,B|232:34|222:97|296:87,1,150.000005722046,14|0,0:0|3:2,0:0:0:0:
359,36,13653,2,0,P|326:102|329:176,1,150.000005722046,8|2,0:2|3:2,0:0:0:0:
353,253,14182,1,2,3:2:0:0:
177,362,14535,6,0,B|118:370|126:320|67:329,2,119.999996337891,6|0|0,3:2|3:2|3:2,0:0:0:0:
245,321,15417,1,2,0:2:0:0:
293,384,15594,2,0,L|364:375,1,59.9999981689453,2|2,3:2|0:2,0:0:0:0:
401,314,15947,6,0,P|398:253|425:200,1,119.999996337891,2|2,0:0|3:2,0:0:0:0:
486,151,16476,1,2,0:2:0:0:
333,195,16829,2,0,L|213:180,1,119.999996337891,2|0,0:2|0:0,0:0:0:0:
155,125,17359,6,0,P|181:178|178:237,2,119.999996337891,0|0|0,3:2|3:2|3:2,0:0:0:0:
15,190,18417,2,0,P|13:219|26:246,1,59.9999981689453,0|0,3:2|0:0,0:0:0:0:
105,259,18770,6,0,L|90:378,1,119.999996337891,0|0,3:2|3:2,0:0:0:0:
170,373,19300,2,0,B|229:381|221:330|280:339,1,119.999996337891,0|2,0:0|0:0,0:0:0:0:
333,280,19829,2,0,P|319:253|321:223,1,59.9999981689453,2|2,3:2|0:0,0:0:0:0:
257,176,20182,6,0,L|399:193,2,119.999996337891,2|0|0,3:2|3:2|3:2,0:0:0:0:
194,224,21065,1,2,0:2:0:0:
127,180,21241,2,0,P|113:153|115:123,1,59.9999981689453,2|2,3:2|0:2,0:0:0:0:
38,101,21594,6,0,P|96:92|144:57,1,119.999996337891,2|2,0:0|3:2,0:0:0:0:
297,65,22300,1,0,3:2:0:0:
351,6,22476,2,0,L|470:21,1,119.999996337891,2|2,0:2|0:2,0:0:0:0:
512,90,23006,6,0,P|515:149|489:202,2,119.999996337891,0|0|0,3:2|3:2|3:2,0:0:0:0:
343,147,24065,2,0,P|341:176|354:203,1,59.9999981689453,0|0,3:2|0:0,0:0:0:0:
420,246,24417,6,0,L|300:231,1,119.999996337891,0|0,3:2|3:2,0:0:0:0:
259,163,24947,1,2,0:0:0:0:
299,94,25123,1,2,3:2:0:0:
241,38,25300,2,0,B|181:46|189:-4|130:4,1,119.999996337891,2|2,0:0|0:0,0:0:0:0:
69,54,25829,6,0,L|85:188,2,119.999996337891,4|0|0,3:2|3:2|0:0,0:0:0:0:
130,4,26712,1,2,0:0:0:0:
203,33,26888,1,2,3:2:0:0:
275,0,27065,6,0,P|328:26|387:23,1,119.999996337891,2|0,0:0|0:0,0:0:0:0:
454,67,27594,2,0,L|445:138,1,59.9999981689453,2|2,3:2|0:2,0:0:0:0:
486,195,27947,1,2,3:2:0:0:
442,261,28123,2,0,L|307:277,1,119.999996337891,2|0,0:0|0:0,0:0:0:0:
261,224,28653,6,0,P|287:277|284:336,2,119.999996337891,0|0|0,3:2|3:2|3:2,0:0:0:0:
189,190,29535,1,2,0:0:0:0:
118,227,29712,1,2,3:2:0:0:
52,183,29888,6,0,L|66:63,1,119.999996337891,2|0,0:0|0:0,0:0:0:0:
132,19,30417,2,0,P|161:17|188:30,1,59.9999981689453,2|0,3:2|0:0,0:0:0:0:
249,80,30770,1,2,3:2:0:0:
319,43,30947,2,0,P|378:40|431:66,1,119.999996337891,2|2,0:2|0:2,0:0:0:0:
453,142,31476,6,0,L|467:22,2,119.999996337891,0|0|0,3:2|3:2|3:2,0:0:0:0:
358,269,32535,1,2,3:2:0:0:
375,111,32888,6,0,P|315:108|262:134,1,119.999996337891,2|0,3:2|3:2,0:0:0:0:
142,239,33594,2,0,L|22:224,1,119.999996337891,0|0,3:2|3:2,0:0:0:0:
0,148,34123,1,2,0:2:0:0:
31,75,34300,6,0,L|150:60,1,119.999996337891,2|2,3:2|3:2,0:0:0:0:
214,107,34829,2,0,P|240:93|270:95,1,59.9999981689453,2|0,0:2|0:0,0:0:0:0:
333,143,35182,2,0,L|316:277,1,119.999996337891,2|2,0:2|0:2,0:0:0:0:
358,331,35712,5,2,3:2:0:0:
299,384,35888,2,0,B|239:392|247:341|188:350,1,119.999996337891,2|0,0:2|0:0,0:0:0:0:
124,303,36417,1,2,3:2:0:0:
56,345,36594,1,10,0:2:0:0:
3,286,36770,2,0,L|10:226,1,59.9999981689453,2|2,3:2|3:2,0:0:0:0:
13,213,37035,1,0,3:2:0:0:
15,200,37123,6,0,B|81:208|72:152|139:162,2,135.000000514984,6|0|2,3:2|3:2|3:2,0:0:0:0:
24,120,38006,2,0,P|9:90|10:57,1,67.500000257492,2|10,0:2|0:2,0:0:0:0:
75,9,38359,1,2,0:2:0:0:
148,38,38535,6,0,P|208:9|275:12,1,135.000000514984,2|2,3:2|3:2,0:0:0:0:
323,76,39065,2,0,L|418:87,1,67.500000257492,2|0,0:2|3:2,0:0:0:0:
440,145,39417,2,0,P|441:178|427:208,1,67.500000257492,2|8,0:2|0:2,0:0:0:0:
362,256,39770,1,2,0:2:0:0:
287,226,39947,6,0,B|220:216|229:272|162:263,1,135.000000514984,2|2,3:2|3:2,0:0:0:0:
107,205,40476,1,2,0:0:0:0:
109,190,40565,1,2,0:0:0:0:
111,175,40653,2,0,L|121:87,1,67.500000257492,2|0,3:2|0:0,0:0:0:0:
188,67,41006,1,8,0:2:0:0:
260,98,41182,6,0,P|320:69|387:72,1,135.000000514984
448,123,41712,1,2,3:2:0:0:
426,199,41888,2,0,L|434:265,1,67.500000257492
371,316,42241,1,2,0:0:0:0:
307,265,42417,2,0,L|316:199,1,67.500000257492,10|0,0:2|0:0,0:0:0:0:
264,137,42770,6,0,B|197:127|206:183|139:174,2,135.000000514984,2|0|0,3:2|3:2|3:2,0:0:0:0:
331,93,43653,2,0,P|345:62|343:29,1,67.500000257492,2|10,0:0|0:2,0:0:0:0:
270,0,44006,1,2,0:0:0:0:
218,60,44182,6,0,L|84:43,1,135.000000514984,2|2,3:2|3:2,0:0:0:0:
19,91,44712,2,0,P|4:121|6:154,1,67.500000257492,2|0,0:0|3:2,0:0:0:0:
58,213,45065,2,0,L|124:204,1,67.500000257492,2|8,0:0|0:2,0:0:0:0:
195,242,45417,1,2,0:0:0:0:
253,187,45594,6,0,P|249:120|278:59,1,135.000000514984,0|0,3:2|3:2,0:0:0:0:
350,24,46123,1,2,0:0:0:0:
365,26,46212,1,2,0:0:0:0:
380,28,46300,2,0,L|467:38,1,67.500000257492,2|0,3:2|0:0,0:0:0:0:
498,97,46653,1,8,0:2:0:0:
456,164,46829,6,0,P|484:224|481:291,1,135.000000514984,0|2,0:0|0:0,0:0:0:0:
424,346,47359,1,2,3:2:0:0:
349,318,47535,1,0,0:0:0:0:
285,366,47712,1,2,3:2:0:0:
211,335,47888,2,0,P|182:274|185:207,1,135.000000514984,2|2,0:0|0:0,0:0:0:0:
126,153,48417,6,0,L|108:10,2,135.000000514984,6|0|0,3:2|3:2|3:2,0:0:0:0:
185,207,49300,1,2,0:0:0:0:
248,159,49476,1,8,0:2:0:0:
311,208,49653,6,0,B|377:198|368:254|435:245,1,135.000000514984,2|0,0:0|0:0,0:0:0:0:
493,191,50182,1,2,3:2:0:0:
450,123,50359,2,0,L|460:35,1,67.500000257492,2|0,0:0|3:2,0:0:0:0:
390,12,50712,1,2,0:0:0:0:
326,60,50888,1,10,0:2:0:0:
256,19,51065,6,0,L|113:36,1,135.000000514984,2|0,0:0|0:0,0:0:0:0:
91,109,51594,2,0,P|119:169|116:236,1,135.000000514984,0|0,3:2|3:2,0:0:0:0:
177,287,52123,1,2,0:0:0:0:
250,255,52300,1,10,0:2:0:0:
313,302,52476,6,0,L|447:318,1,135.000000514984,2|0,0:0|0:0,0:0:0:0:
494,253,53006,1,2,3:2:0:0:
447,188,53182,2,0,L|313:205,1,135.000000514984,2|2,0:0|0:0,0:0:0:0:
250,255,53712,2,0,P|219:240|186:242,1,67.500000257492,8|2,0:2|0:0,0:0:0:0:
138,176,54065,6,0,L|154:310,2,135.000000514984,0|0|0,3:2|3:2|3:2,0:0:0:0:
288,124,55123,2,0,L|296:52,1,67.500000257492,10|0,0:2|0:0,0:0:0:0:
238,1,55476,6,0,B|171:-8|180:47|113:38,2,135.000000514984,2|0|0,3:2|3:2|3:2,0:0:0:0:
296,57,56359,1,0,0:0:0:0:
370,28,56535,1,8,0:2:0:0:
420,89,56712,1,2,0:0:0:0:
377,155,56888,6,0,L|393:289,1,135.000000514984,2|2,3:2|3:2,0:0:0:0:
327,334,57417,2,0,P|296:319|263:321,1,67.500000257492,2|0,0:0|3:2,0:0:0:0:
196,364,57770,1,2,0:0:0:0:
137,309,57947,2,0,L|145:237,1,67.500000257492,10|2,0:2|0:0,0:0:0:0:
209,194,58300,5,6,3:2:0:0:
272,241,58476,2,0,B|338:249|329:193|396:203,1,135.000000514984
468,226,59006,1,8,0:2:0:0:
512,161,59182,1,2,3:2:0:0:
463,99,59359,1,8,0:2:0:0:
389,126,59535,1,10,0:2:0:0:
396,203,59712,6,0,B|329:193|338:249|272:241,1,135.000000514984,6|8,3:2|0:0,0:0:0:0:
206,286,60241,1,2,0:0:0:0:
137,245,60417,2,0,P|108:184|111:117,1,135.000000514984,2|8,3:2|0:0,0:0:0:0:
174,68,60947,1,2,0:0:0:0:
250,89,61123,6,0,P|278:149|275:216,1,135.000000514984,2|10,3:2|0:0,0:0:0:0:
326,278,61653,1,0,0:0:0:0:
397,243,61829,2,0,P|428:258|461:256,1,67.500000257492,2|8,3:2|0:0,0:0:0:0:
511,194,62182,1,10,0:0:0:0:
470,125,62359,1,2,0:0:0:0:
512,60,62535,6,0,P|452:88|385:85,2,135.000000514984,2|10|2,3:2|0:0|3:2,0:0:0:0:
403,168,63594,2,0,P|369:166|339:181,1,67.500000257492,10|0,0:0|0:0,0:0:0:0:
266,149,63947,5,2,3:2:0:0:
203,198,64123,1,0,0:0:0:0:
128,171,64300,1,8,0:0:0:0:
69,225,64476,2,0,L|86:360,1,135.000000514984,0|8,0:0|0:0,0:0:0:0:
160,330,65006,2,0,P|193:328|223:343,1,67.500000257492,8|2,0:0|3:2,0:0:0:0:
234,351,65270,1,0,3:2:0:0:
246,358,65359,6,0,L|263:223,1,135.000000514984,6|8,3:2|0:0,0:0:0:0:
315,164,65888,1,2,0:0:0:0:
265,101,66065,2,0,B|199:109|208:53|141:63,1,135.000000514984,2|8,3:2|0:0,0:0:0:0:
68,29,66594,1,2,0:0:0:0:
36,103,66770,6,0,P|64:163|61:230,1,135.000000514984,2|10,3:2|0:0,0:0:0:0:
126,278,67300,1,0,0:0:0:0:
190,229,67476,2,0,P|223:228|253:243,1,67.500000257492,2|8,3:2|0:0,0:0:0:0:
333,257,67829,1,10,0:0:0:0:
401,214,68006,1,2,3:2:0:0:
399,199,68094,1,2,3:2:0:0:
397,184,68182,6,0,L|386:97,1,67.500000257492,6|0,3:2|0:0,0:0:0:0:
321,74,68535,2,0,L|234:85,1,67.500000257492,10|0,0:0|0:0,0:0:0:0:
211,150,68888,2,0,L|222:237,1,67.500000257492,10|0,0:0|3:2,0:0:0:0:
287,260,69241,2,0,L|374:249,1,67.500000257492,10|0,0:0|3:2,0:0:0:0:
397,184,69594,6,0,L|380:49,1,135.000000514984,10|8,0:0|0:0,0:0:0:0:
313,5,70123,1,0,0:0:0:0:
246,50,70300,2,0,P|212:49|182:63,1,67.500000257492,8|0,0:0|3:2,0:0:0:0:
124,118,70653,2,0,L|135:205,1,67.500000257492,8|0,0:0|3:2,0:0:0:0:
135,198,70917,1,0,3:2:0:0:
136,211,71006,6,0,B|47:200|47:200|18:196|-17:237|7:284,1,202.500000772476,6|0,3:2|0:0,0:0:0:0:
82,314,71712,2,0,L|74:377,3,33.750000128746,10|8|8|8,0:0|0:0|0:0|0:0,0:0:0:0:
83,359,72065,2,0,P|112:344|146:345,1,67.500000257492,10|8,0:0|0:0,0:0:0:0:
215,292,72417,6,0,B|293:280|282:347|361:336,1,160,14|10,3:2|0:0,0:0:0:0:
420,269,72947,1,2,0:0:0:0:
369,197,73123,1,2,3:2:0:0:
426,130,73300,2,0,P|427:90|409:54,1,79.9999999999999,2|8,0:0|0:0,0:0:0:0:
335,7,73653,6,0,L|176:26,1,160,2|0,0:0|0:0,0:0:0:0:
123,97,74182,1,8,0:0:0:0:
180,163,74359,1,2,0:0:0:0:
135,238,74535,1,2,3:2:0:0:
192,304,74712,2,0,P|232:305|268:287,1,79.9999999999999,10|8,3:2|0:0,0:0:0:0:
305,367,75065,6,0,P|302:287|337:216,1,160,2|0,0:0|0:0,0:0:0:0:
325,129,75594,2,0,P|289:111|249:112,1,79.9999999999999,10|0,0:0|0:0,0:0:0:0:
183,171,75947,1,2,3:2:0:0:
106,126,76123,1,2,0:0:0:0:
125,39,76300,1,10,0:0:0:0:
213,30,76476,6,0,L|371:10,1,160,2|0,0:0|0:0,0:0:0:0:
437,69,77006,1,8,0:0:0:0:
389,142,77182,1,2,0:0:0:0:
444,211,77359,1,2,3:2:0:0:
442,226,77447,1,0,3:2:0:0:
440,241,77535,2,0,L|430:320,1,79.9999999999999,10|8,3:2|0:0,0:0:0:0:
359,373,77888,6,0,B|278:384|289:317|211:329,1,160,2|0,0:0|0:0,0:0:0:0:
136,376,78417,1,10,0:0:0:0:
68,318,78594,2,0,L|77:238,1,79.9999999999999,2|0,0:0|3:2,0:0:0:0:
155,196,78947,2,0,L|145:116,1,79.9999999999999,2|8,0:0|0:0,0:0:0:0:
86,50,79300,6,0,P|157:84|236:82,1,160,2|0,0:0|0:0,0:0:0:0:
288,153,79829,2,0,P|327:151|363:169,1,79.9999999999999,10|0,0:0|0:0,0:0:0:0:
445,138,80182,1,2,3:2:0:0:
500,207,80359,1,8,3:2:0:0:
452,281,80535,1,10,0:0:0:0:
363,169,80888,6,0,L|188:190,1,160,2|10,3:2|0:0,0:0:0:0:
125,147,81417,1,2,0:0:0:0:
59,206,81594,2,0,P|56:285|91:356,1,160,2|10,3:2|0:0,0:0:0:0:
177,384,82123,1,2,0:0:0:0:
249,334,82300,6,0,B|327:322|316:389|396:377,1,160,2|10,3:2|0:0,0:0:0:0:
450,308,82829,1,2,0:0:0:0:
401,234,83006,2,0,L|410:154,1,79.9999999999999,2|8,3:2|3:2,0:0:0:0:
344,96,83359,1,10,0:0:0:0:
268,140,83535,1,0,3:2:0:0:
253,142,83623,1,0,3:2:0:0:
239,144,83712,6,0,L|64:165,1,160,6|10,3:2|0:0,0:0:0:0:
28,232,84241,1,0,0:0:0:0:
81,300,84417,1,2,3:2:0:0:
38,375,84594,2,0,L|117:384,1,79.9999999999999,2|8,0:0|0:0,0:0:0:0:
183,325,84947,6,0,B|263:336|252:269|330:281,1,160,2|0,0:0|0:0,0:0:0:0:
410,318,85476,1,8,0:0:0:0:
470,254,85653,1,2,0:0:0:0:
427,177,85829,1,2,3:2:0:0:
340,193,86006,2,0,P|300:194|264:176,1,79.9999999999999,10|8,3:2|0:0,0:0:0:0:
219,100,86359,6,0,L|238:258,1,160,2|0,0:0|0:0,0:0:0:0:
174,318,86888,2,0,L|94:308,1,79.9999999999999,10|2,0:0|0:0,0:0:0:0:
39,238,87241,1,2,3:2:0:0:
93,169,87417,1,2,0:0:0:0:
54,89,87594,1,10,0:0:0:0:
121,34,87770,6,0,B|199:22|188:89|268:77,1,160,2|0,0:0|0:0,0:0:0:0:
343,126,88300,1,8,0:0:0:0:
414,74,88476,1,2,0:0:0:0:
478,133,88653,1,2,3:2:0:0:
476,148,88741,1,0,3:2:0:0:
474,164,88829,2,0,L|464:243,1,79.9999999999999,10|8,3:2|0:0,0:0:0:0:
404,307,89182,6,0,P|324:309|253:274,1,160,2|0,0:0|0:0,0:0:0:0:
201,202,89712,1,10,0:0:0:0:
260,137,89888,2,0,L|269:57,1,79.9999999999999,2|0,0:0|3:2,0:0:0:0:
202,0,90241,2,0,P|162:-1|126:16,1,79.9999999999999,2|8,0:0|0:0,0:0:0:0:
59,74,90594,6,0,L|82:264,1,160,2|0,0:0|0:0,0:0:0:0:
142,292,91123,2,0,L|237:303,1,79.9999999999999,10|0,0:0|0:0,0:0:0:0:
288,244,91476,2,0,P|327:245|363:227,1,79.9999999999999,2|8,3:2|3:2,0:0:0:0:
347,140,91829,2,0,P|307:138|271:156,1,79.9999999999999,10|0,0:0|0:0,0:0:0:0:
207,96,92182,6,0,B|129:84|140:151|59:139,1,160,2|8,3:2|0:0,0:0:0:0:
0,205,92712,1,2,0:0:0:0:
62,267,92888,2,0,L|52:346,1,79.9999999999999,2|0,3:2|0:0,0:0:0:0:
133,384,93241,1,8,0:0:0:0:
213,346,93417,6,0,L|193:187,1,160,0|0,0:0|3:2,0:0:0:0:
270,142,93947,1,12,0:0:0:0:
352,173,94123,1,0,3:2:0:0:
406,105,94300,1,12,3:2:0:0:
353,39,94476,2,0,L|358:-8,2,40,0|0|8,3:2|3:2|0:0,0:0:0:0:
270,57,94829,1,0,3:2:0:0:
254,58,94917,1,0,3:2:0:0:
238,60,95006,6,0,P|172:28|98:31,1,150.000005722046,4|10,3:2|0:0,0:0:0:0:
41,89,95535,2,0,L|51:163,1,75.000002861023,2|8,0:0|0:0,0:0:0:0:
94,231,95888,1,2,3:2:0:0:
67,306,96065,1,10,0:0:0:0:
128,358,96241,6,0,P|166:359|199:343,1,75.000002861023,2|10,3:2|0:0,0:0:0:0:
244,277,96594,1,2,0:0:0:0:
206,206,96770,1,10,0:0:0:0:
261,147,96947,2,0,L|410:166,1,150.000005722046,2|2,0:0|3:2,0:0:0:0:
447,236,97476,1,10,0:0:0:0:
301,371,97829,6,0,P|268:387|231:385,1,75.000002861023,8|2,0:0|0:0,0:0:0:0:
171,333,98182,1,10,0:0:0:0:
198,258,98359,2,0,L|189:183,1,75.000002861023,2|8,0:0|0:0,0:0:0:0:
234,117,98712,1,2,3:2:0:0:
304,155,98888,1,10,0:0:0:0:
370,110,99065,6,0,P|338:176|341:250,1,150.000005722046,2|2,3:2|0:0,0:0:0:0:
281,305,99594,2,0,L|207:296,1,75.000002861023,10|0,0:0|0:0,0:0:0:0:
135,331,99947,1,10,0:0:0:0:
79,273,100123,1,0,3:2:0:0:
118,203,100300,1,8,0:0:0:0:
197,217,100476,1,2,3:2:0:0:
212,215,100565,1,0,3:2:0:0:
227,213,100653,6,0,B|301:224|291:161|365:171,1,150.000005722046,14|10,0:0|0:0,0:0:0:0:
422,115,101182,2,0,P|424:78|408:45,1,75.000002861023,2|8,0:0|0:0,0:0:0:0:
331,22,101535,1,2,3:2:0:0:
265,65,101712,1,10,0:0:0:0:
194,30,101888,6,0,L|91:43,1,75.000002861023,2|8,3:2|0:0,0:0:0:0:
64,96,102241,1,2,0:0:0:0:
111,161,102417,1,10,0:0:0:0:
66,227,102594,2,0,P|63:302|96:368,1,150.000005722046,2|2,0:0|3:2,0:0:0:0:
175,384,103123,1,10,0:0:0:0:
302,244,103476,6,0,P|319:278|317:315,1,75.000002861023,10|0,0:0|0:2,0:0:0:0:
239,332,103829,2,0,P|223:299|225:262,1,75.000002861023,10|2,0:0|0:2,0:0:0:0:
245,185,104182,1,10,0:0:0:0:
177,142,104359,1,0,3:2:0:0:
115,193,104535,1,10,0:0:0:0:
144,267,104712,1,0,3:2:0:0:
225,261,104888,6,0,B|299:251|289:314|363:304,1,150.000005722046,14|8,0:0|0:0,0:0:0:0:
431,345,105417,1,0,0:2:0:0:
488,289,105594,2,0,L|496:214,1,75.000002861023,8|0,0:0|3:2,0:0:0:0:
427,173,105947,2,0,L|421:125,3,37.5000014305115,10|2|2|2,0:0|0:0|3:2|0:0,0:0:0:0:
430,126,106300,6,0,B|357:115|367:178|293:168,1,150.000005722046,10|12,0:0|0:0,0:0:0:0:
230,117,106829,2,0,P|263:183|260:257,1,150.000005722046,0|2,3:2|3:2,0:0:0:0:
305,324,107359,2,0,L|379:314,1,75.000002861023,2|2,3:2|3:2,0:0:0:0:
402,240,107712,6,0,B|461:249|453:199|512:207,2,119.999996337891,6|8|0,3:2|0:0|0:0,0:0:0:0:
338,192,108594,1,2,0:2:0:0:
273,237,108770,2,0,L|264:308,1,59.9999981689453,10|2,0:0|0:2,0:0:0:0:
196,335,109123,6,0,P|135:338|82:311,1,119.999996337891,2|10,3:2|0:0,0:0:0:0:
33,250,109653,1,2,3:2:0:0:
157,178,110006,2,0,L|142:58,1,119.999996337891,2|2,0:2|0:2,0:0:0:0:
87,0,110535,6,0,P|140:26|199:23,1,119.999996337891,0|8,3:2|0:0,0:0:0:0:
272,57,111065,1,0,3:2:0:0:
163,203,111417,2,0,P|216:229|275:225,1,119.999996337891
322,162,111947,6,0,L|307:281,1,119.999996337891,0|8,3:2|0:0,0:0:0:0:
245,333,112476,2,0,B|186:341|194:290|135:299,1,119.999996337891,0|2,3:2|3:2,0:0:0:0:
63,332,113006,1,10,0:0:0:0:
8,275,113182,6,0,L|22:155,1,119.999996337891,2|2,0:2|0:2,0:0:0:0:
89,113,113712,1,8,0:0:0:0:
152,158,113888,2,0,B|211:166|203:115|262:124,1,119.999996337891,0|2,3:2|0:2,0:0:0:0:
311,185,114417,2,0,P|340:183|366:197,1,59.9999981689453,10|0,0:0|0:0,0:0:0:0:
425,250,114770,6,0,P|398:196|400:137,1,119.999996337891,2|10,3:2|0:0,0:0:0:0:
346,79,115300,2,0,L|266:88,1,59.9999981689453,2|0,3:2|0:0,0:0:0:0:
229,31,115653,2,0,L|110:16,1,119.999996337891,2|2,0:2|0:2,0:0:0:0:
48,66,116182,6,0,P|45:125|71:178,2,119.999996337891,0|8|2,3:2|0:0|0:0,0:0:0:0:
205,74,117241,2,0,P|218:100|216:130,1,59.9999981689453,8|0,0:0|0:0,0:0:0:0:
284,171,117594,6,0,L|299:291,1,119.999996337891,0|8,3:2|0:0,0:0:0:0:
240,345,118123,1,2,3:2:0:0:
173,305,118300,1,2,0:2:0:0:
110,352,118476,2,0,P|136:298|133:239,1,119.999996337891,2|2,3:2|0:2,0:0:0:0:
75,185,119006,6,0,L|57:42,2,135.000000514984,2|8|0,3:2|0:0|0:0,0:0:0:0:
134,239,119888,1,2,0:2:0:0:
197,191,120065,1,10,0:0:0:0:
264,232,120241,6,0,B|330:222|321:278|388:269,1,135.000000514984,2|0,0:2|0:0,0:0:0:0:
446,215,120770,1,10,0:0:0:0:
403,147,120947,2,0,L|413:59,1,67.500000257492,2|0,3:2|0:0,0:0:0:0:
343,36,121300,1,2,0:2:0:0:
279,84,121476,1,8,0:0:0:0:
209,43,121653,6,0,L|66:60,1,135.000000514984,2|0,0:2|0:0,0:0:0:0:
35,127,122182,2,0,P|63:187|60:254,1,135.000000514984,8|0,0:0|0:0,0:0:0:0:
122,303,122712,1,2,0:2:0:0:
194,271,122888,1,10,0:0:0:0:
263,308,123065,6,0,L|279:174,1,135.000000514984,2|0,0:2|0:0,0:0:0:0:
239,105,123594,1,10,0:0:0:0:
293,48,123770,2,0,B|359:38|350:94|417:85,1,135.000000514984,2|2,3:2|3:2,0:0:0:0:
489,121,124300,2,0,P|503:150|502:184,1,67.500000257492,10|2,0:0|0:2,0:0:0:0:
447,241,124653,6,0,L|463:375,2,135.000000514984,0|8|0,3:2|0:0|0:0,0:0:0:0:
308,164,125712,2,0,L|316:92,1,67.500000257492,10|0,0:0|0:0,0:0:0:0:
258,41,126065,6,0,B|191:32|200:87|133:78,2,135.000000514984,2|8|0,3:2|0:0|0:0,0:0:0:0:
316,97,126947,1,0,3:2:0:0:
374,43,127123,2,0,P|407:41|437:56,1,67.500000257492,8|2,0:0|0:2,0:0:0:0:
479,123,127476,6,0,L|495:257,1,135.000000514984,2|10,3:2|0:0,0:0:0:0:
429,302,128006,2,0,P|398:287|365:289,1,67.500000257492,2|0,3:2|0:0,0:0:0:0:
298,332,128359,1,2,3:2:0:0:
239,277,128535,2,0,L|247:205,1,67.500000257492,10|2,0:0|0:2,0:0:0:0:
189,155,128888,5,2,3:2:0:0:
117,187,129065,1,0,0:0:0:0:
55,137,129241,1,2,0:2:0:0:
120,0,129594,2,0,P|153:-1|183:13,1,67.500000257492,8|0,0:0|3:2,0:0:0:0:
245,62,129947,2,0,L|292:56,3,33.750000128746,8|8|10|8,0:0|0:0|0:0|0:0,0:0:0:0:
291,50,130300,6,0,B|357:42|348:98|415:88,1,135.000000514984,6|8,3:2|0:0,0:0:0:0:
473,142,130829,1,2,0:0:0:0:
432,207,131006,2,0,P|461:268|458:335,1,135.000000514984,2|8,3:2|0:0,0:0:0:0:
395,383,131535,1,2,0:0:0:0:
319,363,131712,6,0,P|291:303|294:236,1,135.000000514984,2|10,3:2|0:0,0:0:0:0:
243,174,132241,1,0,0:0:0:0:
172,209,132417,2,0,P|141:194|108:196,1,67.500000257492,2|8,3:2|0:0,0:0:0:0:
48,144,132770,1,10,0:0:0:0:
84,73,132947,1,2,0:0:0:0:
22,23,133123,6,0,P|88:26|149:-1,2,135.000000514984,2|10|2,3:2|0:0|3:2,0:0:0:0:
108,195,134182,2,0,P|142:193|172:208,1,67.500000257492,10|0,0:0|0:0,0:0:0:0:
240,247,134535,5,2,3:2:0:0:
303,198,134712,1,0,0:0:0:0:
378,225,134888,1,8,0:0:0:0:
437,171,135065,2,0,L|420:36,1,135.000000514984,0|8,0:0|0:0,0:0:0:0:
349,0,135594,2,0,P|316:-2|286:13,1,67.500000257492,8|2,0:0|3:2,0:0:0:0:
275,21,135859,1,0,3:2:0:0:
265,29,135947,6,0,B|199:21|208:77|141:67,1,135.000000514984,6|8,3:2|0:0,0:0:0:0:
70,30,136476,1,2,0:0:0:0:
7,79,136653,2,0,L|24:221,1,135.000000514984,2|8,3:2|0:0,0:0:0:0:
88,257,137182,1,2,0:0:0:0:
147,205,137359,6,0,P|213:201|274:229,1,135.000000514984,2|10,3:2|0:0,0:0:0:0:
348,200,137888,1,0,0:0:0:0:
407,255,138065,2,0,P|392:284|393:318,1,67.500000257492,2|8,3:2|0:0,0:0:0:0:
334,373,138417,1,10,0:0:0:0:
256,354,138594,1,2,3:2:0:0:
241,352,138682,1,2,3:2:0:0:
226,350,138770,6,0,L|139:339,1,67.500000257492,6|0,3:2|0:0,0:0:0:0:
116,274,139123,2,0,L|127:187,1,67.500000257492,10|0,0:0|0:0,0:0:0:0:
192,164,139476,2,0,L|279:175,1,67.500000257492,10|0,0:0|3:2,0:0:0:0:
302,240,139829,2,0,L|291:327,1,67.500000257492,10|0,0:0|3:2,0:0:0:0:
226,350,140182,6,0,L|91:333,1,135.000000514984,10|8,0:0|0:0,0:0:0:0:
48,267,140712,1,0,0:0:0:0:
105,211,140888,2,0,P|104:177|118:147,1,67.500000257492,8|0,0:0|3:2,0:0:0:0:
184,105,141241,2,0,L|250:96,1,67.500000257492,8|0,0:0|3:2,0:0:0:0:
320,134,141594,5,6,3:2:0:0:
380,83,141770,1,0,3:2:0:0:
447,124,141947,1,10,0:0:0:0:
428,200,142123,1,2,3:2:0:0:
349,205,142300,2,0,L|344:238,2,33.750000128746,2|0|0,3:2|3:2|3:2,0:0:0:0:
320,134,142653,2,0,P|287:132|257:147,1,67.500000257492,10|0,0:0|3:2,0:0:0:0:
246,155,142917,1,0,3:2:0:0:
237,165,143006,6,0,B|156:176|167:109|89:121,1,160,14|10,3:2|0:0,0:0:0:0:
36,191,143535,1,2,0:0:0:0:
88,262,143712,1,2,3:2:0:0:
45,338,143888,2,0,P|85:337|121:355,1,79.9999999999999,2|8,0:0|0:0,0:0:0:0:
190,300,144241,6,0,L|349:281,1,160,2|0,0:0|0:0,0:0:0:0:
402,210,144770,1,8,0:0:0:0:
345,144,144947,1,2,0:0:0:0:
390,69,145123,1,2,3:2:0:0:
333,3,145300,2,0,P|293:2|257:20,1,79.9999999999999,10|8,3:2|0:0,0:0:0:0:
249,107,145653,6,0,P|177:72|98:75,1,160,2|0,0:0|0:0,0:0:0:0:
118,161,146182,2,0,P|154:179|194:178,1,79.9999999999999,10|0,0:0|0:0,0:0:0:0:
249,107,146535,1,2,3:2:0:0:
335,140,146712,1,2,0:0:0:0:
331,231,146888,1,10,0:0:0:0:
244,255,147065,6,0,L|86:275,1,160,2|0,0:0|0:0,0:0:0:0:
9,229,147594,1,8,0:0:0:0:
57,156,147770,1,2,0:0:0:0:
2,87,147947,1,2,3:2:0:0:
4,72,148035,1,0,3:2:0:0:
6,57,148123,2,0,P|42:39|82:40,1,79.9999999999999,10|8,3:2|0:0,0:0:0:0:
161,2,148476,6,0,B|242:-9|231:58|309:46,1,160,2|0,0:0|0:0,0:0:0:0:
384,0,149006,1,10,0:0:0:0:
452,57,149182,2,0,L|443:137,1,79.9999999999999,2|0,0:0|3:2,0:0:0:0:
365,179,149535,2,0,L|375:259,1,79.9999999999999,2|8,0:0|0:0,0:0:0:0:
431,325,149888,6,0,P|360:291|281:293,1,160,2|0,0:0|0:0,0:0:0:0:
205,246,150417,2,0,P|203:207|221:171,1,79.9999999999999,10|0,0:0|0:0,0:0:0:0:
190,89,150770,1,2,3:2:0:0:
259,34,150947,1,8,3:2:0:0:
333,82,151123,1,10,0:0:0:0:
490,15,151476,6,0,L|469:190,1,160,2|10,3:2|0:0,0:0:0:0:
512,253,152006,1,2,0:0:0:0:
453,319,152182,2,0,P|374:322|303:287,1,160,2|10,3:2|0:0,0:0:0:0:
242,221,152712,1,2,0:0:0:0:
185,288,152888,6,0,B|107:276|118:343|38:331,1,160,2|10,3:2|0:0,0:0:0:0:
0,252,153417,1,2,0:0:0:0:
44,175,153594,2,0,L|35:95,1,79.9999999999999,2|8,3:2|3:2,0:0:0:0:
101,36,153947,1,10,0:0:0:0:
175,81,154123,1,0,3:2:0:0:
190,83,154212,1,0,3:2:0:0:
205,86,154300,6,0,B|283:98|272:31|352:42,1,160,6|10,3:2|0:0,0:0:0:0:
417,101,154829,1,0,0:0:0:0:
380,181,155006,1,2,3:2:0:0:
438,246,155182,2,0,L|429:325,1,79.9999999999999,2|8,0:0|0:0,0:0:0:0:
512,349,155535,6,0,L|353:368,1,160,2|0,0:0|0:0,0:0:0:0:
278,320,156065,1,8,0:0:0:0:
214,380,156241,1,2,0:0:0:0:
137,337,156417,1,2,3:2:0:0:
153,250,156594,2,0,P|155:211|137:175,1,79.9999999999999,10|8,3:2|0:0,0:0:0:0:
52,150,156947,6,0,L|210:131,1,160,2|0,0:0|0:0,0:0:0:0:
273,192,157476,2,0,P|312:190|347:207,1,79.9999999999999,10|0,0:0|0:0,0:0:0:0:
429,244,157829,1,2,3:2:0:0:
489,178,158006,1,2,0:0:0:0:
444,100,158182,1,10,0:0:0:0:
355,116,158359,6,0,L|197:97,1,160,2|0,0:0|0:0,0:0:0:0:
135,158,158888,1,8,0:0:0:0:
64,106,159065,1,2,0:0:0:0:
0,165,159241,1,2,3:2:0:0:
2,180,159329,1,0,3:2:0:0:
4,196,159417,2,0,L|14:275,1,79.9999999999999,10|8,3:2|0:0,0:0:0:0:
87,323,159770,6,0,P|167:321|238:356,1,160,2|0,0:0|0:0,0:0:0:0:
295,288,160300,1,10,0:0:0:0:
249,213,160476,2,0,L|258:133,1,79.9999999999999,2|0,0:0|3:2,0:0:0:0:
322,72,160829,2,0,P|357:55|397:56,1,79.9999999999999,2|8,0:0|0:0,0:0:0:0:
472,102,161182,6,0,L|495:292,1,160,2|0,0:0|0:0,0:0:0:0:
428,323,161712,2,0,L|348:313,1,79.9999999999999,10|0,0:0|0:0,0:0:0:0:
282,255,162065,2,0,P|246:272|207:271,1,79.9999999999999,2|8,3:2|3:2,0:0:0:0:
191,183,162417,2,0,P|226:165|266:167,1,79.9999999999999,10|0,0:0|0:0,0:0:0:0:
313,93,162770,6,0,B|391:105|380:38|461:50,1,160,2|8,3:2|0:0,0:0:0:0:
512,123,163300,1,2,0:0:0:0:
473,202,163476,2,0,L|483:281,1,79.9999999999999,2|0,3:2|0:0,0:0:0:0:
402,319,163829,1,8,0:0:0:0:
322,281,164006,6,0,L|342:122,1,160,0|0,0:0|3:2,0:0:0:0:
341,37,164535,1,12,0:0:0:0:
259,6,164712,1,0,3:2:0:0:
205,74,164888,1,12,3:2:0:0:
258,140,165065,2,0,L|253:187,2,40,0|0|8,3:2|3:2|0:0,0:0:0:0:
341,122,165417,1,0,3:2:0:0:
357,121,165506,1,0,3:2:0:0:
373,119,165594,5,14,3:2:0:0:
441,163,165770,1,8,0:0:0:0:
498,106,165947,1,8,0:0:0:0:
431,245,166300,2,0,P|447:278|445:315,1,75.000002861023,0|8,3:2|0:0,0:0:0:0:
440,329,166565,1,8,0:0:0:0:
436,343,166653,1,8,0:0:0:0:
364,380,166829,6,0,B|290:390|300:327|226:338,1,150.000005722046,6|0,3:2|3:2,0:0:0:0:
155,377,167359,1,10,0:0:0:0:
96,322,167535,2,0,L|85:233,1,75.000002861023,2|0,0:0|3:2,0:0:0:0:
142,189,167888,1,2,3:2:0:0:
104,118,168065,2,0,P|101:80|117:47,1,75.000002861023,2|2,3:2|0:0,0:0:0:0:
193,21,168417,5,14,3:2:0:0:
264,56,168594,1,8,0:0:0:0:
332,14,168770,1,8,0:0:0:0:
401,54,168947,2,0,P|433:122|430:198,1,150.000005722046,0|10,0:0|0:0,0:0:0:0:
374,253,169476,1,8,0:0:0:0:
359,251,169565,1,8,0:0:0:0:
343,249,169653,6,0,L|184:229,1,150.000005722046,6|2,3:2|3:2,0:0:0:0:
152,162,170182,1,10,0:0:0:0:
78,195,170359,2,0,P|45:263|48:339,1,150.000005722046,2|2,0:0|3:2,0:0:0:0:
118,372,170888,1,2,3:2:0:0:
189,334,171065,1,2,3:2:0:0:
259,372,171241,6,0,P|292:356|329:358,1,75.000002861023,4|0,3:2|0:0,0:0:0:0:
400,319,171594,1,2,0:0:0:0:
398,303,171682,1,2,0:0:0:0:
396,287,171770,1,2,3:2:0:0:
337,232,171947,2,0,L|346:152,1,75.000002861023,10|2,0:0|0:0,0:0:0:0:
346,142,172212,1,2,0:0:0:0:
348,126,172300,1,2,0:0:0:0:
405,70,172476,6,0,B|331:59|341:122|267:112,1,150.000005722046,2|2,3:2|3:2,0:0:0:0:
215,52,173006,2,0,L|167:46,3,37.5000014305115,2|2|2|2,0:0|0:0|3:2|0:0,0:0:0:0:
163,32,173359,1,10,0:0:0:0:
119,99,173535,1,2,0:0:0:0:
103,101,173623,1,2,3:2:0:0:
87,103,173712,2,0,L|49:107,3,37.5000014305115,2|2|2|2,3:2|0:0|3:2|0:0,0:0:0:0:
37,102,174065,6,0,P|69:170|66:246,1,150.000005722046,6|10,3:2|0:0,0:0:0:0:
133,289,174594,2,0,L|128:326,2,37.5000014305115,2|2|10,3:2|0:0|0:0,0:0:0:0:
204,251,174947,1,2,3:2:0:0:
206,235,175035,1,2,0:0:0:0:
208,219,175123,1,2,3:2:0:0:
274,172,175300,6,0,B|348:161|338:224|412:214,1,150.000005722046,6|0,3:2|0:0,0:0:0:0:
470,159,175829,2,0,L|460:79,1,75.000002861023,8|0,0:0|0:0,0:0:0:0:
390,47,176182,1,2,3:2:0:0:
326,96,176359,1,0,3:2:0:0:
256,56,176535,2,0,P|187:88|111:85,1,150.000005722046,2|2,3:2|0:0,0:0:0:0:
151,171,188182,6,0,L|133:28,2,119.999996337891,2|2|2,3:2|0:0|3:2,0:0:0:0:
200,234,189065,2,0,P|146:207|87:209,1,119.999996337891,0|2,0:0|0:0,0:0:0:0:
69,287,189594,6,0,P|122:313|181:311,1,119.999996337891,0|0,3:2|0:0,0:0:0:0:
246,358,190123,2,0,P|272:344|301:345,1,59.9999981689453,0|2,0:0|3:2,0:0:0:0:
365,296,190476,2,0,L|349:168,1,119.999996337891,2|2,0:0|0:0,0:0:0:0:
404,117,191006,6,0,B|345:108|353:159|294:151,1,119.999996337891,0|2,3:2|0:0,0:0:0:0:
154,72,191712,2,0,L|163:-7,1,59.9999981689453,2|2,3:2|0:0,0:0:0:0:
82,1,192065,2,0,L|74:60,1,59.9999981689453,2|2,0:0|0:0,0:0:0:0:
5,99,192417,6,0,L|20:226,1,119.999996337891,0|0,3:2|0:0,0:0:0:0:
92,252,192947,1,0,0:0:0:0:
154,202,193123,1,2,3:2:0:0:
226,238,193300,2,0,P|279:211|338:213,1,119.999996337891,2|2,0:0|0:0,0:0:0:0:
371,286,193829,6,0,L|385:166,1,119.999996337891,0|2,3:2|0:0,0:0:0:0:
451,120,194359,2,0,L|443:60,1,59.9999981689453,2|0,0:0|3:2,0:0:0:0:
378,13,194712,2,0,B|319:4|327:55|268:47,1,119.999996337891,0|2,0:0|0:0,0:0:0:0:
214,106,195241,6,0,L|229:233,1,119.999996337891,0|2,3:2|0:0,0:0:0:0:
367,303,195947,2,0,P|393:289|422:290,1,59.9999981689453,10|8,0:2|0:2,0:0:0:0:
410,369,196300,1,10,0:2:0:0:
309,245,196653,6,0,L|327:96,1,150.000005722046,6|8,3:2|0:2,0:0:0:0:
268,41,197182,1,2,3:2:0:0:
199,83,197359,2,0,P|161:81|129:98,1,75.000002861023,10|0,0:2|3:2,0:0:0:0:
51,80,197712,1,8,0:2:0:0:
14,151,197888,6,0,P|47:217|44:292,1,150.000005722046,4|0,3:2|3:2,0:0:0:0:
110,339,198417,1,12,0:2:0:0:
174,290,198594,1,0,3:2:0:0:
229,347,198770,2,0,L|276:352,3,37.5000014305115,10|2|2|2,3:2|3:2|3:2|3:2,0:0:0:0:
277,357,199123,2,0,L|314:352,3,37.5000014305115,2|2|2|2,3:2|0:0|3:2|3:2,0:0:0:0:
328,336,199476,1,2,3:2:0:0:
475,257,199829,6,0,P|476:217|458:181,1,79.9999999999999,14|2,0:0|0:0,0:0:0:0:
381,138,200182,1,2,3:2:0:0:
319,200,200359,2,0,L|223:211,1,79.9999999999999,2|8,0:0|0:0,0:0:0:0:
204,291,200712,6,0,P|207:212|172:141,1,160,2|0,0:0|0:0,0:0:0:0:
86,119,201241,1,8,0:0:0:0:
80,32,201417,1,2,0:0:0:0:
160,0,201594,1,2,3:2:0:0:
215,66,201771,2,0,L|310:77,1,79.9999999999999,10|8,3:2|0:0,0:0:0:0:
357,14,202123,6,0,P|321:84|324:164,1,160,2|0,0:0|0:0,0:0:0:0:
263,227,202653,2,0,L|183:236,1,79.9999999999999,10|0,0:0|0:0,0:0:0:0:
106,193,203005,1,2,3:2:0:0:
42,253,203182,1,2,0:0:0:0:
79,332,203359,1,10,0:0:0:0:
165,321,203535,6,0,L|323:340,1,160,2|0,0:0|0:0,0:0:0:0:
385,277,204065,1,8,0:0:0:0:
337,203,204241,1,2,0:0:0:0:
391,134,204417,1,2,3:2:0:0:
389,119,204506,1,0,3:2:0:0:
386,104,204594,2,0,P|387:64|369:28,1,79.9999999999999,10|8,3:2|0:0,0:0:0:0:
284,7,204947,6,0,L|125:26,1,160,2|0,0:0|0:0,0:0:0:0:
82,104,205477,1,10,0:0:0:0:
133,175,205653,2,0,P|115:210|116:250,1,79.9999999999999,2|0,0:0|3:2,0:0:0:0:
203,267,206006,2,0,P|220:231|219:191,1,79.9999999999999,2|8,0:0|0:0,0:0:0:0:
276,124,206359,6,0,B|354:136|343:69|424:80,1,160,2|0,0:0|0:0,0:0:0:0:
486,141,206888,2,0,L|476:220,1,79.9999999999999,10|0,0:0|0:0,0:0:0:0:
395,256,207241,1,2,3:2:0:0:
321,207,207418,1,8,3:2:0:0:
243,247,207594,1,10,0:0:0:0:
88,163,207947,6,0,P|90:242|55:313,1,160,2|10,3:2|0:0,0:0:0:0:
113,380,208477,1,2,0:0:0:0:
189,336,208653,2,0,B|267:348|256:281|337:292,1,160,2|10,3:2|0:0,0:0:0:0:
415,331,209182,1,2,0:0:0:0:
482,273,209359,6,0,L|458:82,1,160,2|10,3:2|0:0,0:0:0:0:
383,75,209888,1,2,0:0:0:0:
309,123,210065,2,0,P|273:105|233:106,1,79.9999999999999,2|8,3:2|3:2,0:0:0:0:
160,57,210418,1,10,0:0:0:0:
93,113,210593,1,0,3:2:0:0:
95,128,210682,1,0,3:2:0:0:
98,143,210770,6,0,L|117:301,2,160,6|10|2,3:2|0:0|3:2,0:0:0:0:
171,93,211653,2,0,P|210:91|246:109,1,79.9999999999999,2|8,0:0|0:0,0:0:0:0:
317,56,212006,6,0,P|281:126|284:206,1,160,2|0,0:0|0:0,0:0:0:0:
231,276,212535,1,8,0:0:0:0:
282,349,212712,1,2,0:0:0:0:
368,324,212888,1,2,3:2:0:0:
370,235,213065,2,0,P|405:217|445:218,1,79.9999999999999,10|8,3:2|0:0,0:0:0:0:
469,303,213418,6,0,L|492:112,1,160,2|0,0:0|0:0,0:0:0:0:
428,79,213947,2,0,P|388:77|353:96,1,79.9999999999999,10|2,0:0|0:0,0:0:0:0:
272,59,214300,1,2,3:2:0:0:
197,104,214476,1,2,0:0:0:0:
120,60,214653,1,10,0:0:0:0:
53,117,214829,6,0,L|72:275,1,160,2|0,0:0|0:0,0:0:0:0:
146,324,215359,1,8,0:0:0:0:
214,269,215535,1,2,0:0:0:0:
284,321,215712,2,0,P|323:319|358:338,1,79.9999999999999,2|10,3:2|3:2,0:0:0:0:
370,346,215976,1,8,0:0:0:0:
379,357,216065,2,0,L|384:317,3,40,8|8|10|8,0:0|0:0|0:0|0:0,0:0:0:0:
399,301,216417,5,12,0:0:0:0:
71,254,219241,6,0,B|53:222|62:187|62:187|152:177|152:177|155:179|155:179|248:168|248:168|257:133|240:102,1,325,2|0,0:0|0:0,0:0:0:0:
240,102,222417,6,0,P|237:67|252:36,2,69.9999978637695
338,208,223476,6,0,L|323:327,1,119.999996337891,0|2,3:2|0:0,0:0:0:0:
254,367,224006,1,2,0:0:0:0:
184,328,224182,1,2,0:0:0:0:
117,372,224359,2,0,P|87:373|60:360,1,59.9999981689453,2|0,0:0|3:2,0:0:0:0:
0,308,224712,6,0,L|17:165,1,135.000000514984,10|2,0:2|3:2,0:0:0:0:
91,144,225241,1,8,0:2:0:0:
164,178,225417,1,2,3:2:0:0:
236,141,225594,1,10,0:2:0:0:
305,183,225770,2,0,L|322:325,1,135.000000514984,2|0,3:2|3:2,0:0:0:0:
269,379,226300,6,0,P|335:347|409:350,1,150.000005722046,4|10,3:2|0:0,0:0:0:0:
474,302,226829,2,0,L|464:228,1,75.000002861023,2|8,0:0|0:0,0:0:0:0:
396,185,227182,1,2,3:2:0:0:
332,233,227359,1,10,0:0:0:0:
270,183,227535,6,0,P|232:182|199:198,1,75.000002861023,2|10,3:2|0:2,0:0:0:0:
125,168,227888,1,2,0:0:0:0:
68,224,228065,1,10,0:0:0:0:
3,178,228241,2,0,L|22:29,1,150.000005722046,2|2,0:0|3:2,0:0:0:0:
96,1,228770,1,10,3:2:0:0:
221,98,229123,6,0,P|254:82|291:84,1,75.000002861023,8|2,0:2|0:0,0:0:0:0:
344,143,229476,1,10,0:2:0:0:
314,216,229653,2,0,P|281:232|244:230,1,75.000002861023,2|10,0:0|0:0,0:0:0:0:
189,170,230006,1,2,3:2:0:0:
120,209,230182,1,10,0:0:0:0:
49,171,230359,6,0,P|81:237|78:311,1,150.000005722046,2|2,3:2|0:0,0:0:0:0:
145,358,230888,2,0,L|219:349,1,75.000002861023,10|0,0:0|0:0,0:0:0:0:
291,384,231241,1,10,0:0:0:0:
347,326,231417,1,2,3:2:0:0:
308,256,231594,1,10,0:0:0:0:
229,270,231770,1,2,3:2:0:0:
214,268,231859,1,0,3:2:0:0:
199,266,231947,6,0,B|125:277|135:214|61:224,1,150.000005722046,14|10,0:0|0:0,0:0:0:0:
3,168,232476,2,0,P|1:131|17:98,1,75.000002861023,2|8,0:0|0:0,0:0:0:0:
85,57,232829,1,2,3:2:0:0:
153,97,233006,1,8,0:0:0:0:
214,46,233182,6,0,L|317:33,1,75.000002861023,2|8,3:2|0:2,0:0:0:0:
350,86,233535,1,2,0:0:0:0:
321,160,233711,1,10,3:2:0:0:
362,228,233888,2,0,P|295:195|221:198,1,150.000005722046,2|2,0:0|3:2,0:0:0:0:
158,246,234417,2,0,L|167:320,1,75.000002861023,10|0,0:0|3:2,0:0:0:0:
239,354,234770,6,0,P|164:350|98:383,2,150.000005722046,10|10|10,0:0|0:0|0:0,0:0:0:0:
304,307,235653,1,0,3:2:0:0:
364,358,235829,2,0,P|397:341|434:343,1,75.000002861023,10|0,0:0|3:2,0:0:0:0:
499,297,236182,6,0,L|487:201,1,75.000002861023,14|0,0:0|0:2,0:0:0:0:
424,176,236535,2,0,L|435:80,1,75.000002861023,8|0,0:0|0:2,0:0:0:0:
374,47,236888,1,8,0:0:0:0:
301,79,237065,1,0,3:2:0:0:
235,33,237241,1,8,0:0:0:0:
166,72,237417,6,0,P|133:138|137:212,1,150.000005722046,4|2,3:2|3:2,0:0:0:0:
194,268,237947,2,0,L|268:258,1,75.000002861023,8|0,0:0|3:2,0:0:0:0:
336,217,238300,1,10,3:2:0:0:
408,248,238476,1,10,3:2:0:0:
474,204,238653,1,10,3:2:0:0:
476,188,238741,1,2,0:0:0:0:
478,173,238829,6,0,B|497:14|497:14|464:-23|422:4|422:4|410:100,1,330.000010070801,12|0,3:2|0:0,0:0:0:0:
