osu file format v14

[General]
AudioFilename: audio.mp3
AudioLeadIn: 0
PreviewTime: 71623
Countdown: 0
SampleSet: Soft
StackLeniency: 0.7
Mode: 0
LetterboxInBreaks: 0
WidescreenStoryboard: 1

[Editor]
Bookmarks: 1829,14535,25829,37123,48417,59712,72417,95006,107712,119006,130300,143006,165594,176888,188182,199476,216417,223476,238829
DistanceSpacing: 0.9
BeatDivisor: 4
GridSize: 32
TimelineZoom: 1.4

[Metadata]
Title:Kimagure Romantic
TitleUnicode:気まぐれロマンティック
Artist:Inui Toko
ArtistUnicode:戌亥とこ
Creator:newton-
Version:Light Insane
Source:セレブと貧乏太郎
Tags:xenon- xehn xen amateurre sanairrt imagination vol. 2 virtual youtuber vtuber nijisanji にじさんじ 2434 水野良樹 mizuno yoshiki いきものがかり ikimono gakari ikimono-gakari cover からかい上手の高木さん karakai jouzu no takagi-san the celebrity and poor tarou serebu to binbou tarou japanese pop jpop full version
BeatmapID:2519731
BeatmapSetID:1130251

[Difficulty]
HPDrainRate:5
CircleSize:4
OverallDifficulty:7
ApproachRate:8.5
SliderMultiplier:1.5
SliderTickRate:1

[Events]
//Background and Video events
0,0,"2434.jpg",0,0
//Break Periods
2,177088,187507
//Storyboard Layer 0 (Background)
//Storyboard Layer 1 (Fail)
//Storyboard Layer 2 (Pass)
//Storyboard Layer 3 (Foreground)
//Storyboard Layer 4 (Overlay)
//Storyboard Sound Samples

[TimingPoints]
418,352.941176470588,4,2,1,40,1,0
1123,-125,4,2,1,40,0,0
1829,-100,4,2,1,70,0,0
14535,-111.111111111111,4,2,1,40,0,0
37123,-100,4,2,1,50,0,0
59006,-100,4,2,1,60,0,0
72417,-86.9565217391304,4,2,1,70,0,1
95006,-100,4,2,1,70,0,0
107712,-100,4,2,1,50,0,0
119006,-100,4,2,1,50,0,0
130300,-100,4,2,1,60,0,0
143006,-86.9565217391304,4,2,1,70,0,1
165594,-100,4,2,1,70,0,0
176888,-100,4,2,1,70,0,0
188182,-125,4,2,1,40,0,0
193829,-125,4,2,1,40,0,0
195241,-125,4,2,1,50,0,0
196653,-100,4,2,1,60,0,0
199829,-86.9565217391304,4,2,1,70,0,1
216417,-100,4,2,1,70,0,0
217829,-142.857142857143,4,2,1,50,0,0
219241,-100,4,2,1,50,0,0
219329,-100,4,2,1,5,0,0
222065,-100,4,2,1,30,0,0
222417,-100,4,2,1,30,0,0
223476,-100,4,2,1,50,0,0
224712,-100,4,2,1,70,0,0
226300,-100,4,2,1,70,0,0
238829,-166.666666666667,4,2,1,70,0,0
239712,-100,4,2,1,5,0,0

[Colours]
Combo1 : 187,94,0
Combo2 : 248,73,90
Combo3 : 255,117,51
Combo4 : 170,85,85

[HitObjects]
75,86,1123,6,0,B|191:89|103:166|247:159,1,180,2|0,0:0|0:0,0:0:0:0:
329,104,1829,6,0,P|314:182|314:193,1,75,2|2,0:0|3:2,0:0:0:0:
316,211,2094,1,0,3:2:0:0:
316,211,2182,1,14,0:0:0:0:
411,46,2359,2,0,P|422:83|426:120,1,75,2|8,0:0|0:0,0:0:0:0:
394,258,2712,1,2,3:2:0:0:
462,201,2888,1,10,0:0:0:0:
478,359,3065,6,0,P|378:339|315:345,1,150,2|2,3:2|0:0,0:0:0:0:
183,362,3594,1,10,0:0:0:0:
244,232,3770,2,0,P|250:277|253:338,1,75,2|8,0:0|0:0,0:0:0:0:
129,297,4123,1,2,3:2:0:0:
129,297,4300,1,10,0:0:0:0:
177,152,4476,6,0,B|84:168|157:218|45:232,1,150,2|2,3:2|0:0,0:0:0:0:
134,72,5006,1,10,0:0:0:0:
272,158,5182,2,0,P|297:80|355:74,1,150,2|2,0:0|3:2,0:0:0:0:
391,200,5712,1,10,0:0:0:0:
492,107,5888,6,0,P|479:171|473:269,1,150,2|2,3:2|0:0,0:0:0:0:
407,352,6417,2,0,P|400:315|389:279,1,75,10|0,0:0|0:0,0:0:0:0:
308,240,6770,1,10,0:0:0:0:
241,344,6947,1,0,3:1:0:0:
179,275,7123,1,8,0:0:0:0:
88,335,7300,1,2,3:2:0:0:
88,335,7388,1,0,3:2:0:0:
88,335,7476,6,0,P|90:297|88:260,2,75,14|0|10,0:0|0:0|0:0,0:0:0:0:
1,231,8006,2,0,P|-6:156|1:82,1,150,2|2,0:0|3:2,0:0:0:0:
81,135,8535,1,10,0:0:0:0:
141,22,8712,6,0,P|148:79|231:111,1,150,2|2,3:2|0:0,0:0:0:0:
296,58,9241,1,10,0:0:0:0:
337,178,9417,2,0,P|298:176|263:192,1,75,2|8,0:0|0:0,0:0:0:0:
197,280,9770,1,2,3:2:0:0:
315,257,9947,2,0,P|323:310|317:354,1,75,10|0,0:0|3:2,0:0:0:0:
420,262,10300,6,0,P|424:187|438:113,1,150,10|10,0:0|0:0,0:0:0:0:
484,40,10829,1,2,0:2:0:0:
337,22,11006,2,0,P|351:81|352:119,1,75,10|0,0:0|3:2,0:0:0:0:
256,196,11359,2,0,P|260:158|271:122,1,75,10|0,0:0|3:2,0:0:0:0:
158,94,11712,6,0,P|169:181|165:266,2,150,14|8|8,0:0|0:0|0:0,0:0:0:0:
89,35,12594,1,0,3:2:0:0:
0,157,12770,2,0,P|19:155|37:150,3,37.5,10|2|2|2,0:0|0:0|3:2|0:0,0:0:0:0:
61,170,13123,6,0,P|64:232|58:341,1,150,14|0,0:0|3:2,0:0:0:0:
140,370,13653,2,0,P|177:318|275:335,1,150,8|2,0:2|3:2,0:0:0:0:
334,367,14182,1,2,3:2:0:0:
334,367,14535,6,0,P|340:299|358:234,2,134.999995880127,6|0|0,3:2|3:2|3:2,0:0:0:0:
268,232,15417,1,2,0:2:0:0:
268,232,15594,2,0,P|266:198|258:165,1,67.4999979400635,2|2,3:2|0:2,0:0:0:0:
196,97,15947,5,2,0:0:0:0:
196,97,16300,1,2,3:2:0:0:
113,148,16476,2,0,P|160:185|162:265,1,134.999995880127,2|2,0:2|0:2,0:0:0:0:
127,335,17006,1,0,3:2:0:0:
127,335,17359,6,0,B|39:342|99:377|-6:381,2,134.999995880127,0|0|0,3:2|3:2|3:2,0:0:0:0:
235,358,18241,2,0,P|236:324|242:291,2,67.4999979400635,0|0|0,0:0|3:2|0:0,0:0:0:0:
322,260,18770,6,0,P|318:192|307:126,1,134.999995880127,0|0,3:2|3:2,0:0:0:0:
423,72,19300,2,0,P|411:138|408:205,1,134.999995880127,0|2,0:0|0:0,0:0:0:0:
475,282,19829,2,0,P|421:300|408:326,1,67.4999979400635,2|2,3:2|0:0,0:0:0:0:
281,359,20182,6,0,B|209:351|249:306|166:297,2,134.999995880127,2|0|0,3:2|3:2|3:2,0:0:0:0:
355,244,21065,1,2,0:2:0:0:
355,244,21241,2,0,P|317:268|278:272,1,67.4999979400635,2|2,3:2|0:2,0:0:0:0:
190,172,21594,6,0,P|222:180|249:200,1,67.4999979400635,2|0,0:0|0:0,0:0:0:0:
312,137,21947,2,0,P|344:128|371:108,1,67.4999979400635,2|2,3:2|0:2,0:0:0:0:
481,28,22300,1,0,3:2:0:0:
481,28,22476,2,0,P|458:99|460:179,1,134.999995880127,2|2,0:2|0:2,0:0:0:0:
479,301,23006,6,0,P|438:243|367:246,2,134.999995880127,0|0|0,3:2|3:2|3:2,0:0:0:0:
406,355,23888,1,0,0:0:0:0:
406,355,24065,2,0,P|363:358|336:372,1,67.4999979400635,0|0,3:2|0:0,0:0:0:0:
299,268,24417,6,0,P|229:262|162:232,1,134.999995880127,0|0,3:2|3:2,0:0:0:0:
135,151,24947,1,2,0:0:0:0:
44,234,25123,1,2,3:2:0:0:
44,234,25300,2,0,P|51:166|48:99,1,134.999995880127,2|2,0:0|0:0,0:0:0:0:
207,37,25829,6,0,P|201:85|270:134,1,134.999995880127,4|0,3:2|3:2,0:0:0:0:
381,76,26359,1,0,3:2:0:0:
381,76,26712,1,2,0:0:0:0:
351,158,26888,1,2,3:2:0:0:
446,224,27065,6,0,P|382:234|311:282,1,134.999995880127,2|0,0:0|0:0,0:0:0:0:
242,350,27594,2,0,P|242:316|237:283,1,67.4999979400635,2|2,3:2|0:2,0:0:0:0:
191,200,27947,1,2,3:2:0:0:
191,199,28123,2,0,P|141:242|75:241,1,134.999995880127,2|0,0:0|0:0,0:0:0:0:
7,91,28653,6,0,B|92:109|30:149|127:164,1,134.999995880127,0|0,3:2|3:2,0:0:0:0:
222,120,29182,1,0,0:0:0:0:
222,120,29359,2,0,P|215:79|218:31,2,67.4999979400635,0|2|2,3:2|0:0|3:2,0:0:0:0:
286,176,29888,1,2,0:0:0:0:
377,82,30065,6,0,P|379:149|365:215,2,134.999995880127,0|2|2,3:2|3:2|3:2,0:0:0:0:
468,173,30947,1,2,0:2:0:0:
468,172,31123,2,0,P|466:212|469:240,1,67.4999979400635,0|2,0:0|0:2,0:0:0:0:
439,358,31476,6,0,P|404:303|340:310,1,134.999995880127,0|0,3:2|3:2,0:0:0:0:
270,357,32006,1,0,0:0:0:0:
198,253,32182,2,0,P|234:266|271:274,1,67.4999979400635,0|0,3:2|0:0,0:0:0:0:
184,340,32535,2,0,P|151:348|120:360,1,67.4999979400635,2|0,3:2|0:0,0:0:0:0:
26,258,32888,6,0,P|42:307|-9:379,2,134.999995880127,2|0|0,3:2|3:2|3:2,0:0:0:0:
26,258,33947,2,0,P|24:225|29:191,1,67.4999979400635,0|2,3:2|0:2,0:0:0:0:
105,59,34300,6,0,P|116:121|111:205,1,134.999995880127,2|2,3:2|3:2,0:0:0:0:
175,295,34829,2,0,P|192:233|275:219,2,134.999995880127,2|2|2,0:2|0:2|0:2,0:0:0:0:
310,273,35712,5,2,3:2:0:0:
358,348,35888,1,2,0:2:0:0:
437,262,36065,2,0,P|441:194|435:127,1,134.999995880127,0|2,3:2|3:2,0:0:0:0:
386,57,36594,1,10,0:2:0:0:
343,153,36770,1,2,3:2:0:0:
239,87,36947,1,2,3:2:0:0:
239,87,37035,1,0,3:2:0:0:
239,87,37123,6,0,B|152:106|202:142|96:157,2,150,6|0|2,3:2|3:2|3:2,0:0:0:0:
225,201,38006,1,2,0:2:0:0:
225,201,38182,2,0,P|211:267|213:299,1,75,10|2,0:2|0:2,0:0:0:0:
243,375,38535,6,0,P|296:325|369:334,1,150,2|2,3:2|3:2,0:0:0:0:
467,369,39065,2,0,P|461:294|475:220,1,150,2|2,0:2|0:2,0:0:0:0:
378,246,39594,1,8,0:2:0:0:
378,246,39947,6,0,P|383:171|369:97,1,150,2|2,3:2|3:2,0:0:0:0:
294,198,40476,1,2,0:0:0:0:
294,198,40565,1,2,0:0:0:0:
294,198,40653,2,0,P|243:226|213:225,2,75,2|0|8,3:2|0:0|0:2,0:0:0:0:
192,147,41182,6,0,P|148:192|157:276,1,150
205,341,41712,1,2,3:2:0:0:
310,290,41888,2,0,B|409:311|318:361|450:371,1,150,0|2,0:0|0:0,0:0:0:0:
394,223,42417,1,10,0:2:0:0:
394,223,42770,6,0,P|439:166|511:168,2,150,2|0|0,3:2|3:2|3:2,0:0:0:0:
332,140,43653,1,2,0:0:0:0:
332,140,43829,2,0,P|277:132|238:115,1,75,10|2,0:2|0:0,0:0:0:0:
162,21,44182,6,0,P|169:81|161:189,1,150,2|2,3:2|3:2,0:0:0:0:
62,187,44712,2,0,P|154:201|168:260,1,150,2|2,0:0|0:0,0:0:0:0:
36,291,45241,1,8,0:2:0:0:
36,291,45594,6,0,B|126:285|77:340|186:342,1,150,0|0,3:2|3:2,0:0:0:0:
248,296,46123,1,0,0:0:0:0:
329,368,46300,2,0,P|329:330|331:293,1,75,0|0,3:2|0:0,0:0:0:0:
430,207,46653,1,8,0:2:0:0:
347,214,46829,6,0,P|287:182|196:179,1,150,0|2,0:0|0:0,0:0:0:0:
185,197,47270,1,2,0:0:0:0:
185,197,47359,2,0,P|125:208|89:205,1,75,2|0,3:2|0:0,0:0:0:0:
66,76,47712,1,2,3:2:0:0:
138,122,47888,1,2,0:0:0:0:
195,59,48065,2,0,P|232:56|268:66,1,75,8|2,0:2|0:0,0:0:0:0:
294,177,48417,6,0,B|380:166|325:112|434:100,1,150,6|0,3:2|3:2,0:0:0:0:
414,206,48947,2,0,P|403:257|407:367,1,150,0|2,0:0|0:0,0:0:0:0:
315,264,49476,1,8,0:2:0:0:
254,324,49653,1,2,0:0:0:0:
178,283,49829,6,0,P|114:274|58:334,1,150,0|2,3:2|3:2,0:0:0:0:
34,218,50359,2,0,P|41:143|36:68,1,150,2|2,0:0|0:0,0:0:0:0:
123,145,50888,1,10,0:2:0:0:
198,105,51065,1,2,0:0:0:0:
253,212,51241,6,0,B|337:214|297:156|399:150,1,150,0|0,3:2|3:2,0:0:0:0:
473,93,51770,2,0,P|465:159|464:271,1,150,0|2,0:0|0:0,0:0:0:0:
486,365,52300,1,10,0:2:0:0:
414,317,52476,1,2,0:0:0:0:
306,368,52653,6,0,P|231:367|160:344,1,150,0|2,3:2|3:2,0:0:0:0:
82,209,53182,2,0,P|93:280|44:333,1,150,2|2,0:0|0:0,0:0:0:0:
184,265,53712,2,0,P|216:250|256:249,1,75,8|2,0:2|0:0,0:0:0:0:
380,185,54065,6,0,P|306:176|241:138,2,150,0|0|0,3:2|3:2|3:2,0:0:0:0:
439,86,54947,1,0,0:0:0:0:
465,202,55123,2,0,P|456:256|458:312,1,75,10|0,0:2|0:0,0:0:0:0:
498,366,55476,6,0,P|457:306|375:308,2,150,2|0|0,3:2|3:2|3:2,0:0:0:0:
336,373,56359,1,0,0:0:0:0:
257,281,56535,2,0,P|249:317|255:354,1,75,8|2,0:2|0:0,0:0:0:0:
167,259,56888,6,0,P|174:184|168:109,1,150,2|2,3:2|3:2,0:0:0:0:
37,198,57417,2,0,B|132:204|68:253|175:259,1,150,2|2,0:0|0:0,0:0:0:0:
332,164,57947,2,0,P|289:172|257:190,1,75,10|2,0:2|0:0,0:0:0:0:
211,330,58300,1,6,3:2:0:0:
211,330,59006,5,8,0:2:0:0:
211,330,59182,1,2,3:2:0:0:
287,291,59359,1,8,0:2:0:0:
344,355,59535,1,10,0:2:0:0:
453,261,59712,6,0,P|457:186|452:111,1,150,6|8,3:2|0:0,0:0:0:0:
389,52,60241,1,2,0:0:0:0:
370,178,60417,2,0,P|321:218|218:187,1,150,2|8,3:2|0:0,0:0:0:0:
182,143,60947,1,2,0:0:0:0:
106,262,61123,6,0,P|103:224|111:188,1,75,2|0,3:2|0:0,0:0:0:0:
51,51,61476,2,0,P|58:87|56:124,1,75,10|0,0:0|0:0,0:0:0:0:
20,207,61829,1,2,3:2:0:0:
20,207,62006,1,8,0:0:0:0:
145,109,62182,1,10,0:0:0:0:
202,173,62359,1,2,0:0:0:0:
298,85,62535,6,0,P|283:159|277:234,1,150,2|10,3:2|0:0,0:0:0:0:
336,300,63065,1,0,0:0:0:0:
441,202,63241,2,0,P|403:201|369:216,1,75,2|0,3:2|0:0,0:0:0:0:
250,318,63594,2,0,P|206:317|163:289,1,75,10|0,0:0|0:0,0:0:0:0:
134,185,63947,1,2,3:2:0:0:
59,230,64123,1,0,0:0:0:0:
14,155,64300,1,8,0:0:0:0:
94,59,64476,6,0,P|153:105|227:115,1,150,0|8,0:0|0:0,0:0:0:0:
280,45,65006,1,8,0:0:0:0:
384,148,65182,1,2,3:2:0:0:
384,148,65270,1,0,3:2:0:0:
384,148,65359,6,0,P|377:222|374:320,1,150,6|8,3:2|0:0,0:0:0:0:
445,350,65888,1,2,0:0:0:0:
289,298,66065,2,0,B|188:298|257:346|146:353,1,150,2|8,3:2|0:0,0:0:0:0:
73,324,66594,1,2,0:0:0:0:
156,187,66770,6,0,P|161:244|160:290,1,75,2|0,3:2|0:0,0:0:0:0:
70,182,67123,2,0,P|71:144|75:107,1,75,10|0,0:0|0:0,0:0:0:0:
157,65,67476,1,2,3:2:0:0:
235,170,67653,1,8,0:0:0:0:
287,50,67829,1,10,0:0:0:0:
328,196,68006,1,2,3:2:0:0:
328,196,68094,1,2,3:2:0:0:
328,196,68182,6,0,P|320:259|320:306,1,75,6|0,3:2|0:0,0:0:0:0:
414,341,68535,2,0,P|411:303|405:266,1,75,10|0,0:0|0:0,0:0:0:0:
375,126,68888,5,10,0:0:0:0:
449,170,69065,1,0,3:2:0:0:
419,52,69241,5,10,0:0:0:0:
493,96,69417,1,0,3:2:0:0:
329,52,69594,6,0,P|274:62|239:76,1,75,10|0,0:0|0:0,0:0:0:0:
113,141,69947,2,0,P|150:135|185:124,1,75,8|0,0:0|0:0,0:0:0:0:
64,73,70300,5,8,0:0:0:0:
37,179,70476,1,0,3:2:0:0:
140,247,70653,5,8,0:0:0:0:
113,141,70829,1,0,3:2:0:0:
55,260,71006,5,6,3:2:0:0:
55,260,71712,1,10,0:0:0:0:
57,279,71800,1,8,0:0:0:0:
58,297,71888,1,8,0:0:0:0:
60,316,71976,1,8,0:0:0:0:
62,335,72065,2,0,P|89:328|119:301,3,37.5,10|2|10|10,0:0|0:0|0:0|0:0,0:0:0:0:
133,287,72417,6,0,B|236:301|167:358|299:368,1,172.500003290176,14|10,3:2|0:0,0:0:0:0:
327,291,72947,1,2,0:0:0:0:
418,356,73123,1,2,3:2:0:0:
418,356,73300,2,0,P|415:313|421:270,1,86.2500016450882,2|8,0:0|0:0,0:0:0:0:
474,167,73653,1,2,0:0:0:0:
360,207,73829,6,0,P|274:209|193:179,1,172.500003290176,0|8,3:2|0:0,0:0:0:0:
141,100,74359,1,2,0:0:0:0:
242,36,74535,1,2,3:2:0:0:
242,36,74712,1,10,3:2:0:0:
305,130,74888,2,0,P|312:87|326:46,1,86.2500016450882,8|2,0:0|0:0,0:0:0:0:
393,161,75241,6,0,P|385:203|371:244,1,86.2500016450882,0|0,3:2|0:0,0:0:0:0:
253,250,75594,2,0,P|307:246|385:332,1,172.500003290176,10|2,0:0|3:2,0:0:0:0:
475,262,76123,1,2,0:0:0:0:
474,262,76300,2,0,P|475:218|483:176,1,86.2500016450882,10|2,0:0|0:0,0:0:0:0:
508,47,76653,6,0,B|408:72|465:123|358:132,1,172.500003290176,0|8,3:2|0:0,0:0:0:0:
307,61,77182,1,2,0:0:0:0:
223,98,77359,1,2,3:2:0:0:
123,22,77535,1,10,3:2:0:0:
123,22,77712,2,0,P|134:75|135:145,1,86.2500016450882,8|2,0:0|0:0,0:0:0:0:
25,136,78065,6,0,P|94:120|162:189,1,172.500003290176,0|10,3:2|0:0,0:0:0:0:
72,288,78594,2,0,P|74:244|78:202,1,86.2500016450882,2|0,0:0|3:2,0:0:0:0:
219,250,78947,2,0,P|216:293|212:335,1,86.2500016450882,2|8,0:0|0:0,0:0:0:0:
306,238,79300,1,2,0:0:0:0:
390,317,79476,6,0,P|393:274|397:232,1,86.2500016450882,0|0,3:2|0:0,0:0:0:0:
477,87,79829,2,0,P|412:142|329:136,1,172.500003290176,10|2,0:0|3:2,0:0:0:0:
236,37,80359,1,8,3:2:0:0:
236,37,80535,2,0,P|240:93|240:152,1,86.2500016450882,10|0,0:0|0:0,0:0:0:0:
199,232,80888,5,2,3:2:0:0:
199,232,81065,1,0,0:0:0:0:
275,201,81241,1,10,0:0:0:0:
302,289,81417,2,0,P|306:203|332:121,1,172.500003290176,2|0,0:0|0:0,0:0:0:0:
399,209,81947,1,10,0:0:0:0:
399,209,82123,1,2,0:0:0:0:
479,115,82300,6,0,P|483:167|483:232,1,86.2500016450882,2|0,3:2|0:0,0:0:0:0:
445,279,82653,2,0,P|441:331|441:396,1,86.2500016450882,10|2,0:0|0:0,0:0:0:0:
356,286,83006,1,2,3:2:0:0:
356,286,83094,1,0,3:2:0:0:
356,286,83182,1,8,3:2:0:0:
250,341,83359,2,0,P|164:303|148:308,1,86.2500016450882,10|0,0:0|3:2,0:0:0:0:
150,314,83623,1,0,3:2:0:0:
150,314,83712,6,0,P|152:270|150:227,1,86.2500016450882,6|0,3:2|0:0,0:0:0:0:
67,112,84065,2,0,P|64:155|66:198,1,86.2500016450882,10|0,0:0|0:0,0:0:0:0:
194,150,84417,1,2,3:2:0:0:
251,212,84594,1,2,0:0:0:0:
326,163,84770,2,0,P|327:119|325:76,1,86.2500016450882,8|2,0:0|0:0,0:0:0:0:
421,145,85123,6,0,P|414:203|417:320,1,172.500003290176,0|8,3:2|0:0,0:0:0:0:
325,261,85653,1,2,0:0:0:0:
269,347,85829,1,2,3:2:0:0:
177,299,86006,1,10,3:2:0:0:
177,299,86182,2,0,P|120:299|63:315,1,86.2500016450882,8|2,0:0|0:0,0:0:0:0:
2,372,86535,6,0,P|63:315|61:232,1,172.500003290176,0|10,3:2|0:0,0:0:0:0:
8,158,87065,1,2,0:0:0:0:
152,197,87241,2,0,P|208:203|235:194,2,86.2500016450882,2|2|10,3:2|0:0|0:0,0:0:0:0:
220,104,87770,1,2,0:0:0:0:
315,243,87947,6,0,P|324:178|382:82,1,172.500003290176,0|8,3:2|0:0,0:0:0:0:
406,205,88476,1,2,0:0:0:0:
491,180,88653,1,2,3:2:0:0:
505,308,88829,1,10,3:2:0:0:
505,308,89006,2,0,P|448:291|401:287,1,86.2500016450882,8|2,0:0|0:0,0:0:0:0:
286,344,89359,6,0,P|223:361|108:363,1,172.500003290176,0|10,3:2|0:0,0:0:0:0:
26,285,89888,2,0,P|29:335|21:380,1,86.2500016450882,2|0,0:0|3:2,0:0:0:0:
118,271,90241,2,0,P|115:221|123:176,1,86.2500016450882,2|8,0:0|0:0,0:0:0:0:
147,106,90594,1,2,0:0:0:0:
206,229,90770,6,0,B|319:222|229:184|366:169,1,172.500003290176,0|10,3:2|0:0,0:0:0:0:
406,245,91300,1,0,0:0:0:0:
463,127,91476,1,2,3:2:0:0:
463,127,91653,1,8,3:2:0:0:
352,55,91829,2,0,P|290:63|260:69,1,86.2500016450882,10|0,0:0|0:0,0:0:0:0:
186,149,92182,6,0,P|184:105|174:63,1,86.2500016450882,2|0,3:2|0:0,0:0:0:0:
98,156,92535,1,8,0:0:0:0:
202,241,92712,1,2,0:0:0:0:
202,241,92888,2,0,P|84:252|38:302,1,172.500003290176,2|8,3:2|0:0,0:0:0:0:
174,321,93417,1,0,0:0:0:0:
289,207,93594,6,0,P|284:266|286:302,1,86.2500016450882,0|0,3:2|3:2,0:0:0:0:
369,372,93947,2,0,P|373:329|372:286,1,86.2500016450882,12|0,0:0|3:2,0:0:0:0:
352,149,94300,1,12,3:2:0:0:
419,208,94476,1,0,3:2:0:0:
478,141,94653,1,8,0:0:0:0:
412,37,94829,1,0,3:2:0:0:
412,37,94917,1,0,3:2:0:0:
412,37,95006,6,0,P|358:54|332:67,1,75,4|2,3:2|0:0,0:0:0:0:
268,117,95359,1,10,0:0:0:0:
165,47,95535,2,0,P|182:96|164:200,1,150,2|2,0:0|3:2,0:0:0:0:
86,174,96065,1,10,0:0:0:0:
69,320,96241,6,0,B|156:325|101:267|232:269,1,150,2|2,3:2|0:0,0:0:0:0:
264,339,96770,1,10,0:0:0:0:
354,238,96947,2,0,P|347:274|347:312,1,75,2|8,0:0|0:0,0:0:0:0:
445,240,97300,1,2,3:2:0:0:
445,240,97476,1,10,0:0:0:0:
367,140,97653,6,0,P|298:157|208:173,1,150,2|2,3:2|0:0,0:0:0:0:
82,190,98182,1,10,0:0:0:0:
162,92,98359,2,0,P|188:160|144:244,1,150,2|2,0:0|3:2,0:0:0:0:
88,273,98888,1,10,0:0:0:0:
210,333,99065,6,0,B|293:334|259:278|351:281,1,150,2|2,3:2|0:0,0:0:0:0:
427,360,99594,2,0,P|428:322|434:285,1,75,10|0,0:0|0:0,0:0:0:0:
490,217,99947,1,10,0:0:0:0:
345,199,100123,1,0,3:2:0:0:
345,199,100300,2,0,P|343:161|337:124,1,75,8|2,0:0|3:2,0:0:0:0:
309,113,100565,1,0,3:2:0:0:
309,113,100653,6,0,P|310:75|316:38,1,75,14|0,0:0|0:0,0:0:0:0:
400,65,101006,1,10,0:0:0:0:
222,79,101182,2,0,P|165:69|55:62,1,150,2|2,0:0|3:2,0:0:0:0:
5,128,101712,1,10,0:0:0:0:
138,151,101888,6,0,P|158:205|137:292,1,150,2|2,3:2|0:0,0:0:0:0:
62,247,102417,1,10,0:0:0:0:
240,217,102594,2,0,P|282:232|311:258,1,75,2|8,0:0|0:0,0:0:0:0:
391,338,102947,1,2,3:2:0:0:
391,338,103124,2,0,P|391:300|393:263,1,75,10|0,0:0|3:2,0:0:0:0:
363,109,103476,6,0,P|362:146|360:183,1,75,10|0,0:0|0:2,0:0:0:0:
476,241,103829,2,0,P|476:203|478:166,1,75,10|2,0:0|0:2,0:0:0:0:
397,35,104182,2,0,P|348:83|250:93,1,150,10|10,0:0|0:0,0:0:0:0:
106,69,104712,1,0,3:2:0:0:
187,177,104888,6,0,P|192:103|184:29,2,150,14|8|8,0:0|0:0|0:0,0:0:0:0:
109,204,105770,1,0,3:2:0:0:
201,258,105947,2,0,P|189:300|189:311,3,37.5,10|2|2|2,0:0|0:0|3:2|0:0,0:0:0:0:
233,292,106300,6,0,P|271:293|306:281,1,75,10|0,0:0|0:2,0:0:0:0:
402,199,106653,2,0,P|391:279|388:376,1,150,12|8,0:0|0:0,0:0:0:0:
481,259,107182,1,2,3:2:0:0:
313,200,107359,1,2,3:2:0:0:
313,200,107535,1,2,3:2:0:0:
380,68,107712,6,0,B|289:75|348:129|230:131,1,150,6|8,3:2|0:0,0:0:0:0:
118,69,108241,2,0,P|155:108|130:203,1,150,0|2,3:2|0:2,0:0:0:0:
53,179,108770,1,10,0:0:0:0:
53,179,108947,1,2,0:2:0:0:
0,310,109123,6,0,P|109:274|160:283,1,150,2|10,3:2|0:0,0:0:0:0:
230,363,109653,2,0,P|235:288|243:213,1,150,2|2,3:2|0:2,0:0:0:0:
302,146,110182,1,8,0:0:0:0:
349,218,110359,1,2,0:2:0:0:
372,94,110535,6,0,P|298:107|223:109,1,150,0|8,3:2|0:0,0:0:0:0:
126,48,111065,2,0,P|132:84|131:122,1,75,0|0,3:2|0:0,0:0:0:0:
1,175,111417,1,0,0:0:0:0:
54,112,111594,1,8,0:0:0:0:
54,112,111770,1,0,0:0:0:0:
99,249,111947,6,0,B|191:235|147:193|259:182,1,150,0|8,3:2|0:0,0:0:0:0:
335,124,112476,2,0,P|320:190|328:275,1,150,0|2,3:2|3:2,0:0:0:0:
361,347,113006,1,10,0:0:0:0:
412,280,113182,1,2,0:2:0:0:
273,340,113359,6,0,P|200:333|155:259,1,150,0|8,3:2|0:0,0:0:0:0:
73,158,113888,2,0,P|69:232|72:307,1,150,0|2,3:2|0:2,0:0:0:0:
161,194,114417,2,0,P|199:194|232:212,1,75,10|0,0:0|0:0,0:0:0:0:
371,250,114770,6,0,P|318:201|356:126,1,150,2|10,3:2|0:0,0:0:0:0:
461,212,115300,2,0,P|454:285|460:374,1,150,2|2,3:2|0:2,0:0:0:0:
370,331,115829,1,8,0:0:0:0:
288,353,116006,1,2,0:2:0:0:
241,253,116182,6,0,P|191:257|93:299,1,150,0|8,3:2|0:0,0:0:0:0:
22,345,116712,1,0,3:2:0:0:
71,212,116888,2,0,P|72:137|66:62,1,150,2|8,0:0|0:0,0:0:0:0:
159,136,117417,1,0,0:0:0:0:
213,32,117594,6,0,P|281:32|322:104,1,150,0|8,3:2|0:0,0:0:0:0:
284,174,118123,1,2,3:2:0:0:
407,125,118300,2,0,P|403:163|407:200,1,75,2|2,0:2|3:2,0:0:0:0:
425,283,118653,1,8,0:0:0:0:
295,259,118829,1,2,0:2:0:0:
295,259,118917,1,2,0:0:0:0:
295,259,119006,6,0,B|192:251|262:314|141:308,1,150,2|8,3:2|0:0,0:0:0:0:
40,271,119535,2,0,P|52:197|43:123,1,150,0|2,3:2|0:2,0:0:0:0:
113,32,120065,1,10,0:0:0:0:
134,145,120241,1,2,0:2:0:0:
252,121,120417,6,0,B|349:143|252:187|389:209,1,150,0|10,3:2|0:0,0:0:0:0:
461,127,120947,2,0,P|449:196|456:280,1,150,2|2,3:2|0:2,0:0:0:0:
471,358,121476,1,8,0:0:0:0:
368,295,121653,1,2,0:2:0:0:
259,344,121829,6,0,P|190:353|89:346,1,150,0|8,3:2|0:0,0:0:0:0:
0,287,122359,2,0,B|97:289|42:231|164:235,1,150,0|2,3:2|0:2,0:0:0:0:
220,263,122888,1,10,0:0:0:0:
260,186,123065,1,2,0:2:0:0:
349,282,123241,6,0,P|342:207|349:132,1,150,0|10,3:2|0:0,0:0:0:0:
480,94,123770,2,0,B|396:92|432:36|331:42,1,150,2|2,3:2|3:2,0:0:0:0:
268,93,124300,1,10,0:0:0:0:
212,19,124476,1,2,0:2:0:0:
139,133,124653,6,0,P|142:207|137:282,1,150,0|8,3:2|0:0,0:0:0:0:
57,254,125182,1,0,3:2:0:0:
130,366,125359,2,0,P|181:360|226:362,1,75
302,278,125712,2,0,P|265:278|228:272,1,75,10|0,0:0|0:0,0:0:0:0:
328,194,126065,6,0,P|383:190|484:185,1,150,2|8,3:2|0:0,0:0:0:0:
454,24,126594,2,0,P|436:70|326:96,1,150,0|0,3:2|3:2,0:0:0:0:
303,28,127123,1,8,0:0:0:0:
262,130,127300,1,2,0:2:0:0:
196,43,127476,6,0,B|101:59|175:113|62:115,1,150,2|10,3:2|0:0,0:0:0:0:
19,252,128006,1,2,3:2:0:0:
86,202,128182,2,0,P|130:228|147:269,1,75,0|2,0:0|3:2,0:0:0:0:
216,288,128535,2,0,P|204:337|171:366,1,75,10|2,0:0|0:2,0:0:0:0:
85,341,128888,5,2,3:2:0:0:
287,239,129241,5,2,0:2:0:0:
287,239,129594,5,8,0:0:0:0:
310,331,129770,1,0,3:2:0:0:
381,216,129947,1,8,0:0:0:0:
381,216,130035,1,8,0:0:0:0:
381,216,130123,1,10,0:0:0:0:
457,308,130300,6,0,P|458:233|470:159,1,150,6|8,3:2|0:0,0:0:0:0:
502,74,130829,1,2,0:0:0:0:
345,132,131006,2,0,B|253:126|306:78|196:67,1,150,2|8,3:2|0:0,0:0:0:0:
148,129,131535,1,2,0:0:0:0:
44,50,131712,6,0,P|55:108|55:153,1,75,2|0,3:2|0:0,0:0:0:0:
82,271,132065,2,0,P|85:233|93:197,1,75,10|0,0:0|0:0,0:0:0:0:
165,309,132417,1,2,3:2:0:0:
165,309,132594,1,8,0:0:0:0:
232,248,132770,1,10,0:0:0:0:
271,330,132947,1,2,0:0:0:0:
398,238,133123,6,0,P|353:286|384:364,1,150,2|10,3:2|0:0,0:0:0:0:
463,296,133653,1,0,0:0:0:0:
375,156,133829,2,0,P|315:174|276:175,1,75,2|0,3:2|0:0,0:0:0:0:
183,85,134182,2,0,P|219:91|255:104,1,75,10|0,0:0|0:0,0:0:0:0:
148,165,134535,6,0,P|112:178|75:184,1,75,2|0,3:2|0:0,0:0:0:0:
29,111,134888,1,8,0:0:0:0:
5,262,135065,2,0,B|102:263|46:312|153:316,1,150,0|8,0:0|0:0,0:0:0:0:
188,246,135594,1,8,0:0:0:0:
219,358,135770,1,2,3:2:0:0:
336,324,135947,6,0,P|340:249|333:174,1,150,6|8,3:2|0:0,0:0:0:0:
262,119,136476,1,2,0:0:0:0:
186,211,136653,2,0,P|115:228|59:184,1,150,2|8,3:2|0:0,0:0:0:0:
126,118,137182,1,2,0:0:0:0:
25,40,137359,6,0,P|75:44|118:37,1,75,2|0,3:2|0:0,0:0:0:0:
208,89,137712,2,0,P|258:85|301:92,1,75,10|0,0:0|0:0,0:0:0:0:
342,156,138065,1,2,3:2:0:0:
417,107,138241,1,8,0:0:0:0:
417,107,138417,1,10,0:0:0:0:
466,227,138594,1,2,3:2:0:0:
466,227,138682,1,2,3:2:0:0:
466,227,138770,6,0,P|416:231|373:224,1,75,6|0,3:2|0:0,0:0:0:0:
291,303,139123,2,0,P|328:300|365:304,1,75,10|0,0:0|0:0,0:0:0:0:
227,359,139476,5,10,0:0:0:0:
243,230,139653,1,0,3:2:0:0:
177,291,139829,5,10,0:0:0:0:
291,303,140006,1,0,3:2:0:0:
157,207,140182,6,0,P|159:169|166:132,1,75,10|0,0:0|0:0,0:0:0:0:
263,53,140535,2,0,P|260:90|253:127,1,75,8|0,0:0|0:0,0:0:0:0:
178,36,140888,5,8,0:0:0:0:
85,107,141065,1,0,3:2:0:0:
16,16,141241,5,8,0:0:0:0:
33,180,141417,1,0,3:2:0:0:
33,180,141506,1,0,3:2:0:0:
33,180,141594,6,0,P|41:228|41:267,1,75,6|0,3:2|3:2,0:0:0:0:
32,354,141947,1,10,0:0:0:0:
32,354,142123,1,2,3:2:0:0:
138,252,142300,1,2,3:2:0:0:
138,252,142388,1,0,3:2:0:0:
138,252,142476,2,0,P|138:295|151:349,1,75,0|10,3:2|0:0,0:0:0:0:
222,223,142829,1,0,3:2:0:0:
222,223,142917,1,0,3:2:0:0:
222,223,143006,6,0,P|223:136|215:51,1,172.500003290176,14|10,3:2|0:0,0:0:0:0:
138,112,143535,1,2,0:0:0:0:
28,25,143712,1,2,3:2:0:0:
28,25,143888,2,0,P|24:76|25:129,1,86.2500016450882,2|8,0:0|0:0,0:0:0:0:
62,192,144241,1,2,0:0:0:0:
21,309,144417,6,0,P|102:272|160:334,1,172.500003290176,0|8,3:2|0:0,0:0:0:0:
206,232,144947,1,2,0:0:0:0:
306,357,145123,1,2,3:2:0:0:
306,357,145300,2,0,P|307:313|311:271,1,86.2500016450882,10|8,3:2|0:0,0:0:0:0:
349,191,145653,1,2,0:0:0:0:
482,258,145829,6,0,P|480:214|476:172,1,86.2500016450882,0|0,3:2|0:0,0:0:0:0:
365,98,146182,2,0,B|258:99|319:156|199:158,1,172.500003290176,10|2,0:0|3:2,0:0:0:0:
40,135,146712,1,2,0:0:0:0:
121,115,146888,2,0,P|127:176|127:216,1,86.2500016450882,10|2,0:0|0:0,0:0:0:0:
49,295,147241,6,0,P|97:241|194:256,1,172.500003290176,0|8,3:2|0:0,0:0:0:0:
218,331,147770,1,2,0:0:0:0:
260,175,147947,1,2,3:2:0:0:
350,312,148123,1,10,3:2:0:0:
350,312,148300,2,0,P|349:268|351:225,1,86.2500016450882,8|2,0:0|0:0,0:0:0:0:
446,107,148653,6,0,P|446:164|441:285,1,172.500003290176,0|10,3:2|0:0,0:0:0:0:
358,134,149182,2,0,P|308:135|270:159,1,86.2500016450882,2|0,0:0|3:2,0:0:0:0:
171,218,149535,2,0,P|209:237|251:236,1,86.2500016450882,2|8,0:0|0:0,0:0:0:0:
181,127,149888,1,2,0:0:0:0:
77,178,150065,6,0,P|86:247|80:305,1,86.2500016450882,0|0,3:2|0:0,0:0:0:0:
0,137,150417,2,0,P|0:93|8:51,1,86.2500016450882,10|0,0:0|0:0,0:0:0:0:
91,23,150770,1,2,3:2:0:0:
148,123,150947,1,8,3:2:0:0:
148,123,151123,2,0,P|187:100|234:100,1,86.2500016450882,10|0,0:0|0:0,0:0:0:0:
279,187,151476,5,2,3:2:0:0:
279,187,151653,1,0,0:0:0:0:
319,91,151829,1,10,0:0:0:0:
405,178,152006,2,0,P|408:258|403:356,1,172.500003290176,2|0,0:0|0:0,0:0:0:0:
324,290,152535,1,10,0:0:0:0:
266,362,152712,1,2,0:0:0:0:
244,253,152888,6,0,P|183:257|155:269,1,86.2500016450882,2|0,3:2|0:0,0:0:0:0:
76,342,153241,2,0,P|116:355|159:355,1,86.2500016450882,10|2,0:0|0:0,0:0:0:0:
71,256,153594,1,2,3:2:0:0:
71,256,153682,1,0,3:2:0:0:
71,256,153770,1,8,3:2:0:0:
166,177,153947,1,10,0:0:0:0:
45,118,154123,1,0,3:2:0:0:
45,118,154212,1,0,3:2:0:0:
45,118,154300,6,0,B|147:135|106:59|224:74,1,172.500003290176,6|10,3:2|0:0,0:0:0:0:
250,148,154829,1,0,0:0:0:0:
342,76,155006,1,2,3:2:0:0:
342,76,155182,2,0,P|337:118|335:161,1,86.2500016450882,2|8,0:0|0:0,0:0:0:0:
427,128,155535,1,2,0:0:0:0:
461,246,155712,6,0,P|371:238|324:303,1,172.500003290176,0|8,3:2|0:0,0:0:0:0:
369,372,156241,1,2,0:0:0:0:
243,276,156417,1,2,3:2:0:0:
161,373,156594,1,10,3:2:0:0:
161,373,156770,2,0,P|162:329|159:286,1,86.2500016450882,8|2,0:0|0:0,0:0:0:0:
33,342,157123,6,0,P|32:298|35:255,1,86.2500016450882,0|0,3:2|0:0,0:0:0:0:
62,130,157476,2,0,P|97:188|200:174,1,172.500003290176,10|2,0:0|3:2,0:0:0:0:
217,93,158006,1,2,0:0:0:0:
279,211,158182,1,10,0:0:0:0:
279,211,158359,1,2,0:0:0:0:
370,114,158535,6,0,P|362:196|365:301,1,172.500003290176,0|8,3:2|0:0,0:0:0:0:
429,349,159065,1,2,0:0:0:0:
456,261,159241,1,2,3:2:0:0:
335,374,159417,1,10,3:2:0:0:
335,374,159594,2,0,P|268:372|232:364,1,86.2500016450882,8|2,0:0|0:0,0:0:0:0:
88,323,159947,6,0,P|185:307|186:218,1,172.500003290176,0|10,3:2|0:0,0:0:0:0:
135,119,160476,2,0,P|125:175|124:215,1,86.2500016450882,2|0,0:0|3:2,0:0:0:0:
274,204,160829,2,0,P|284:148|285:108,1,86.2500016450882,2|8,0:0|0:0,0:0:0:0:
210,66,161182,1,2,0:0:0:0:
372,21,161359,6,0,P|368:83|376:129,1,86.2500016450882,0|0,3:2|0:0,0:0:0:0:
460,206,161712,2,0,P|464:163|461:120,1,86.2500016450882,10|0,0:0|0:0,0:0:0:0:
367,199,162065,1,2,3:2:0:0:
367,199,162241,1,8,3:2:0:0:
438,300,162417,2,0,P|379:278|356:287,1,86.2500016450882,10|0,0:0|0:0,0:0:0:0:
244,341,162770,6,0,P|185:363|162:354,1,86.2500016450882,2|0,3:2|0:0,0:0:0:0:
85,305,163123,1,8,0:0:0:0:
163,266,163300,1,2,0:0:0:0:
40,218,163476,2,0,B|146:229|66:146|229:161,1,172.500003290176,2|8,3:2|0:0,0:0:0:0:
254,224,164006,1,0,0:0:0:0:
341,116,164182,6,0,P|337:167|337:220,1,86.2500016450882,0|0,3:2|3:2,0:0:0:0:
409,330,164535,2,0,P|413:279|413:226,1,86.2500016450882,12|0,0:0|3:2,0:0:0:0:
430,119,164888,2,0,P|431:97|434:76,3,43.1250008225441,14|2|2|2,3:2|0:0|3:2|0:0,0:0:0:0:
439,44,165241,2,0,P|398:42|348:22,1,86.2500016450882,8|0,0:0|0:0,0:0:0:0:
256,101,165594,5,14,3:2:0:0:
181,39,165770,1,8,0:0:0:0:
165,135,165947,1,8,0:0:0:0:
165,135,166300,5,0,3:2:0:0:
70,78,166476,1,8,0:0:0:0:
70,78,166565,1,8,0:0:0:0:
70,78,166653,1,8,0:0:0:0:
85,188,166829,6,0,P|83:252|84:354,1,150,6|0,3:2|3:2,0:0:0:0:
169,263,167359,1,10,0:0:0:0:
203,366,167535,2,0,B|298:352|217:316|341:292,1,150,2|2,0:0|3:2,0:0:0:0:
416,344,168065,2,0,P|412:306|416:269,1,75,2|2,3:2|0:0,0:0:0:0:
447,158,168417,5,14,3:2:0:0:
352,214,168594,1,8,0:0:0:0:
305,118,168770,1,8,0:0:0:0:
305,118,169123,5,0,3:2:0:0:
258,229,169300,1,10,0:0:0:0:
258,229,169388,1,8,0:0:0:0:
258,229,169476,1,8,0:0:0:0:
179,129,169653,6,0,P|96:117|64:174,1,150,6|2,3:2|3:2,0:0:0:0:
127,227,170182,1,10,0:0:0:0:
0,222,170359,2,0,P|5:296|1:380,1,150,2|2,0:0|3:2,0:0:0:0:
94,313,170888,2,0,P|131:312|179:331,1,75,2|2,3:2|3:2,0:0:0:0:
269,381,171241,5,4,3:2:0:0:
245,299,171417,2,0,P|243:261|245:224,1,75,0|2,0:0|0:0,0:0:0:0:
259,200,171682,1,2,0:0:0:0:
259,200,171770,1,2,3:2:0:0:
354,169,171947,2,0,P|355:206|353:243,1,75,10|2,0:0|0:0,0:0:0:0:
340,268,172212,1,2,0:0:0:0:
340,268,172300,1,2,0:0:0:0:
446,316,172476,6,0,P|444:241|448:166,1,150,2|2,3:2|3:2,0:0:0:0:
462,134,172917,1,2,0:0:0:0:
462,134,173006,2,0,P|461:115|459:96,3,37.5,2|2|2|2,0:0|0:0|3:2|0:0,0:0:0:0:
438,74,173359,2,0,P|438:55|440:36,3,37.5,10|2|2|2,0:0|0:0|0:0|3:2,0:0:0:0:
413,17,173712,2,0,P|394:16|375:14,3,37.5,2|2|2|2,3:2|0:0|3:2|0:0,0:0:0:0:
319,82,174065,6,0,P|300:82|281:84,3,37.5,6|2|2|2,3:2|0:0|0:0|0:0,0:0:0:0:
271,55,174417,2,0,P|252:54|233:52,3,37.5,10|2|2|2,0:0|0:0|3:2|0:0,0:0:0:0:
209,80,174770,6,0,P|190:80|171:82,1,37.5,10|2,0:0|0:0,0:0:0:0:
66,34,174947,2,0,P|84:34|103:36,1,37.5,2|2,3:2|0:0,0:0:0:0:
119,153,175123,1,2,3:2:0:0:
6,96,175300,1,6,3:2:0:0:
256,192,175388,12,2,176888,0:0:0:0:
115,91,188182,6,0,P|168:166|254:132,1,180,2|0,3:2|0:0,0:0:0:0:
335,107,188888,2,0,P|327:164|335:292,1,180,2|2,3:2|0:0,0:0:0:0:
417,211,189594,2,0,P|425:121|418:31,1,180,0|0,3:2|0:0,0:0:0:0:
327,20,190300,2,0,B|205:40|280:86|159:92,1,180,2|2,3:2|0:0,0:0:0:0:
16,109,191006,6,0,P|74:121|84:232,1,180,0|0,3:2|0:0,0:0:0:0:
40,323,191712,2,0,P|138:306|233:318,1,180,2|2,3:2|0:0,0:0:0:0:
271,240,192417,2,0,B|395:252|304:300|421:319,1,180,0|0,3:2|0:0,0:0:0:0:
493,268,193123,2,0,P|481:178|495:90,1,180,2|2,3:2|0:0,0:0:0:0:
395,27,193829,6,0,P|398:86|396:146,1,120,0|2,3:2|0:0,0:0:0:0:
305,48,194359,1,2,0:0:0:0:
305,48,194535,2,0,P|301:107|303:167,1,120,0|0,3:2|0:0,0:0:0:0:
205,58,195065,1,2,0:0:0:0:
205,58,195241,6,0,P|206:105|201:143,1,60,0|0,3:2|0:0,0:0:0:0:
136,230,195594,2,0,P|135:183|140:145,1,60,2|0,0:0|0:0,0:0:0:0:
113,85,195947,1,10,0:2:0:0:
46,199,196123,1,8,0:2:0:0:
19,112,196300,1,10,0:2:0:0:
89,370,196653,6,0,B|176:361|126:297|242:295,1,150,6|8,3:2|0:2,0:0:0:0:
284,351,197182,1,2,3:2:0:0:
356,224,197359,2,0,P|352:278|355:312,1,75,10|0,0:2|3:2,0:0:0:0:
439,283,197712,1,8,0:2:0:0:
421,159,197888,6,0,P|362:187|257:204,1,150,4|0,3:2|3:2,0:0:0:0:
191,94,198417,2,0,P|195:131|195:168,1,75,12|0,0:2|3:2,0:0:0:0:
111,192,198770,1,10,3:2:0:0:
107,210,198858,1,2,3:2:0:0:
106,229,198946,1,2,3:2:0:0:
105,247,199034,1,2,3:2:0:0:
106,266,199123,2,0,P|56:257|37:259,3,37.5,2|2|2|2,3:2|0:0|3:2|3:2,0:0:0:0:
79,304,199476,6,0,P|119:283|186:286,1,112.5,2|0,3:2|0:0,0:0:0:0:
213,300,199829,6,0,P|211:262|214:206,1,86.2500016450882,14|0,0:0|0:0,0:0:0:0:
273,152,200182,1,2,3:2:0:0:
315,275,200359,2,0,P|319:327|313:374,1,86.2500016450882,2|8,0:0|0:0,0:0:0:0:
391,238,200712,1,2,0:0:0:0:
391,238,200888,6,0,P|386:151|395:66,1,172.500003290176,0|8,3:2|0:0,0:0:0:0:
473,112,201417,1,2,0:0:0:0:
309,81,201594,1,2,3:2:0:0:
298,216,201770,1,10,3:2:0:0:
298,216,201947,2,0,P|291:271|291:322,1,86.2500016450882,8|2,0:0|0:0,0:0:0:0:
215,181,202300,6,0,P|156:192|119:220,1,86.2500016450882,0|0,3:2|0:0,0:0:0:0:
80,303,202653,2,0,P|108:223|83:141,1,172.500003290176,10|2,0:0|3:2,0:0:0:0:
16,84,203182,1,2,0:0:0:0:
99,16,203359,1,10,0:0:0:0:
162,98,203535,1,2,0:0:0:0:
267,9,203712,6,0,B|377:18|305:77|421:84,1,172.500003290176,0|8,3:2|0:0,0:0:0:0:
487,36,204241,1,2,0:0:0:0:
434,197,204417,1,2,3:2:0:0:
434,197,204594,2,0,P|384:167|334:167,1,86.2500016450882,10|8,3:2|0:0,0:0:0:0:
197,206,204947,1,2,0:0:0:0:
272,141,205123,6,0,P|278:216|276:316,1,172.500003290176,0|10,3:2|0:0,0:0:0:0:
194,354,205653,2,0,P|136:328|107:330,1,86.2500016450882,2|0,0:0|3:2,0:0:0:0:
34,256,206006,2,0,P|76:252|113:230,1,86.2500016450882,2|8,0:0|0:0,0:0:0:0:
135,142,206359,1,2,0:0:0:0:
217,257,206535,6,0,P|216:213|217:170,1,86.2500016450882,0|0,3:2|0:0,0:0:0:0:
313,94,206888,2,0,P|313:137|312:180,1,86.2500016450882,10|0,0:0|0:0,0:0:0:0:
301,261,207241,1,2,3:2:0:0:
400,165,207417,1,8,3:2:0:0:
400,165,207594,2,0,P|450:164|487:190,1,86.2500016450882,10|0,0:0|0:0,0:0:0:0:
446,310,207947,5,2,3:2:0:0:
446,310,208123,1,0,0:0:0:0:
386,248,208300,1,10,0:0:0:0:
301,261,208476,2,0,P|295:322|301:359,1,86.2500016450882,2|2,0:0|3:2,0:0:0:0:
226,212,208829,1,0,0:0:0:0:
166,274,209006,1,10,0:0:0:0:
81,261,209182,6,0,P|75:200|82:68,1,172.500003290176,2|0,0:0|0:0,0:0:0:0:
159,159,209712,1,10,0:0:0:0:
204,74,209888,1,2,0:0:0:0:
298,120,210065,1,2,3:2:0:0:
298,120,210153,1,0,3:2:0:0:
298,120,210241,2,0,P|302:175|302:214,1,86.2500016450882,8|10,3:2|0:0,0:0:0:0:
393,42,210594,1,0,3:2:0:0:
393,42,210682,1,0,3:2:0:0:
393,42,210770,6,0,P|389:97|389:136,1,86.2500016450882,6|0,3:2|0:0,0:0:0:0:
477,235,211123,2,0,P|474:191|470:148,1,86.2500016450882,10|0,0:0|0:0,0:0:0:0:
421,300,211476,1,2,3:2:0:0:
349,251,211653,1,2,0:0:0:0:
289,343,211829,2,0,P|225:357|195:348,1,86.2500016450882,8|2,0:0|0:0,0:0:0:0:
48,335,212182,6,0,P|128:309|124:196,1,172.500003290176,0|8,3:2|0:0,0:0:0:0:
113,145,212712,1,2,0:0:0:0:
58,212,212888,1,2,3:2:0:0:
200,162,213065,1,10,3:2:0:0:
200,162,213241,2,0,P|258:172|292:196,1,86.2500016450882,8|2,0:0|0:0,0:0:0:0:
379,283,213594,6,0,P|366:197|373:112,1,172.500003290176,0|10,3:2|0:0,0:0:0:0:
423,41,214123,1,2,0:0:0:0:
295,72,214300,2,0,P|237:67|204:56,2,86.2500016450882,2|2|10,3:2|0:0|0:0,0:0:0:0:
345,2,214829,1,2,0:0:0:0:
284,158,215006,6,0,P|235:206|129:190,1,172.500003290176,0|8,3:2|0:0,0:0:0:0:
120,110,215535,1,2,0:0:0:0:
85,268,215712,1,2,3:2:0:0:
31,157,215888,1,10,3:2:0:0:
31,157,215976,1,8,0:0:0:0:
31,157,216065,2,0,P|33:135|39:115,4,43.1250008225441,8|8|10|8|12,0:0|0:0|0:0|0:0|0:0,0:0:0:0:
200,147,218182,6,0,P|213:169|295:183,2,104.999996795654,2|2|2,0:0|0:0|0:0,0:0:0:0:
316,104,219241,1,2,0:0:0:0:
256,192,219329,12,2,222065,0:0:0:0:
134,93,223476,5,0,3:2:0:0:
134,93,223829,2,0,P|142:143|148:191,1,75,2|2,0:0|0:0,0:0:0:0:
223,224,224182,2,0,P|228:187|235:150,1,75,2|2,0:0|0:0,0:0:0:0:
306,89,224535,1,0,3:2:0:0:
312,202,224712,6,0,B|396:210|356:261|445:273,1,150,10|2,0:2|3:2,0:0:0:0:
355,363,225241,2,0,P|306:309|233:315,1,150,8|10,0:2|0:2,0:0:0:0:
135,353,225770,1,2,3:2:0:0:
135,353,225859,1,0,3:2:0:0:
135,353,225947,1,8,3:2:0:0:
62,257,226123,1,0,3:2:0:0:
62,257,226212,1,0,3:2:0:0:
62,257,226300,6,0,P|63:219|67:182,1,75,4|2,3:2|0:0,0:0:0:0:
90,96,226653,1,10,0:0:0:0:
155,215,226829,2,0,P|211:172|295:194,1,150,2|2,0:0|3:2,0:0:0:0:
348,245,227359,1,10,0:0:0:0:
435,158,227535,6,0,P|429:237|432:322,1,150,2|2,3:2|0:0,0:0:0:0:
486,371,228065,1,10,0:0:0:0:
353,335,228241,2,0,P|305:343|271:368,1,75,2|8,0:0|0:2,0:0:0:0:
235,261,228594,1,2,3:2:0:0:
235,261,228770,1,10,3:2:0:0:
149,354,228947,6,0,P|150:279|143:204,1,150,2|2,3:2|0:0,0:0:0:0:
57,227,229476,1,10,0:2:0:0:
149,115,229653,2,0,B|229:124|193:174|281:183,1,150,2|2,0:0|3:2,0:0:0:0:
332,112,230182,1,10,0:0:0:0:
416,210,230359,6,0,P|412:135|416:60,1,150,2|2,3:2|0:0,0:0:0:0:
504,196,230888,2,0,P|506:251|501:300,1,75,10|0,0:0|0:0,0:0:0:0:
407,334,231241,1,10,0:0:0:0:
330,238,231417,1,2,3:2:0:0:
246,320,231594,1,10,0:0:0:0:
134,268,231770,1,2,3:2:0:0:
134,268,231859,1,0,3:2:0:0:
134,268,231947,6,0,P|130:230|135:193,1,75,14|0,0:0|0:0,0:0:0:0:
219,219,232300,1,10,0:0:0:0:
313,138,232476,2,0,P|240:138|198:79,1,150,2|2,0:0|3:2,0:0:0:0:
270,31,233006,1,8,0:0:0:0:
398,68,233182,6,0,P|393:125|397:229,1,150,2|2,3:2|0:0,0:0:0:0:
477,241,233712,1,10,3:2:0:0:
354,297,233888,2,0,P|319:282|278:281,1,75,2|8,0:0|0:2,0:0:0:0:
153,361,234241,1,2,3:2:0:0:
153,361,234417,2,0,P|190:360|224:345,1,75,10|0,0:0|3:2,0:0:0:0:
168,200,234770,6,0,P|175:248|172:286,1,75,10|0,0:0|0:2,0:0:0:0:
60,246,235123,2,0,P|53:209|54:171,1,75,10|2,0:0|0:2,0:0:0:0:
129,127,235476,1,10,0:0:0:0:
251,178,235653,1,0,3:2:0:0:
331,86,235829,2,0,P|333:133|331:166,1,75,10|0,0:0|3:2,0:0:0:0:
290,297,236182,6,0,B|377:283|310:235|424:220,2,150,14|8|8,0:0|0:0|0:0,0:0:0:0:
240,198,237065,1,0,3:2:0:0:
198,320,237241,1,8,0:0:0:0:
81,268,237417,6,0,P|89:193|87:118,1,150,4|2,3:2|3:2,0:0:0:0:
176,18,237947,2,0,P|169:66|177:115,1,75,8|0,0:0|3:2,0:0:0:0:
268,32,238300,1,10,3:2:0:0:
312,136,238476,1,10,3:2:0:0:
413,79,238653,1,10,3:2:0:0:
285,214,238829,6,0,B|425:227|344:286|497:297,1,224.999993133545,12|0,3:2|0:0,0:0:0:0:
