osu file format v14

[General]
AudioFilename: audio.mp3
AudioLeadIn: 0
PreviewTime: 71623
Countdown: 0
SampleSet: Soft
StackLeniency: 0.2
Mode: 0
LetterboxInBreaks: 0
WidescreenStoryboard: 0

[Editor]
Bookmarks: 1829,14535,37123,59712,72418,95006,107712,130300,143006,165594,176888,177065,177241,177417,177594,177770,177947,178123,178300,178476,178653,178829,179006,179182,179359,179535,179712,179888,180065,180241,180417,180594,180770,180947,181123,181300,181476,181653,181829,182006,182182,182359,182535,182712,182888,183065,183241,183417,183594,183770,183947,184123,184300,184476,184653,184829,185006,185182,185359,185535,185712,185888,186065,186241,186417,186594,186770,186947,187123,187300,187476,187653,187829,188006,188182,199477,216418,226300,239006
DistanceSpacing: 0.9
BeatDivisor: 4
GridSize: 32
TimelineZoom: 1.4

[Metadata]
Title:Kimagure Romantic
TitleUnicode:気まぐれロマンティック
Artist:Inui Toko
ArtistUnicode:戌亥とこ
Creator:newton-
Version:Caprice
Source:セレブと貧乏太郎
Tags:xenon- xehn xen amateurre sanairrt imagination vol. 2 virtual youtuber vtuber nijisanji にじさんじ 2434 水野良樹 mizuno yoshiki いきものがかり ikimono gakari ikimono-gakari cover からかい上手の高木さん karakai jouzu no takagi-san the celebrity and poor tarou serebu to binbou tarou japanese pop jpop full version
BeatmapID:2361038
BeatmapSetID:1130251

[Difficulty]
HPDrainRate:6
CircleSize:4
OverallDifficulty:8.8
ApproachRate:9.2
SliderMultiplier:1.8
SliderTickRate:1

[Events]
//Background and Video events
0,0,"2434.jpg",0,0
//Break Periods
2,177088,187582
//Storyboard Layer 0 (Background)
//Storyboard Layer 1 (Fail)
//Storyboard Layer 2 (Pass)
//Storyboard Layer 3 (Foreground)
//Storyboard Layer 4 (Overlay)
//Storyboard Sound Samples

[TimingPoints]
418,352.941176470588,4,2,1,40,1,0
1123,-333.333333333333,4,2,1,40,0,0
1829,-100,4,2,1,70,0,0
14535,-111.111111111111,4,2,1,40,0,0
37123,-100,4,2,1,50,0,0
58300,-333.333333333333,4,2,1,50,0,0
59006,-100,4,2,1,60,0,0
71006,-333.333333333333,4,2,1,60,0,0
71712,-100,4,2,1,60,0,0
72417,-83.3333333333333,4,2,1,70,0,1
95006,-100,4,2,1,70,0,0
107712,-100,4,2,1,50,0,0
130300,-100,4,2,1,60,0,0
143006,-83.3333333333333,4,2,1,70,0,1
165594,-100,4,2,1,70,0,0
188182,-200,4,2,1,40,0,0
193829,-133.333333333333,4,2,1,40,0,0
195241,-100,4,2,1,50,0,0
196653,-83.3333333333333,4,2,1,60,0,0
199476,-333.333333333333,4,2,1,60,0,0
199829,-83.3333333333333,4,2,1,70,0,1
216417,-100,4,2,1,70,0,0
217829,-200,4,2,1,50,0,0
219241,-303.030303030303,4,2,1,50,0,0
219329,-303.030303030303,4,2,1,5,0,0
222065,-303.030303030303,4,2,1,30,0,0
223476,-100,4,2,1,50,0,0
224712,-100,4,2,1,70,0,0
226300,-100,4,2,1,70,0,0
238829,-250,4,2,1,70,0,0
239712,-250,4,2,1,5,0,0

[Colours]
Combo1 : 187,94,0
Combo2 : 248,73,90
Combo3 : 255,117,51
Combo4 : 170,85,85

[HitObjects]
133,213,1123,6,0,P|95:222|109:186,1,94.4999971160889,2|0,0:0|0:0,0:0:0:0:
109,187,1829,6,0,L|198:194,1,90,2|2,0:0|3:2,0:0:0:0:
243,199,2094,1,0,3:2:0:0:
243,199,2182,1,14,0:0:0:0:
227,119,2358,1,2,0:0:0:0:
264,336,2535,1,8,0:0:0:0:
323,183,2711,1,2,3:2:0:0:
426,310,2888,1,10,0:0:0:0:
390,82,3065,6,0,P|345:80|306:101,1,90,2|8,3:2|0:0,0:0:0:0:
184,270,3417,1,2,0:0:0:0:
184,270,3594,1,10,0:0:0:0:
82,153,3770,2,0,P|121:174|166:173,1,90,2|8,0:0|0:0,0:0:0:0:
306,100,4123,1,2,3:2:0:0:
243,199,4300,1,10,0:0:0:0:
380,282,4476,6,0,P|381:238|360:199,1,90,2|8,3:2|0:0,0:0:0:0:
243,199,4829,1,2,0:0:0:0:
319,345,5005,1,10,0:0:0:0:
465,269,5182,2,0,L|472:179,1,90,2|8,0:0|0:0,0:0:0:0:
296,260,5535,1,2,3:2:0:0:
296,260,5712,1,10,0:0:0:0:
270,123,5888,1,2,3:2:0:0:
159,286,6065,37,8,0:0:0:0:
133,149,6241,1,2,0:0:0:0:
98,350,6417,2,0,P|137:371|182:370,1,90,10|0,0:0|0:0,0:0:0:0:
296,260,6770,1,10,0:0:0:0:
133,149,6947,1,0,3:1:0:0:
13,330,7123,1,8,0:0:0:0:
102,74,7300,5,2,3:2:0:0:
102,74,7388,1,0,3:2:0:0:
102,74,7476,2,0,B|151:59|196:79|173:96|219:120|271:105,1,180,14|10,0:0|0:0,0:0:0:0:
383,28,8006,2,0,P|362:67|362:111,1,90,2|8,0:0|0:0,0:0:0:0:
411,225,8360,1,2,3:2:0:0:
489,91,8536,1,10,0:0:0:0:
484,326,8712,6,0,P|439:326|400:305,1,90,2|8,3:2|0:0,0:0:0:0:
264,99,9065,1,2,0:0:0:0:
324,338,9241,1,10,0:0:0:0:
345,175,9417,2,0,P|300:174|262:196,1,90,2|8,0:0|0:0,0:0:0:0:
243,362,9770,1,2,3:2:0:0:
178,272,9947,2,0,L|268:279,1,90,10|0,0:0|3:2,0:0:0:0:
434,84,10300,6,0,L|344:91,1,90,10|0,0:0|0:2,0:0:0:0:
262,196,10653,5,10,0:0:0:0:
298,26,10829,1,2,0:2:0:0:
381,261,11006,5,10,0:0:0:0:
345,91,11182,1,0,3:2:0:0:
211,297,11359,5,10,0:0:0:0:
175,127,11535,1,0,3:2:0:0:
359,346,11712,6,0,P|403:346|442:325,1,90,14|0,0:0|0:2,0:0:0:0:
361,182,12065,5,8,0:0:0:0:
275,370,12241,1,0,0:2:0:0:
278,81,12417,5,8,0:0:0:0:
297,286,12593,1,0,3:2:0:0:
155,34,12770,6,0,L|158:78,1,45,10|2,0:0|0:0,0:0:0:0:
274,202,12947,2,0,L|277:157,1,45,2|2,3:2|0:0,0:0:0:0:
447,126,13123,6,0,B|398:111|353:131|376:148|330:172|278:157,1,180,14|0,0:0|3:2,0:0:0:0:
155,34,13653,2,0,P|197:112|195:201,1,180,8|2,0:2|3:2,0:0:0:0:
154,271,14182,1,2,3:2:0:0:
419,131,14535,6,0,L|404:292,2,161.999995056153,6|0|0,3:2|3:2|3:2,0:0:0:0:
330,202,15417,1,2,0:2:0:0:
280,137,15594,2,0,P|239:136|203:152,1,80.9999975280763,2|2,3:2|0:2,0:0:0:0:
144,208,15947,6,0,P|177:134|175:54,1,161.999995056153,2|2,0:0|3:2,0:0:0:0:
96,37,16476,2,0,P|62:110|64:190,1,161.999995056153,2|2,0:2|0:2,0:0:0:0:
89,267,17006,1,0,3:2:0:0:
89,267,17359,6,0,L|250:282,2,161.999995056153,0|0|0,3:2|3:2|3:2,0:0:0:0:
71,347,18241,1,0,0:0:0:0:
10,292,18417,2,0,P|9:251|25:215,1,80.9999975280763,0|0,3:2|0:0,0:0:0:0:
172,143,18770,6,0,P|96:159|40:104,1,161.999995056153,0|0,3:2|3:2,0:0:0:0:
195,57,19300,2,0,L|210:218,1,161.999995056153,0|2,0:0|0:0,0:0:0:0:
217,299,19829,1,2,3:2:0:0:
284,253,20006,1,2,0:0:0:0:
364,350,20182,6,0,P|362:269|395:196,2,161.999995056153,2|0|0,3:2|3:2|3:2,0:0:0:0:
451,256,21065,1,2,0:2:0:0:
475,179,21241,2,0,L|467:98,1,80.9999975280763,2|2,3:2|0:2,0:0:0:0:
341,138,21594,6,0,P|300:139|264:123,1,80.9999975280763,2|0,0:0|0:0,0:0:0:0:
208,182,21947,2,0,P|229:217|233:256,1,80.9999975280763,2|2,3:2|0:2,0:0:0:0:
336,351,22300,1,0,3:2:0:0:
336,351,22476,2,0,P|314:276|363:217,1,161.999995056153,2|2,0:2|0:2,0:0:0:0:
234,256,23006,6,0,L|73:271,2,161.999995056153,0|0|0,3:2|3:2|3:2,0:0:0:0:
272,184,23888,1,0,0:0:0:0:
228,115,24065,2,0,L|236:34,1,80.9999975280763,0|0,3:2|0:0,0:0:0:0:
318,28,24417,6,0,P|354:100|355:181,1,161.999995056153,0|0,3:2|3:2,0:0:0:0:
316,254,24947,1,2,0:0:0:0:
228,115,25123,1,2,3:2:0:0:
228,115,25300,2,0,P|151:99|96:153,1,161.999995056153,2|2,0:0|0:0,0:0:0:0:
67,250,25829,6,0,P|68:170|36:97,1,161.999995056153,4|0,3:2|3:2,0:0:0:0:
174,177,26359,2,0,P|172:257|205:330,1,161.999995056153,0|2,3:2|0:0,0:0:0:0:
270,281,26888,2,0,P|306:264|346:266,1,80.9999975280763,2|2,3:2|0:0,0:0:0:0:
438,358,27241,6,0,L|423:197,1,161.999995056153,2|2,3:2|3:2,0:0:0:0:
343,181,27770,1,2,0:2:0:0:
343,181,27947,2,0,L|335:100,1,80.9999975280763,2|2,3:2|0:0,0:0:0:0:
368,26,28300,1,0,3:2:0:0:
368,25,28653,6,0,P|308:75|233:53,1,161.999995056153,0|0,3:2|3:2,0:0:0:0:
171,106,29182,1,0,0:0:0:0:
171,106,29359,2,0,P|134:89|94:91,1,80.9999975280763,0|2,3:2|0:0,0:0:0:0:
41,152,29712,1,2,3:2:0:0:
120,167,29888,1,2,0:0:0:0:
26,231,30065,6,0,P|24:311|57:384,2,161.999995056153,0|2|2,3:2|3:2|3:2,0:0:0:0:
115,327,30947,2,0,P|192:311|247:365,1,161.999995056153,2|2,0:2|0:2,0:0:0:0:
339,178,31476,6,0,L|324:339,1,161.999995056153,0|0,3:2|3:2,0:0:0:0:
421,350,32006,1,0,0:0:0:0:
421,350,32183,2,0,L|413:269,1,80.9999975280763,0|0,3:2|0:0,0:0:0:0:
250,249,32535,2,0,L|242:168,1,80.9999975280763,2|0,3:2|0:0,0:0:0:0:
275,94,32888,6,0,P|219:148|143:131,2,161.999995056153,2|0|0,3:2|3:2|3:2,0:0:0:0:
275,94,33947,2,0,P|311:77|351:79,1,80.9999975280763,0|2,3:2|0:2,0:0:0:0:
445,174,34300,6,0,P|443:93|476:20,1,161.999995056153,2|2,3:2|3:2,0:0:0:0:
351,79,34829,2,0,P|352:159|319:232,1,161.999995056153,2|2,0:2|0:2,0:0:0:0:
246,268,35359,1,0,3:2:0:0:
211,194,35535,1,2,0:2:0:0:
172,303,35712,6,0,P|135:286|95:288,1,80.9999975280763,2|2,3:2|0:2,0:0:0:0:
21,363,36065,2,0,L|13:282,1,80.9999975280763,0|0,3:2|0:0,0:0:0:0:
59,215,36417,1,2,3:2:0:0:
121,364,36594,1,10,0:2:0:0:
105,147,36770,1,2,3:2:0:0:
300,241,36947,5,2,3:2:0:0:
300,241,37035,1,0,3:2:0:0:
300,241,37123,2,0,B|349:256|394:236|371:219|417:195|469:210,2,180,6|0|2,3:2|3:2|3:2,0:0:0:0:
330,165,38006,1,2,0:2:0:0:
270,317,38182,1,10,0:2:0:0:
254,135,38359,1,2,0:2:0:0:
194,287,38535,6,0,P|196:198|154:119,1,180,2|2,3:2|3:2,0:0:0:0:
85,74,39065,1,2,0:2:0:0:
30,195,39241,2,0,P|69:215|113:215,1,90,0|2,3:2|0:2,0:0:0:0:
199,49,39594,2,0,P|238:28|282:28,1,90,8|2,0:2|0:2,0:0:0:0:
339,199,39947,6,0,B|346:117|346:117|356:102|356:102|363:23,1,180,2|2,3:2|3:2,0:0:0:0:
429,154,40476,1,2,0:0:0:0:
429,154,40565,1,2,0:0:0:0:
429,154,40653,2,0,L|436:243,1,90,2|0,3:2|0:0,0:0:0:0:
265,125,41006,1,8,0:2:0:0:
329,280,41182,6,0,P|239:278|161:319,1,180
104,378,41712,1,2,3:2:0:0:
57,168,41888,2,0,B|106:153|151:173|128:190|174:214|226:199,1,180,0|2,0:0|0:0,0:0:0:0:
87,242,42417,1,10,0:2:0:0:
241,19,42770,6,0,L|226:199,1,180,2|0,3:2|3:2,0:0:0:0:
297,286,43300,1,0,0:0:0:0:
307,206,43476,1,0,3:2:0:0:
217,278,43653,1,2,0:0:0:0:
132,144,43829,2,0,P|152:183|151:228,1,90,10|2,0:2|0:0,0:0:0:0:
97,378,44182,6,0,B|90:296|90:296|80:281|80:281|73:202,1,180,2|2,3:2|3:2,0:0:0:0:
132,144,44712,1,2,0:0:0:0:
217,278,44888,2,0,P|256:299|300:299,1,90,0|2,3:2|0:0,0:0:0:0:
429,210,45241,2,0,P|385:209|346:231,1,90,8|2,0:2|0:0,0:0:0:0:
453,318,45594,6,0,L|468:138,1,180,0|0,3:2|3:2,0:0:0:0:
426,71,46123,1,0,0:0:0:0:
358,113,46300,1,0,3:2:0:0:
316,45,46476,1,0,0:0:0:0:
155,121,46653,1,8,0:2:0:0:
321,184,46829,6,0,P|231:181|153:222,1,180,0|2,0:0|0:0,0:0:0:0:
153,221,47270,1,2,0:0:0:0:
153,221,47359,1,2,3:2:0:0:
288,258,47535,1,0,0:0:0:0:
112,375,47712,2,0,L|105:286,1,90,2|2,3:2|0:0,0:0:0:0:
236,148,48065,2,0,L|243:59,1,90,8|2,0:2|0:0,0:0:0:0:
66,117,48417,6,0,B|115:102|160:122|137:139|183:163|235:148,1,180,6|0,3:2|3:2,0:0:0:0:
319,111,48947,1,0,0:0:0:0:
346,245,49123,2,0,P|307:223|263:224,1,90,0|2,3:2|0:0,0:0:0:0:
127,305,49476,2,0,P|172:306|211:284,1,90,8|2,0:2|0:0,0:0:0:0:
390,163,49829,6,0,B|383:242|383:242|373:257|373:257|366:339,1,180,0|2,3:2|3:2,0:0:0:0:
449,294,50359,1,2,0:0:0:0:
473,142,50535,2,0,P|428:141|389:163,1,90,0|2,3:2|0:0,0:0:0:0:
288,300,50888,1,10,0:2:0:0:
220,143,51065,1,2,0:0:0:0:
131,368,51241,6,0,P|134:279|93:200,1,180,0|0,3:2|3:2,0:0:0:0:
21,161,51770,1,0,0:0:0:0:
165,272,51947,2,0,P|209:272|248:250,1,90,0|2,3:2|0:0,0:0:0:0:
92,119,52300,1,10,0:2:0:0:
22,242,52476,1,2,0:0:0:0:
190,193,52653,6,0,L|197:104,1,90,0|0,3:2|0:0,0:0:0:0:
248,250,53006,1,2,3:2:0:0:
326,228,53182,1,2,0:0:0:0:
229,329,53359,2,0,P|184:329|145:307,1,90,0|2,3:2|0:0,0:0:0:0:
304,144,53712,2,0,P|348:143|387:164,1,90,8|2,0:2|0:0,0:0:0:0:
479,318,54065,6,0,L|464:138,1,180,0|0,3:2|3:2,0:0:0:0:
455,57,54594,1,0,0:0:0:0:
388,164,54770,2,0,P|343:164|304:143,1,90,0|0,3:2|0:0,0:0:0:0:
198,52,55123,2,0,P|221:90|223:135,1,90,10|0,0:2|0:0,0:0:0:0:
120,290,55476,6,0,B|127:208|127:208|137:193|137:193|144:114,2,180,2|0|0,3:2|3:2|3:2,0:0:0:0:
60,161,56359,1,0,0:0:0:0:
108,370,56535,1,8,0:2:0:0:
204,242,56712,1,2,0:0:0:0:
332,338,56888,6,0,P|290:258|294:170,1,180,2|2,3:2|3:2,0:0:0:0:
351,112,57417,1,2,0:0:0:0:
455,212,57594,2,0,P|411:212|372:190,1,90,0|2,3:2|0:0,0:0:0:0:
330,34,57947,2,0,P|286:34|247:56,1,90,10|2,0:2|0:0,0:0:0:0:
169,174,58300,6,0,P|141:201|135:163,1,94.4999971160889,6|0,3:2|0:0,0:0:0:0:
175,93,59006,1,8,0:2:0:0:
219,266,59182,1,2,3:2:0:0:
219,266,59270,1,0,3:2:0:0:
219,266,59359,1,8,0:2:0:0:
306,114,59535,1,10,0:2:0:0:
317,345,59712,6,0,P|238:304|150:308,1,180,6|8,3:2|0:0,0:0:0:0:
327,247,60241,1,2,0:0:0:0:
397,384,60417,2,0,L|412:204,1,180,2|8,3:2|0:0,0:0:0:0:
486,307,60947,1,2,0:0:0:0:
436,125,61123,6,0,P|392:125|353:147,1,90,2|0,3:2|0:0,0:0:0:0:
195,158,61476,2,0,P|234:180|279:181,1,90,10|0,0:0|0:0,0:0:0:0:
311,41,61829,1,2,3:2:0:0:
345,228,62006,1,8,0:0:0:0:
255,102,62182,1,10,0:0:0:0:
212,259,62359,1,2,0:0:0:0:
108,112,62535,6,0,B|115:191|115:191|125:206|125:206|132:288,1,180,2|10,3:2|0:0,0:0:0:0:
196,159,63065,1,0,0:0:0:0:
53,308,63241,2,0,B|102:293|147:313|124:330|170:354|222:339,1,180,2|10,3:2|0:0,0:0:0:0:
285,289,63770,1,0,0:0:0:0:
373,373,63947,6,0,L|366:284,1,90,2|0,3:2|0:0,0:0:0:0:
321,216,64300,1,8,0:0:0:0:
452,319,64476,2,0,L|467:139,1,180,0|8,0:0|0:0,0:0:0:0:
366,283,65006,1,8,0:0:0:0:
292,123,65182,5,2,3:2:0:0:
292,123,65270,1,0,3:2:0:0:
292,123,65359,2,0,P|203:118|124:159,1,180,6|8,3:2|0:0,0:0:0:0:
222,199,65888,1,2,0:0:0:0:
84,57,66065,2,0,L|99:237,1,180,2|8,3:2|0:0,0:0:0:0:
105,317,66594,1,2,0:0:0:0:
281,144,66770,6,0,P|326:144|365:167,1,90,2|0,3:2|0:0,0:0:0:0:
244,282,67123,2,0,P|222:243|222:198,1,90,10|0,0:0|0:0,0:0:0:0:
347,67,67476,1,2,3:2:0:0:
204,119,67653,1,8,0:0:0:0:
321,306,67829,2,0,P|359:284|381:245,1,90,10|2,0:0|3:2,0:0:0:0:
365,167,68094,1,2,3:2:0:0:
365,167,68182,5,6,3:2:0:0:
394,363,68359,1,0,0:0:0:0:
478,104,68535,5,10,0:0:0:0:
449,300,68712,1,0,0:0:0:0:
282,75,68888,5,10,0:0:0:0:
253,271,69065,1,0,3:2:0:0:
226,16,69241,2,0,P|203:54|203:99,1,90,10|0,0:0|3:2,0:0:0:0:
253,271,69594,5,10,0:0:0:0:
282,75,69770,1,0,0:0:0:0:
268,350,69947,5,8,0:0:0:0:
202,98,70122,1,0,0:0:0:0:
192,323,70300,5,8,0:0:0:0:
226,16,70476,1,0,3:2:0:0:
420,258,70653,5,8,0:0:0:0:
78,176,70829,1,0,3:2:0:0:
78,176,70917,1,0,3:2:0:0:
78,176,71006,54,0,P|61:212|63:252,1,80.9999975280763,6|0,3:2|0:0,0:0:0:0:
224,140,71712,69,10,0:0:0:0:
200,177,71800,1,8,0:0:0:0:
161,199,71888,1,8,0:0:0:0:
116,198,71976,1,8,0:0:0:0:
78,176,72064,1,10,0:0:0:0:
183,62,72241,5,8,0:0:0:0:
183,62,72329,1,8,0:0:0:0:
183,62,72417,2,0,B|241:44|295:68|268:88|323:117|385:99,1,215.999993408203,14|10,3:2|0:0,0:0:0:0:
476,59,72947,1,2,0:0:0:0:
224,140,73123,1,2,3:2:0:0:
431,219,73300,1,2,0:0:0:0:
396,1,73476,1,8,0:0:0:0:
339,186,73653,1,2,0:0:0:0:
183,62,73829,6,0,P|130:56|83:81,1,107.999996704102,0|0,3:2|0:0,0:0:0:0:
128,286,74182,1,8,0:0:0:0:
224,140,74359,1,2,0:0:0:0:
370,236,74535,1,2,3:2:0:0:
370,236,74623,1,0,3:2:0:0:
370,236,74712,1,10,3:2:0:0:
176,213,74888,1,8,0:0:0:0:
274,382,75065,1,2,0:0:0:0:
440,171,75241,6,0,P|464:219|458:271,1,107.999996704102,0|0,3:2|0:0,0:0:0:0:
194,314,75594,2,0,P|170:266|176:214,1,107.999996704102,10|0,0:0|0:0,0:0:0:0:
293,57,75947,1,2,3:2:0:0:
370,236,76123,1,2,0:0:0:0:
393,43,76300,1,10,0:0:0:0:
176,213,76476,1,2,0:0:0:0:
100,38,76653,6,0,P|147:13|199:19,1,107.999996704102,0|0,3:2|0:0,0:0:0:0:
276,199,77006,1,8,0:0:0:0:
393,43,77182,1,2,0:0:0:0:
378,244,77359,1,2,3:2:0:0:
378,244,77447,1,0,3:2:0:0:
378,244,77535,1,10,3:2:0:0:
211,130,77712,1,8,0:0:0:0:
290,298,77888,1,2,0:0:0:0:
475,161,78065,6,0,P|369:149|275:199,1,215.999993408203,0|10,3:2|0:0,0:0:0:0:
360,344,78594,2,0,P|383:296|377:243,1,107.999996704102,2|0,0:0|3:2,0:0:0:0:
356,24,78947,2,0,P|332:72|339:125,1,107.999996704102,2|8,0:0|0:0,0:0:0:0:
493,65,79300,1,2,0:0:0:0:
485,252,79476,6,0,L|377:242,1,107.999996704102,0|0,3:2|0:0,0:0:0:0:
249,33,79829,2,0,L|356:23,1,107.999996704102,10|0,0:0|0:0,0:0:0:0:
276,199,80182,1,2,3:2:0:0:
275,198,80270,1,0,3:2:0:0:
275,198,80359,1,8,3:2:0:0:
100,118,80535,2,0,P|47:111|0:135,1,107.999996704102,10|0,0:0|0:0,0:0:0:0:
1,381,80888,5,2,3:2:0:0:
169,320,81065,1,0,0:0:0:0:
64,208,81241,1,10,0:0:0:0:
64,208,81417,2,0,L|73:315,1,107.999996704102,2|2,0:0|3:2,0:0:0:0:
332,284,81770,1,0,0:0:0:0:
164,223,81947,1,10,0:0:0:0:
269,111,82123,2,0,L|260:218,1,107.999996704102,2|2,0:0|3:2,0:0:0:0:
333,42,82476,5,0,0:0:0:0:
382,198,82653,1,10,0:0:0:0:
493,78,82829,1,2,0:0:0:0:
364,299,83006,1,2,3:2:0:0:
364,299,83094,1,0,3:2:0:0:
364,299,83182,1,8,3:2:0:0:
136,162,83359,1,10,0:0:0:0:
299,226,83535,5,0,3:2:0:0:
299,226,83623,1,0,3:2:0:0:
299,226,83712,2,0,P|305:173|282:126,1,107.999996704102,6|0,3:2|0:0,0:0:0:0:
39,160,84065,2,0,P|32:213|56:261,1,107.999996704102,10|0,0:0|0:0,0:0:0:0:
147,21,84417,1,2,3:2:0:0:
221,188,84594,1,2,0:0:0:0:
388,114,84770,2,0,L|397:7,1,107.999996704102,8|2,0:0|0:0,0:0:0:0:
503,189,85123,6,0,B|445:171|391:195|418:215|363:244|299:225,1,215.999993408203,0|8,3:2|0:0,0:0:0:0:
467,280,85653,1,2,0:0:0:0:
388,114,85829,1,2,3:2:0:0:
388,114,85917,1,0,3:2:0:0:
388,114,86006,1,10,3:2:0:0:
324,319,86182,1,8,0:0:0:0:
179,162,86359,1,2,0:0:0:0:
22,307,86535,6,0,P|-1:259|4:206,1,107.999996704102,0|0,3:2|0:0,0:0:0:0:
82,147,86888,1,10,0:0:0:0:
116,336,87065,1,2,0:0:0:0:
271,113,87241,1,2,3:2:0:0:
305,302,87417,1,2,0:0:0:0:
99,241,87594,1,10,0:0:0:0:
288,207,87770,1,2,0:0:0:0:
156,28,87947,6,0,P|250:78|356:66,1,215.999993408203,0|8,3:2|0:0,0:0:0:0:
180,152,88476,1,2,0:0:0:0:
383,190,88653,1,2,3:2:0:0:
383,190,88741,1,0,3:2:0:0:
383,190,88829,1,10,3:2:0:0:
248,346,89006,2,0,L|141:337,1,107.999996704102,8|2,0:0|0:0,0:0:0:0:
14,207,89359,6,0,B|72:189|126:213|99:233|154:262|216:244,1,215.999993408203,0|10,3:2|0:0,0:0:0:0:
52,299,89888,1,2,0:0:0:0:
180,152,90065,1,0,3:2:0:0:
39,105,90241,1,2,0:0:0:0:
277,165,90417,2,0,L|384:156,1,107.999996704102,8|2,0:0|0:0,0:0:0:0:
200,343,90770,6,0,P|193:290|217:242,1,107.999996704102,0|0,3:2|0:0,0:0:0:0:
401,55,91123,2,0,P|407:107|383:155,1,107.999996704102,10|0,0:0|0:0,0:0:0:0:
180,152,91476,1,2,3:2:0:0:
180,152,91565,1,0,3:2:0:0:
180,152,91653,1,8,3:2:0:0:
325,252,91829,2,0,L|218:243,1,107.999996704102,10|0,0:0|0:0,0:0:0:0:
239,74,92182,5,2,3:2:0:0:
121,230,92359,1,0,0:0:0:0:
45,50,92535,1,8,0:0:0:0:
56,300,92712,2,0,P|104:324|156:318,1,107.999996704102,2|2,0:0|3:2,0:0:0:0:
274,161,93065,1,0,0:0:0:0:
350,341,93241,1,8,0:0:0:0:
180,152,93417,1,0,0:0:0:0:
256,332,93594,5,0,3:2:0:0:
368,170,93770,1,0,3:2:0:0:
350,341,93947,5,12,0:0:0:0:
329,85,94123,1,0,3:2:0:0:
162,323,94300,5,12,3:2:0:0:
239,74,94476,1,0,3:2:0:0:
239,74,94565,1,0,3:2:0:0:
239,74,94653,1,8,0:0:0:0:
452,189,94829,5,0,3:2:0:0:
452,189,94917,1,0,3:2:0:0:
452,189,95006,2,0,P|407:191|368:170,1,90,4|2,3:2|0:0,0:0:0:0:
401,33,95359,1,10,0:0:0:0:
470,293,95535,1,2,0:0:0:0:
345,92,95712,1,8,0:0:0:0:
223,273,95888,2,0,P|262:252|306:254,1,90,2|10,3:2|0:0,0:0:0:0:
190,107,96241,6,0,P|211:147|249:171,1,90,2|10,3:2|0:0,0:0:0:0:
180,352,96594,1,2,0:0:0:0:
91,140,96770,1,10,0:0:0:0:
122,281,96947,2,0,P|145:244|147:199,1,90,2|8,0:0|0:0,0:0:0:0:
114,61,97300,1,2,3:2:0:0:
270,92,97476,1,10,0:0:0:0:
319,238,97653,6,0,L|326:148,1,90,2|8,3:2|0:0,0:0:0:0:
147,200,98006,1,2,0:0:0:0:
253,284,98182,1,10,0:0:0:0:
353,73,98359,2,0,P|309:71|270:91,1,90,2|8,0:0|0:0,0:0:0:0:
319,238,98712,1,2,3:2:0:0:
319,238,98888,1,10,0:0:0:0:
406,135,99065,1,2,3:2:0:0:
422,325,99241,5,8,0:0:0:0:
509,222,99418,1,2,0:0:0:0:
253,284,99594,2,0,P|239:241|249:197,1,90,10|0,0:0|0:0,0:0:0:0:
406,135,99947,1,10,0:0:0:0:
299,351,100123,1,0,3:2:0:0:
222,123,100300,1,8,0:0:0:0:
17,360,100476,5,2,3:2:0:0:
17,360,100564,1,0,3:2:0:0:
17,360,100653,2,0,B|66:375|111:355|88:338|134:314|186:329,1,180,14|10,0:0|0:0,0:0:0:0:
49,285,101182,1,2,0:0:0:0:
230,191,101359,1,8,0:0:0:0:
93,147,101535,1,2,3:2:0:0:
186,329,101712,1,10,0:0:0:0:
284,133,101888,6,0,P|287:88|267:49,1,90,2|8,3:2|0:0,0:0:0:0:
93,147,102241,1,2,0:0:0:0:
230,191,102417,1,10,0:0:0:0:
185,328,102594,2,0,P|165:289|166:245,1,90,2|8,0:0|0:0,0:0:0:0:
366,90,102947,1,2,3:2:0:0:
307,287,103123,1,10,0:0:0:0:
230,191,103300,1,0,3:2:0:0:
386,259,103476,6,0,L|476:266,1,90,10|0,0:0|0:2,0:0:0:0:
366,90,103829,5,10,0:0:0:0:
307,287,104006,1,2,0:2:0:0:
283,76,104182,5,10,0:0:0:0:
386,259,104359,1,0,3:2:0:0:
445,61,104535,5,10,0:0:0:0:
323,205,104712,1,0,3:2:0:0:
225,19,104888,6,0,P|204:58|206:102,1,90,14|0,0:0|0:2,0:0:0:0:
386,259,105241,5,8,0:0:0:0:
283,76,105417,1,0,0:2:0:0:
259,306,105594,5,8,0:0:0:0:
206,102,105770,1,0,3:2:0:0:
123,317,105947,6,0,L|126:272,1,45,10|2,0:0|0:0,0:0:0:0:
124,107,106123,2,0,L|120:151,1,45,2|2,3:2|0:0,0:0:0:0:
65,374,106300,6,0,P|44:334|46:290,1,90,10|0,0:0|0:2,0:0:0:0:
211,186,106653,1,12,0:0:0:0:
123,317,106829,1,0,3:2:0:0:
265,248,107006,1,8,0:0:0:0:
185,264,107182,1,2,3:2:0:0:
239,326,107359,1,2,3:2:0:0:
239,326,107535,1,2,3:2:0:0:
298,151,107712,6,0,P|296:240|338:319,1,180,6|8,3:2|0:0,0:0:0:0:
416,299,108241,2,0,P|418:210|376:131,1,180,0|2,3:2|0:2,0:0:0:0:
242,94,108770,2,0,P|203:114|159:114,1,90,10|2,0:0|0:2,0:0:0:0:
15,151,109123,6,0,P|60:150|100:171,1,90,2|0,3:2|0:0,0:0:0:0:
157,228,109476,1,10,0:0:0:0:
50,342,109653,2,0,B|99:357|144:337|121:320|167:296|219:311,1,180,2|2,3:2|0:2,0:0:0:0:
354,341,110182,1,8,0:0:0:0:
248,176,110359,1,2,0:2:0:0:
383,206,110535,6,0,P|403:166|402:121,1,90,0|0,3:2|0:0,0:0:0:0:
376,44,110888,1,8,0:0:0:0:
324,147,111065,2,0,L|144:162,1,180,0|0,3:2|0:0,0:0:0:0:
27,242,111594,1,8,0:0:0:0:
99,94,111770,1,0,0:0:0:0:
175,314,111947,6,0,P|264:315|342:274,1,180,0|8,3:2|0:0,0:0:0:0:
430,192,112476,2,0,L|423:282,1,90,0|0,3:2|0:0,0:0:0:0:
415,363,112829,1,2,3:2:0:0:
490,134,113006,2,0,P|450:113|405:114,1,90,10|2,0:0|0:2,0:0:0:0:
244,159,113359,38,0,P|288:159|328:139,1,90,0|2,3:2|0:2,0:0:0:0:
381,37,113712,1,8,0:0:0:0:
237,69,113888,2,0,L|244:158,1,90,0|0,3:2|0:0,0:0:0:0:
104,183,114241,1,2,0:2:0:0:
153,49,114417,2,0,P|197:49|237:69,1,90,10|0,0:0|0:0,0:0:0:0:
361,193,114770,6,0,L|181:208,1,180,2|10,3:2|0:0,0:0:0:0:
130,357,115300,2,0,P|169:376|214:376,1,90,2|0,3:2|0:0,0:0:0:0:
311,278,115653,1,2,0:2:0:0:
182,208,115829,2,0,L|189:297,1,90,8|2,0:0|0:2,0:0:0:0:
209,129,116182,6,0,P|164:128|124:148,1,90,0|0,3:2|0:0,0:0:0:0:
102,228,116535,1,8,0:0:0:0:
146,50,116712,1,0,3:2:0:0:
324,94,116888,2,0,B|403:87|403:87|418:77|418:77|500:70,1,180,2|8,0:0|0:0,0:0:0:0:
365,7,117417,1,0,0:0:0:0:
459,157,117594,6,0,P|459:201|439:241,1,90,0|0,3:2|0:0,0:0:0:0:
280,284,117947,1,8,0:0:0:0:
381,183,118123,1,2,3:2:0:0:
339,343,118300,1,2,0:2:0:0:
221,141,118476,1,2,3:2:0:0:
179,301,118653,2,0,P|139:321|94:320,1,90,8|2,0:0|0:2,0:0:0:0:
1,186,118917,1,2,0:0:0:0:
0,185,119006,6,0,L|15:365,1,180,2|8,3:2|0:0,0:0:0:0:
50,122,119535,2,0,P|90:102|135:103,1,90,0|0,3:2|0:0,0:0:0:0:
260,231,119888,1,2,0:2:0:0:
160,27,120065,1,10,0:0:0:0:
312,79,120241,1,2,0:2:0:0:
106,178,120417,6,0,L|113:267,1,90,0|0,3:2|0:0,0:0:0:0:
217,363,120770,1,10,0:0:0:0:
281,307,120947,2,0,P|203:266|114:267,1,180,2|2,3:2|0:2,0:0:0:0:
340,251,121476,2,0,P|379:270|424:270,1,90,8|2,0:0|0:2,0:0:0:0:
319,172,121829,6,0,P|274:171|234:191,1,90,0|0,3:2|0:0,0:0:0:0:
340,251,122182,1,8,0:0:0:0:
440,107,122359,2,0,B|361:100|361:100|346:90|346:90|264:83,1,180,0|2,3:2|0:2,0:0:0:0:
319,172,122888,1,10,0:0:0:0:
384,18,123065,1,2,0:2:0:0:
457,217,123241,6,0,B|405:202|359:226|382:243|337:263|288:248,1,180,0|10,3:2|0:0,0:0:0:0:
406,377,123770,2,0,P|426:337|426:293,1,90,2|0,3:2|0:0,0:0:0:0:
319,172,124123,1,2,3:2:0:0:
269,325,124300,2,0,L|180:318,1,90,10|2,0:0|0:2,0:0:0:0:
157,203,124653,6,0,P|159:293|118:372,1,180,0|8,3:2|0:0,0:0:0:0:
54,321,125182,1,0,3:2:0:0:
99,144,125359,2,0,P|139:124|184:125,1,90
322,205,125712,2,0,P|277:205|238:186,1,90,10|0,0:0|0:0,0:0:0:0:
338,26,126065,6,0,L|323:206,1,180,2|8,3:2|0:0,0:0:0:0:
404,325,126594,2,0,L|397:236,1,90,0|0,3:2|0:0,0:0:0:0:
299,114,126946,1,0,3:2:0:0:
458,86,127123,2,0,L|451:175,1,90,8|2,0:0|0:2,0:0:0:0:
321,288,127476,6,0,P|281:268|236:268,1,90,2|0,3:2|0:0,0:0:0:0:
103,315,127829,1,10,0:0:0:0:
263,347,128006,1,2,3:2:0:0:
149,162,128182,2,0,L|156:251,1,90,0|2,0:0|3:2,0:0:0:0:
300,99,128535,2,0,L|293:188,1,90,10|2,0:0|0:2,0:0:0:0:
142,80,128888,5,2,3:2:0:0:
377,153,129241,5,2,0:2:0:0:
237,269,129594,5,8,0:0:0:0:
263,347,129770,1,0,3:2:0:0:
156,251,129947,1,8,0:0:0:0:
156,251,130035,1,8,0:0:0:0:
156,251,130123,1,10,0:0:0:0:
77,342,130300,6,0,P|118:262|114:174,1,180,6|8,3:2|0:0,0:0:0:0:
39,245,130829,1,2,0:0:0:0:
84,98,131006,2,0,B|133:83|178:103|155:120|201:144|253:129,1,180,2|8,3:2|0:0,0:0:0:0:
223,53,131535,1,2,0:0:0:0:
331,197,131712,6,0,P|330:152|351:113,1,90,2|0,3:2|0:0,0:0:0:0:
391,251,132065,2,0,P|352:273|308:275,1,90,10|0,0:0|0:0,0:0:0:0:
408,172,132417,1,2,3:2:0:0:
229,295,132594,1,8,0:0:0:0:
377,350,132770,1,10,0:0:0:0:
252,216,132947,1,2,0:0:0:0:
152,366,133123,6,0,L|137:186,1,180,2|10,3:2|0:0,0:0:0:0:
63,286,133653,1,0,0:0:0:0:
6,125,133829,2,0,B|88:118|88:118|103:108|103:108|182:101,1,180,2|10,3:2|0:0,0:0:0:0:
255,138,134359,1,0,0:0:0:0:
346,17,134535,6,0,P|365:57|365:102,1,90,2|0,3:2|0:0,0:0:0:0:
328,175,134888,1,8,0:0:0:0:
456,46,135065,2,0,P|452:134|493:213,1,180,0|8,0:0|0:0,0:0:0:0:
365,102,135594,1,8,0:0:0:0:
333,269,135770,5,2,3:2:0:0:
333,269,135859,1,0,3:2:0:0:
333,269,135947,2,0,B|284:284|239:264|262:247|216:223|164:238,1,180,6|8,3:2|0:0,0:0:0:0:
194,313,136476,1,2,0:0:0:0:
38,338,136653,2,0,P|79:258|75:170,1,180,2|8,3:2|0:0,0:0:0:0:
26,105,137182,1,2,0:0:0:0:
156,158,137359,6,0,P|200:158|240:139,1,90,2|0,3:2|0:0,0:0:0:0:
377,96,137712,2,0,P|336:76|292:77,1,90,10|0,0:0|0:0,0:0:0:0:
225,240,138065,1,2,3:2:0:0:
225,240,138153,1,0,3:2:0:0:
225,240,138241,1,8,0:0:0:0:
320,153,138417,1,10,0:0:0:0:
397,316,138594,5,2,3:2:0:0:
397,316,138682,1,2,3:2:0:0:
397,316,138770,2,0,P|356:335|312:334,1,90,6|0,3:2|0:0,0:0:0:0:
240,139,139123,5,10,0:0:0:0:
231,346,139300,1,0,0:0:0:0:
160,86,139476,5,10,0:0:0:0:
169,293,139653,1,0,3:2:0:0:
367,77,139829,2,0,P|411:76|451:95,1,90,10|0,0:0|3:2,0:0:0:0:
161,167,140182,5,10,0:0:0:0:
395,152,140359,1,0,0:0:0:0:
91,128,140535,5,8,0:0:0:0:
414,229,140712,1,0,0:0:0:0:
93,209,140888,5,8,0:0:0:0:
451,95,141065,1,0,3:2:0:0:
160,86,141241,5,8,0:0:0:0:
318,370,141417,1,0,3:2:0:0:
236,33,141594,6,0,L|243:122,1,90,6|0,3:2|3:2,0:0:0:0:
255,284,141947,1,10,0:0:0:0:
319,71,142123,1,2,3:2:0:0:
249,203,142300,1,2,3:2:0:0:
249,203,142388,1,0,3:2:0:0:
249,203,142476,1,0,3:2:0:0:
117,133,142653,1,10,0:0:0:0:
51,320,142829,69,0,3:2:0:0:
51,320,142917,1,0,3:2:0:0:
51,320,143006,2,0,B|109:338|163:314|136:294|191:265|253:283,1,215.999993408203,14|10,3:2|0:0,0:0:0:0:
313,363,143535,1,2,0:0:0:0:
293,193,143712,1,2,3:2:0:0:
215,373,143888,1,2,0:0:0:0:
89,230,144065,1,8,0:0:0:0:
254,283,144241,1,2,0:0:0:0:
142,65,144417,6,0,P|189:89|241:83,1,107.999996704102,0|0,3:2|0:0,0:0:0:0:
422,14,144770,1,8,0:0:0:0:
393,208,144947,1,2,0:0:0:0:
330,47,145123,1,2,3:2:0:0:
330,47,145212,1,0,3:2:0:0:
330,47,145300,1,10,3:2:0:0:
497,71,145476,1,8,0:0:0:0:
316,140,145653,1,2,0:0:0:0:
385,320,145829,6,0,P|337:295|285:301,1,107.999996704102,0|0,3:2|0:0,0:0:0:0:
102,370,146182,2,0,P|154:376|202:352,1,107.999996704102,10|0,0:0|0:0,0:0:0:0:
236,219,146535,1,2,3:2:0:0:
40,293,146712,1,2,0:0:0:0:
73,86,146888,1,10,0:0:0:0:
202,352,147065,1,2,0:0:0:0:
301,147,147241,6,0,P|254:122|202:128,1,107.999996704102,0|0,3:2|0:0,0:0:0:0:
331,240,147594,1,8,0:0:0:0:
273,36,147770,1,2,0:0:0:0:
126,189,147947,1,2,3:2:0:0:
126,189,148035,1,0,3:2:0:0:
126,189,148123,1,10,3:2:0:0:
301,147,148300,1,8,0:0:0:0:
140,53,148476,1,2,0:0:0:0:
349,24,148653,6,0,L|330:239,1,215.999993408203,0|10,3:2|0:0,0:0:0:0:
201,166,149182,2,0,P|248:141|300:146,1,107.999996704102,2|0,0:0|3:2,0:0:0:0:
395,311,149535,2,0,P|347:335|295:330,1,107.999996704102,2|8,0:0|0:0,0:0:0:0:
157,252,149888,1,2,0:0:0:0:
69,363,150065,6,0,L|60:256,1,107.999996704102,0|0,3:2|0:0,0:0:0:0:
201,166,150417,2,0,L|210:58,1,107.999996704102,10|0,0:0|0:0,0:0:0:0:
104,170,150770,1,2,3:2:0:0:
104,170,150859,1,0,3:2:0:0:
104,170,150947,1,8,3:2:0:0:
254,248,151123,2,0,P|306:253|353:228,1,107.999996704102,10|0,0:0|0:0,0:0:0:0:
455,31,151476,5,2,3:2:0:0:
427,174,151653,1,0,0:0:0:0:
362,37,151829,1,10,0:0:0:0:
362,37,152006,2,0,P|337:84|343:137,1,107.999996704102,2|2,0:0|3:2,0:0:0:0:
170,285,152359,1,0,0:0:0:0:
142,142,152536,1,10,0:0:0:0:
253,248,152713,2,0,P|259:195|235:148,1,107.999996704102,2|2,0:0|3:2,0:0:0:0:
87,322,153065,5,0,0:0:0:0:
101,60,153241,1,10,0:0:0:0:
13,268,153417,1,2,0:0:0:0:
150,150,153594,1,2,3:2:0:0:
150,150,153682,1,0,3:2:0:0:
150,150,153770,1,8,3:2:0:0:
161,376,153947,1,10,0:0:0:0:
360,262,154123,5,0,3:2:0:0:
360,262,154212,1,0,3:2:0:0:
360,262,154300,2,0,P|412:255|460:279,1,107.999996704102,6|0,3:2|0:0,0:0:0:0:
261,358,154653,2,0,P|213:381|160:375,1,107.999996704102,10|0,0:0|0:0,0:0:0:0:
397,352,155006,1,2,3:2:0:0:
198,286,155182,1,2,0:0:0:0:
370,154,155359,2,0,L|361:261,1,107.999996704102,8|2,0:0|0:0,0:0:0:0:
203,99,155712,6,0,B|267:118|322:89|295:69|349:45|407:63,1,215.999993408203,0|8,3:2|0:0,0:0:0:0:
240,8,156241,1,2,0:0:0:0:
168,191,156417,1,2,3:2:0:0:
168,191,156506,1,0,3:2:0:0:
168,191,156594,1,10,3:2:0:0:
44,38,156770,1,8,0:0:0:0:
203,99,156947,1,2,0:0:0:0:
4,245,157123,6,0,P|57:240|104:266,1,107.999996704102,0|0,3:2|0:0,0:0:0:0:
267,170,157476,2,0,P|221:195|168:191,1,107.999996704102,10|0,0:0|0:0,0:0:0:0:
0,141,157829,1,2,3:2:0:0:
38,337,158006,1,2,0:0:0:0:
94,127,158182,1,10,0:0:0:0:
247,280,158359,1,2,0:0:0:0:
348,168,158535,6,0,P|337:274|387:368,1,215.999993408203,0|8,3:2|0:0,0:0:0:0:
247,280,159065,1,2,0:0:0:0:
444,129,159241,1,2,3:2:0:0:
444,129,159329,1,0,3:2:0:0:
444,129,159417,1,10,3:2:0:0:
270,113,159594,2,0,L|163:122,1,107.999996704102,8|2,0:0|0:0,0:0:0:0:
32,261,159947,6,0,L|247:280,1,215.999993408203,0|10,3:2|0:0,0:0:0:0:
77,170,160476,1,2,0:0:0:0:
60,358,160653,1,0,3:2:0:0:
162,122,160829,1,2,0:0:0:0:
326,245,161006,2,0,P|331:298|306:345,1,107.999996704102,8|2,0:0|0:0,0:0:0:0:
247,74,161359,6,0,P|299:68|346:94,1,107.999996704102,0|0,3:2|0:0,0:0:0:0:
426,265,161712,2,0,P|373:270|326:244,1,107.999996704102,10|0,0:0|0:0,0:0:0:0:
416,27,162065,1,2,3:2:0:0:
416,27,162153,1,0,3:2:0:0:
416,27,162241,1,8,3:2:0:0:
499,165,162417,2,0,L|392:174,1,107.999996704102,10|0,0:0|0:0,0:0:0:0:
261,314,162770,5,2,3:2:0:0:
300,148,162947,1,0,0:0:0:0:
426,265,163123,1,8,0:0:0:0:
336,63,163300,2,0,P|283:57|236:83,1,107.999996704102,2|2,0:0|3:2,0:0:0:0:
197,250,163653,1,0,0:0:0:0:
72,133,163829,1,8,0:0:0:0:
174,338,164006,1,0,0:0:0:0:
236,83,164182,5,0,3:2:0:0:
109,274,164359,1,0,3:2:0:0:
171,19,164535,5,12,0:0:0:0:
197,250,164712,1,0,3:2:0:0:
324,59,164888,5,12,3:2:0:0:
261,314,165065,1,0,3:2:0:0:
391,123,165241,1,8,0:0:0:0:
498,337,165417,5,0,3:2:0:0:
498,337,165506,1,0,3:2:0:0:
498,337,165594,1,14,3:2:0:0:
261,314,165771,1,8,0:0:0:0:
488,248,165947,1,8,0:0:0:0:
488,248,166300,1,0,3:2:0:0:
350,334,166476,1,8,0:0:0:0:
350,334,166565,1,8,0:0:0:0:
350,334,166653,1,8,0:0:0:0:
264,196,166829,6,0,B|215:181|170:201|193:218|147:242|95:227,1,180,6|0,3:2|3:2,0:0:0:0:
106,65,167359,2,0,P|127:104|127:149,1,90,10|2,0:0|0:0,0:0:0:0:
62,304,167712,1,0,3:2:0:0:
43,160,167888,1,2,3:2:0:0:
95,227,168065,1,2,3:2:0:0:
11,238,168241,1,2,0:0:0:0:
198,361,168417,5,14,3:2:0:0:
127,149,168594,1,8,0:0:0:0:
114,372,168770,1,8,0:0:0:0:
114,372,169123,1,0,3:2:0:0:
230,283,169300,1,10,0:0:0:0:
252,284,169388,1,8,0:0:0:0:
274,286,169476,1,8,0:0:0:0:
297,288,169564,1,8,0:0:0:0:
319,290,169653,6,0,P|360:211|358:122,1,180,6|2,3:2|3:2,0:0:0:0:
331,45,170182,1,10,0:0:0:0:
411,58,170359,1,2,0:0:0:0:
278,108,170535,2,0,P|233:108|194:86,1,90,0|2,3:2|3:2,0:0:0:0:
178,7,170888,1,2,3:2:0:0:
133,140,171065,5,2,3:2:0:0:
133,140,171153,1,2,3:2:0:0:
133,140,171241,2,0,L|148:320,1,180,4|2,3:2|0:0,0:0:0:0:
147,319,171682,1,2,0:0:0:0:
147,319,171770,1,2,3:2:0:0:
225,227,171947,2,0,P|269:226|309:246,1,90,10|2,0:0|0:0,0:0:0:0:
309,246,172212,1,2,0:0:0:0:
309,246,172300,1,2,0:0:0:0:
460,113,172476,6,0,B|411:98|366:118|389:135|343:159|291:144,1,180,2|2,3:2|3:2,0:0:0:0:
267,142,172917,1,2,0:0:0:0:
245,140,173005,1,2,0:0:0:0:
222,138,173093,1,2,0:0:0:0:
200,136,173182,1,2,3:2:0:0:
178,134,173270,1,2,0:0:0:0:
156,132,173359,2,0,L|152:87,3,45,10|2|2|2,0:0|0:0|0:0|3:2,0:0:0:0:
78,155,173712,2,0,L|74:199,3,45,2|2|2|2,3:2|0:0|3:2|0:0,0:0:0:0:
165,262,174065,5,6,3:2:0:0:
165,262,174153,1,2,0:0:0:0:
165,262,174241,2,0,L|161:217,1,45,2|2,0:0|0:0,0:0:0:0:
59,21,174418,1,10,0:0:0:0:
59,21,174506,1,2,0:0:0:0:
59,21,174594,2,0,L|62:65,1,45,2|2,3:2|0:0,0:0:0:0:
74,199,174770,54,0,L|78:155,1,45,10|2,0:0|0:0,0:0:0:0:
152,87,174947,2,0,L|156:132,1,45,2|2,3:2|0:0,0:0:0:0:
247,290,175123,2,0,L|250:245,1,45,2|2,3:2|0:0,0:0:0:0:
288,62,175300,1,6,3:2:0:0:
256,192,175388,12,2,176888,0:0:0:0:
140,178,188182,6,0,P|184:177|223:199,1,90,2|2,3:2|0:0,0:0:0:0:
223,199,188888,2,0,P|235:156|268:126,1,90,2|0,3:2|0:0,0:0:0:0:
133,94,189417,1,2,0:0:0:0:
133,94,189594,2,0,P|177:89|212:62,1,90,0|0,3:2|0:0,0:0:0:0:
212,61,190300,1,2,3:2:0:0:
212,61,190476,2,0,P|230:101|267:126,1,90,2|2,0:0|0:0,0:0:0:0:
433,109,191006,6,0,L|344:102,1,90,0|2,3:2|0:0,0:0:0:0:
344,102,191712,2,0,L|347:57,2,45,2|2|2,3:2|0:0|0:0,0:0:0:0:
382,191,192241,1,2,0:0:0:0:
382,191,192417,2,0,L|389:280,1,90,0|0,3:2|0:0,0:0:0:0:
130,191,193123,1,2,3:2:0:0:
130,191,193300,2,0,L|122:280,1,90,2|2,0:0|0:0,0:0:0:0:
187,339,193829,6,0,P|246:307|313:308,1,135.000005149842,0|2,3:2|0:0,0:0:0:0:
401,223,194359,1,2,0:0:0:0:
401,223,194535,2,0,P|334:223|275:191,1,135.000005149842,0|0,3:2|0:0,0:0:0:0:
315,53,195065,1,2,0:0:0:0:
315,53,195241,6,0,P|337:91|336:136,1,90,0|0,3:2|0:0,0:0:0:0:
296,274,195594,2,0,P|273:235|274:190,1,90,2|0,0:0|0:0,0:0:0:0:
416,82,195947,1,10,0:2:0:0:
258,111,196123,1,8,0:2:0:0:
416,82,196300,1,10,0:2:0:0:
416,82,196653,6,0,P|466:176|454:282,1,215.999993408203,6|8,3:2|0:2,0:0:0:0:
391,356,197182,1,2,3:2:0:0:
218,213,197359,1,10,0:2:0:0:
376,198,197535,1,0,3:2:0:0:
233,371,197712,1,8,0:2:0:0:
256,123,197888,6,0,B|198:105|144:129|171:149|116:178|54:160,1,215.999993408203,4|0,3:2|3:2,0:0:0:0:
247,16,198417,2,0,L|256:123,1,107.999996704102,12|0,0:2|3:2,0:0:0:0:
124,247,198770,1,10,3:2:0:0:
121,274,198858,1,2,3:2:0:0:
119,301,198946,1,2,3:2:0:0:
117,328,199034,1,2,3:2:0:0:
115,355,199123,2,0,L|51:349,3,53.9999983520508,2|2|2|2,3:2|0:0|3:2|3:2,0:0:0:0:
204,307,199476,6,0,L|245:304,1,40.4999987640381,2|0,3:2|0:0,0:0:0:0:
335,363,199829,6,0,P|328:311|352:263,1,107.999996704102,14|2,0:0|0:0,0:0:0:0:
466,139,200182,1,2,3:2:0:0:
424,327,200359,1,2,0:0:0:0:
280,197,200535,1,8,0:0:0:0:
445,233,200712,1,2,0:0:0:0:
364,60,200888,6,0,L|373:167,1,107.999996704102,0|0,3:2|0:0,0:0:0:0:
352,262,201241,1,8,0:0:0:0:
267,48,201417,1,2,0:0:0:0:
125,229,201594,1,2,3:2:0:0:
125,229,201682,1,0,3:2:0:0:
125,229,201770,1,10,3:2:0:0:
280,197,201947,1,8,0:0:0:0:
230,347,202123,1,2,0:0:0:0:
29,258,202300,6,0,P|22:205|46:157,1,107.999996704102,0|0,3:2|0:0,0:0:0:0:
297,96,202653,2,0,P|303:148|279:196,1,107.999996704102,10|0,0:0|0:0,0:0:0:0:
118,222,203006,1,2,3:2:0:0:
208,132,203182,1,2,0:0:0:0:
259,290,203359,1,10,0:0:0:0:
417,239,203535,1,2,0:0:0:0:
295,379,203712,6,0,P|243:386|195:362,1,107.999996704102,0|0,3:2|0:0,0:0:0:0:
279,196,204065,1,8,0:0:0:0:
384,343,204241,1,2,0:0:0:0:
299,102,204417,1,2,3:2:0:0:
299,102,204506,1,0,3:2:0:0:
299,102,204594,1,10,3:2:0:0:
259,290,204770,1,8,0:0:0:0:
116,161,204947,1,2,0:0:0:0:
330,5,205123,6,0,B|272:-13|218:11|245:31|190:60|128:42,1,215.999993408203,0|10,3:2|0:0,0:0:0:0:
275,195,205653,2,0,P|299:147|292:95,1,107.999996704102,2|0,0:0|3:2,0:0:0:0:
437,23,206006,2,0,P|413:70|420:123,1,107.999996704102,2|8,0:0|0:0,0:0:0:0:
511,88,206359,1,2,0:0:0:0:
440,282,206535,6,0,L|333:273,1,107.999996704102,0|0,3:2|0:0,0:0:0:0:
169,205,206888,2,0,L|276:195,1,107.999996704102,10|0,0:0|0:0,0:0:0:0:
205,294,207241,1,2,3:2:0:0:
205,294,207329,1,0,3:2:0:0:
205,294,207417,1,8,3:2:0:0:
96,140,207594,2,0,P|72:188|80:241,1,107.999996704102,10|0,0:0|0:0,0:0:0:0:
188,109,207947,5,2,3:2:0:0:
24,76,208123,1,0,0:0:0:0:
79,240,208300,1,10,0:0:0:0:
79,240,208476,2,0,P|103:192|96:140,1,107.999996704102,2|2,0:0|3:2,0:0:0:0:
273,365,208829,1,0,0:0:0:0:
109,332,209005,1,10,0:0:0:0:
217,201,209182,2,0,P|193:248|200:301,1,107.999996704102,2|2,0:0|3:2,0:0:0:0:
463,293,209535,5,0,0:0:0:0:
306,164,209711,1,10,0:0:0:0:
273,365,209888,1,2,0:0:0:0:
217,201,210065,1,2,3:2:0:0:
217,201,210153,1,0,3:2:0:0:
217,201,210241,1,8,3:2:0:0:
362,328,210417,1,10,0:0:0:0:
459,55,210594,1,0,3:2:0:0:
459,55,210682,1,0,3:2:0:0:
459,55,210770,6,0,P|411:31|358:38,1,107.999996704102,6|0,3:2|0:0,0:0:0:0:
116,183,211123,2,0,P|164:207|217:201,1,107.999996704102,10|0,0:0|0:0,0:0:0:0:
395,127,211476,1,2,3:2:0:0:
180,111,211653,1,2,0:0:0:0:
316,271,211829,2,0,L|306:164,1,107.999996704102,8|2,0:0|0:0,0:0:0:0:
152,324,212182,6,0,B|210:306|264:330|237:350|292:379|356:360,1,215.999993408203,0|8,3:2|0:0,0:0:0:0:
316,271,212712,1,2,0:0:0:0:
57,348,212888,1,2,3:2:0:0:
57,348,212976,1,0,3:2:0:0:
57,348,213065,1,10,3:2:0:0:
222,234,213241,1,8,0:0:0:0:
41,149,213417,1,2,0:0:0:0:
298,169,213594,6,0,P|321:217|316:270,1,107.999996704102,0|0,3:2|0:0,0:0:0:0:
204,136,213947,1,10,0:0:0:0:
374,104,214123,1,2,0:0:0:0:
186,38,214300,1,2,3:2:0:0:
356,6,214476,1,2,0:0:0:0:
222,234,214653,1,10,0:0:0:0:
280,71,214829,1,2,0:0:0:0:
312,315,215006,6,0,P|218:265|112:276,1,215.999993408203,0|8,3:2|0:0,0:0:0:0:
202,354,215535,1,2,0:0:0:0:
403,280,215712,1,2,3:2:0:0:
215,145,215888,1,10,3:2:0:0:
216,159,215976,1,8,0:0:0:0:
217,174,216064,1,8,0:0:0:0:
218,189,216152,1,8,0:0:0:0:
220,204,216240,1,10,0:0:0:0:
221,219,216329,1,8,0:0:0:0:
222,234,216417,1,12,0:0:0:0:
222,234,218182,6,0,P|241:245|263:246,1,45,2|0,0:0|0:0,0:0:0:0:
320,187,218535,2,0,P|319:164|309:145,1,45,2|0,0:0|0:0,0:0:0:0:
231,124,218888,2,0,P|211:135|199:153,1,45,2|0,0:0|0:0,0:0:0:0:
43,241,219241,6,0,B|-39:175|-14:84|30:80|72:85|87:130|87:130|118:102|161:114|208:156|131:241|82:240,1,475.199998549805,2|2,0:0|0:0,0:0:0:0:
83,241,222417,70,0,L|77:304,2,59.3999998187256
18,356,223476,54,0,P|57:378|102:379,1,90,0|0,3:2|0:0,0:0:0:0:
237,339,223829,1,2,0:0:0:0:
78,300,224006,1,2,0:0:0:0:
214,260,224182,1,2,0:0:0:0:
101,188,224359,2,0,L|191:181,1,90,2|0,0:0|3:2,0:0:0:0:
384,288,224712,6,0,L|294:281,1,90,10|0,0:2|0:0,0:0:0:0:
322,128,225065,1,2,3:2:0:0:
440,228,225241,2,0,P|462:267|463:312,1,90,8|2,0:2|3:2,0:0:0:0:
237,339,225594,1,10,0:2:0:0:
409,153,225770,1,2,3:2:0:0:
409,153,225859,1,0,3:2:0:0:
409,153,225947,1,8,3:2:0:0:
151,100,226123,5,0,3:2:0:0:
151,100,226211,1,0,3:2:0:0:
151,100,226300,2,0,P|149:145|170:184,1,90,4|2,3:2|0:0,0:0:0:0:
270,283,226653,1,10,0:0:0:0:
228,127,226829,1,2,0:0:0:0:
111,240,227006,1,8,0:0:0:0:
249,205,227182,1,2,3:2:0:0:
213,341,227359,1,10,0:0:0:0:
307,148,227535,6,0,P|351:147|390:168,1,90,2|10,3:2|0:2,0:0:0:0:
406,245,227888,1,2,0:0:0:0:
450,117,228064,1,10,0:0:0:0:
432,324,228241,2,0,P|388:325|349:304,1,90,2|8,0:0|0:2,0:0:0:0:
450,117,228594,1,2,3:2:0:0:
249,205,228771,1,10,3:2:0:0:
161,4,228947,6,0,L|154:94,1,90,2|8,3:2|0:2,0:0:0:0:
307,148,229300,1,2,0:0:0:0:
75,41,229477,1,10,0:2:0:0:
165,223,229653,2,0,P|210:225|249:204,1,90,2|10,0:0|0:0,0:0:0:0:
365,91,230005,1,2,3:2:0:0:
365,91,230182,1,10,0:0:0:0:
404,248,230359,1,2,3:2:0:0:
287,70,230535,5,8,0:0:0:0:
268,282,230712,1,2,0:0:0:0:
462,191,230888,2,0,P|483:230|481:275,1,90,10|0,0:0|0:0,0:0:0:0:
248,204,231241,1,10,0:0:0:0:
365,91,231417,1,2,3:2:0:0:
404,248,231594,1,10,0:0:0:0:
396,21,231771,5,2,3:2:0:0:
396,21,231859,1,0,3:2:0:0:
396,21,231947,2,0,B|347:6|302:26|325:43|279:67|227:52,1,180,14|10,0:0|0:0,0:0:0:0:
149,26,232476,1,2,0:0:0:0:
365,91,232653,1,8,0:0:0:0:
201,130,232829,1,2,3:2:0:0:
317,253,233006,1,8,0:0:0:0:
103,235,233182,6,0,P|101:191|123:152,1,90,2|8,3:2|0:2,0:0:0:0:
323,172,233535,1,2,0:0:0:0:
181,209,233711,1,10,3:2:0:0:
310,343,233888,2,0,L|220:336,1,90,2|8,0:0|0:2,0:0:0:0:
181,209,234241,1,2,3:2:0:0:
390,348,234417,2,0,P|410:308|408:264,1,90,10|0,0:0|3:2,0:0:0:0:
236,63,234770,6,0,L|243:153,1,90,10|0,0:0|0:2,0:0:0:0:
420,183,235123,2,0,L|427:93,1,90,10|2,0:0|0:2,0:0:0:0:
306,21,235476,1,10,0:0:0:0:
496,51,235653,1,0,3:2:0:0:
327,171,235829,2,0,P|282:173|243:152,1,90,10|0,0:0|3:2,0:0:0:0:
136,69,236182,6,0,P|160:106|162:151,1,90,14|0,0:0|0:2,0:0:0:0:
144,286,236535,2,0,P|164:246|202:222,1,90,8|0,0:0|0:2,0:0:0:0:
334,252,236888,1,8,0:0:0:0:
82,131,237065,1,0,3:2:0:0:
299,92,237241,1,8,0:0:0:0:
59,221,237417,6,0,L|44:41,1,180,4|2,3:2|3:2,0:0:0:0:
151,196,237947,2,0,L|144:286,1,90,8|0,0:0|3:2,0:0:0:0:
45,327,238300,1,10,3:2:0:0:
313,278,238476,2,0,L|316:233,1,45,10|2,3:2|0:0,0:0:0:0:
137,70,238653,2,0,L|140:114,1,45,10|2,3:2|0:0,0:0:0:0:
190,353,238829,2,0,B|239:338|284:358|261:375|307:399|359:384,1,180,12|0,3:2|0:0,0:0:0:0:
