osu file format v14

[General]
AudioFilename: audio.mp3
AudioLeadIn: 0
PreviewTime: 70681
Countdown: 0
SampleSet: Soft
StackLeniency: 0.7
Mode: 0
LetterboxInBreaks: 0
WidescreenStoryboard: 0

[Editor]
DistanceSpacing: 0.5
BeatDivisor: 4
GridSize: 32
TimelineZoom: 3.399999

[Metadata]
Title:SAIKYO TENSAI WONDERFUL WORLD of KORONE
TitleUnicode:ころねの最凶天災☆わんだふぉー❤わーるど
Artist:Inugami Korone
ArtistUnicode:戌神ころね
Creator:Yuuma
Version:Yubi Yubi
Source:
Tags:ホロライブ ホロライブゲーマーズ hololive gamers vtuber virtual youtuber japanese pop jpop j-pop original おぐらあすか ogura asuka saji 石塚陽大 ishizuka yota Hifumi,inc.
BeatmapID:2946557
BeatmapSetID:1431435

[Difficulty]
HPDrainRate:6
CircleSize:3.8
OverallDifficulty:9
ApproachRate:9.3
SliderMultiplier:1.8
SliderTickRate:1

[Events]
//Background and Video events
0,0,"korone_my_life.jpg",0,0
Video,0,"koronevideo.avi"
//Break Periods
2,97719,99559
//Storyboard Layer 0 (Background)
//Storyboard Layer 1 (Fail)
//Storyboard Layer 2 (Pass)
//Storyboard Layer 3 (Foreground)
//Storyboard Layer 4 (Overlay)
//Storyboard Sound Samples

[TimingPoints]
1185,400,4,2,1,60,1,0
1185,-125,4,2,1,60,0,0
8179,324.324324324324,4,2,1,70,1,0
13043,-66.6666666666667,4,2,1,70,0,0
13287,-66.6666666666667,4,2,1,5,0,0
13368,-100,4,2,1,80,0,0
23097,-142.857142857143,4,2,1,70,0,0
28935,-125,4,2,1,70,0,0
44503,400,4,2,1,60,1,0
44503,-142.857142857143,4,2,1,60,0,0
57303,324.324324324324,4,2,1,70,1,0
57303,-111.111111111111,4,2,1,70,0,0
65086,-83.3333333333333,4,2,1,70,0,0
65411,-125,4,2,1,70,0,0
67681,-83.3333333333333,4,2,1,70,0,0
68005,-125,4,2,1,70,0,0
68816,-100,4,2,1,70,0,0
71573,-90.9090909090909,4,2,1,80,0,1
82275,-62.5,4,2,1,80,0,1
82519,-62.5,4,2,1,5,0,1
82600,-90.9090909090909,4,2,1,80,0,1
89735,-125,4,2,1,80,0,1
90951,-125,4,2,1,5,0,1
91032,-100,4,2,1,80,0,1
97194,-166.666666666667,4,2,1,80,0,1
97519,-166.666666666667,4,2,1,50,0,0
100113,-142.857142857143,4,2,1,60,0,0
110492,-125,4,2,1,70,0,0
120870,-111.111111111111,4,2,1,70,0,0
131248,-90.9090909090909,4,2,1,80,0,1
141951,-62.5,4,2,1,80,0,1
142194,-62.5,4,2,1,5,0,1
142275,-90.9090909090909,4,2,1,80,0,1
149411,-125,4,2,1,80,0,1
150627,-125,4,2,1,5,0,1
150708,-100,4,2,1,80,0,1
152005,-200,4,2,1,50,0,0
161086,-500,4,2,1,50,0,0
163681,-125,4,2,1,70,0,0
168870,-111.111111111111,4,2,1,70,0,0
171465,-83.3333333333333,4,2,1,70,0,0
171789,-125,4,2,1,70,0,0
174059,-83.3333333333333,4,2,1,70,0,0
174384,-125,4,2,1,70,0,0
175194,-100,4,2,1,70,0,0
179248,-166.666666666667,4,2,1,50,0,0
187032,-166.666666666667,4,2,1,70,0,0
194167,-83.3333333333334,4,2,1,70,0,0
194411,-83.3333333333334,4,2,1,5,0,0
194492,-62.5,4,2,1,70,0,0
194735,-62.5,4,2,1,5,0,0
194816,-90.9090909090909,4,2,1,80,0,1
200330,-62.5,4,2,1,80,0,1
200573,-62.5,4,2,1,5,0,1
200654,-90.9090909090909,4,2,1,80,0,1
207789,-125,4,2,1,80,0,1
209005,-125,4,2,1,5,0,1
209086,-100,4,2,1,80,0,1
216221,-142.857142857143,4,2,1,80,0,1
216870,-142.857142857143,4,2,1,60,0,0
219140,-100,4,2,1,80,0,0

[Colours]
Combo1 : 255,128,128
Combo2 : 255,255,128
Combo3 : 128,255,255
Combo4 : 255,184,149

[HitObjects]
96,58,1185,6,0,P|68:96|72:142,1,96,6|2,0:0|0:0,0:0:0:0:
97,185,1585,2,0,P|159:165|206:166,1,96,2|0,0:0|0:0,0:0:0:0:
284,184,1985,1,2,0:0:0:0:
353,48,2251,1,0,0:0:0:0:
353,48,2385,2,0,P|301:31|275:31,2,48,2|0|0,0:0|0:0|0:0,0:0:0:0:
439,96,2785,2,0,P|365:100|323:127,1,96,6|2,0:0|0:0,0:0:0:0:
284,184,3185,5,2,0:0:0:0:
289,231,3318,1,0,0:0:0:0:
294,279,3451,1,0,0:0:0:0:
299,327,3585,6,0,B|272:308|272:308|209:318,1,96,2|2,0:0|0:0,0:0:0:0:
128,272,3985,2,0,L|120:210,2,48,2|2|2,0:0|0:0|0:0,0:0:0:0:
56,337,4385,6,0,P|15:309|17:251,1,96,6|0,0:0|0:0,0:0:0:0:
17,219,4785,2,0,P|39:163|16:112,1,96,0|2,0:0|0:0,0:0:0:0:
98,62,5185,2,0,P|86:21|91:2,2,48,2|0|0,0:0|0:0|0:0,0:0:0:0:
187,95,5585,1,6,0:0:0:0:
256,192,5651,12,0,7985,0:0:0:0:
390,65,8179,5,8,0:0:0:0:
80,115,8341,1,8,0:0:0:0:
294,334,8827,5,8,0:0:0:0:
244,24,8989,1,8,0:0:0:0:
244,24,9314,1,0,1:0:0:0:
165,103,9476,5,8,0:0:0:0:
475,153,9638,1,8,0:0:0:0:
475,153,9962,1,0,1:0:0:0:
390,65,10124,5,8,0:0:0:0:
340,375,10287,1,8,0:0:0:0:
139,233,10449,1,0,3:0:0:0:
139,233,10530,1,0,3:0:0:0:
139,233,10611,2,0,L|204:215,1,45,0|0,3:0|3:0,0:0:0:0:
396,151,10773,6,0,P|398:85|377:47,1,90,8|0,0:0|0:0,0:0:0:0:
196,73,11097,2,0,P|189:117|202:159,1,90,8|0,0:0|0:0,0:0:0:0:
297,114,11422,5,8,0:0:0:0:
25,159,11584,1,8,0:0:0:0:
25,159,11908,6,0,P|74:185|113:194,1,90,8|0,0:0|0:0,0:0:0:0:
273,174,12233,1,8,0:0:0:0:
282,162,12314,1,8,0:0:0:0:
290,143,12395,1,8,0:0:0:0:
297,114,12476,1,8,0:0:0:0:
297,85,12557,1,8,0:0:0:0:
288,57,12638,1,8,0:0:0:0:
272,33,12719,1,8,0:0:0:0:
254,28,13043,6,0,B|246:95|246:95|256:156|256:156|244:228,1,202.500007724762,4|0,1:0|0:0,0:0:0:0:
235,331,13368,5,6,0:0:0:0:
433,231,13530,1,10,0:0:0:0:
433,231,13611,1,8,3:0:0:0:
433,231,13692,2,0,L|369:216,1,45,2|2,3:2|0:0,0:0:0:0:
306,129,13854,2,0,L|371:119,1,45,10|8,0:0|3:0,0:0:0:0:
244,251,14016,6,0,L|186:240,1,45,2|2,3:2|0:0,0:0:0:0:
110,158,14178,1,10,0:0:0:0:
108,114,14260,1,8,3:0:0:0:
139,84,14341,1,2,3:2:0:0:
183,88,14422,1,2,0:0:0:0:
208,123,14503,2,0,P|211:162|207:174,1,45,10|0,0:0|0:0,0:0:0:0:
89,286,14665,5,0,3:2:0:0:
287,233,14827,1,10,0:0:0:0:
301,228,14908,1,10,3:2:0:0:
315,225,14989,1,2,3:2:0:0:
108,114,15151,1,10,0:0:0:0:
232,359,15314,6,0,L|245:240,1,90,2|10,3:2|0:0,0:0:0:0:
315,225,15557,1,10,3:2:0:0:
315,225,15638,2,0,L|302:106,1,90,2|10,3:2|0:0,0:0:0:0:
117,37,15962,5,2,3:2:0:0:
114,59,16043,1,2,0:0:0:0:
112,81,16124,1,10,0:0:0:0:
109,104,16206,1,10,3:2:0:0:
107,126,16287,2,0,L|99:194,1,45,2|2,3:2|0:0,0:0:0:0:
226,223,16449,2,0,L|220:178,1,45,10|2,0:0|0:0,0:0:0:0:
119,301,16611,5,2,3:2:0:0:
134,342,16692,1,2,0:0:0:0:
169,369,16773,1,10,0:0:0:0:
213,374,16854,1,10,3:2:0:0:
254,355,16935,2,0,P|313:336|354:333,1,90,2|10,3:2|0:0,0:0:0:0:
482,192,17260,6,0,P|462:181|440:177,1,45,2|2,3:2|0:0,0:0:0:0:
395,83,17422,2,0,P|375:94|361:111,1,45,10|10,0:0|3:2,0:0:0:0:
254,104,17584,2,0,P|254:126|261:147,2,45,2|2|10,3:2|0:0|0:0,0:0:0:0:
485,46,17908,6,0,P|492:67|492:89,3,45,2|0|8|8,3:2|0:0|0:0|3:0,0:0:0:0:
440,177,18233,1,10,0:0:0:0:
395,169,18314,1,8,0:0:0:0:
351,162,18395,1,8,0:0:0:0:
306,155,18476,1,8,0:0:0:0:
262,147,18557,5,2,3:2:0:0:
68,67,18719,1,10,0:0:0:0:
68,67,18800,1,8,3:0:0:0:
68,67,18881,2,0,L|132:57,1,45,2|2,3:2|0:0,0:0:0:0:
257,37,19043,1,10,0:0:0:0:
101,163,19206,6,0,P|92:198|94:218,1,45,2|2,3:2|0:0,0:0:0:0:
214,272,19368,1,10,0:0:0:0:
214,272,19449,1,8,3:0:0:0:
214,272,19530,2,0,P|188:246|169:238,1,45,2|2,3:2|0:0,0:0:0:0:
63,315,19692,2,0,P|97:305|114:293,1,45,10|2,0:0|0:0,0:0:0:0:
207,148,19854,5,2,3:2:0:0:
325,341,20016,1,10,0:0:0:0:
325,341,20097,1,10,3:2:0:0:
325,341,20178,1,2,3:2:0:0:
379,107,20341,1,10,0:0:0:0:
214,272,20503,6,0,P|287:257|325:257,1,90,2|10,3:2|0:0,0:0:0:0:
388,283,20746,1,10,3:2:0:0:
388,283,20827,2,0,P|461:298|499:298,1,90,2|10,3:2|0:0,0:0:0:0:
379,107,21151,5,8,0:0:0:0:
218,384,21476,5,8,0:0:0:0:
57,107,21800,5,8,0:0:0:0:
94,275,21962,1,8,0:0:0:0:
94,275,22287,6,0,P|49:291|-9:291,1,90,10|2,0:0|0:0,0:0:0:0:
243,223,22611,2,0,P|272:225|293:233,1,45,10|8,0:0|0:0,0:0:0:0:
393,298,22773,1,10,0:0:0:0:
412,308,22854,1,8,0:0:0:0:
434,312,22935,1,10,0:0:0:0:
457,311,23016,1,8,0:0:0:0:
478,303,23097,2,0,B|493:268|493:268|476:163,1,125.999996154785,2|2,0:0|0:0,0:0:0:0:
447,26,23746,5,2,1:2:0:0:
80,81,25043,5,2,1:2:0:0:
464,167,26341,5,2,1:2:0:0:
260,192,26989,5,2,1:2:0:0:
51,235,27638,5,2,1:2:0:0:
159,270,27962,5,2,1:2:0:0:
266,307,28287,5,2,1:2:0:0:
266,307,28611,6,0,B|272:284|272:284|264:261|264:261|275:240|275:240|267:218,1,94.499997116089,2|0,0:0|0:0,0:0:0:0:
244,143,28935,5,6,3:2:0:0:
419,202,29097,1,2,0:0:0:0:
419,202,29260,2,0,P|431:147|414:109,1,72,10|2,0:0|0:0,0:0:0:0:
312,48,29584,2,0,L|394:35,1,72,2|0,3:2|0:0,0:0:0:0:
337,153,29908,1,10,0:0:0:0:
185,103,30070,6,0,L|90:88,1,72,2|0,0:0|3:0,0:0:0:0:
225,200,30395,1,2,0:0:0:0:
262,37,30557,1,10,0:0:0:0:
132,188,30719,1,2,0:0:0:0:
337,153,30881,1,2,3:2:0:0:
185,103,31043,1,0,0:0:0:0:
231,297,31206,1,10,0:0:0:0:
386,255,31368,2,0,P|416:246|433:244,1,36
256,201,31530,5,2,0:0:0:0:
220,196,31611,1,2,0:0:0:0:
187,208,31692,1,2,0:0:0:0:
163,235,31773,1,2,0:0:0:0:
138,261,31854,1,2,0:0:0:0:
104,273,31935,1,2,0:0:0:0:
69,269,32016,6,0,L|43:265,2,18,2|2|2,0:0|0:0|0:0,0:0:0:0:
17,169,32178,2,0,L|14:151,2,18,2|2|2,0:0|0:0|0:0,0:0:0:0:
114,129,32341,2,0,L|116:111,2,18,2|2|2,0:0|0:0|0:0,0:0:0:0:
187,208,32503,1,8,3:0:0:0:
224,6,32665,5,8,0:0:0:0:
244,110,33638,2,0,B|277:122|277:122|305:110|305:110|329:120|329:120|351:111|351:111|383:125|383:125|416:114,1,180,2|0,0:0|0:0,0:0:0:0:
491,86,34124,5,6,3:2:0:0:
403,248,34287,1,2,0:0:0:0:
403,248,34449,2,0,P|396:205|411:167,1,72,10|2,0:0|0:0,0:0:0:0:
244,110,34773,2,0,P|279:84|319:81,1,72,2|0,3:2|0:0,0:0:0:0:
280,232,35097,1,10,0:0:0:0:
126,153,35260,6,0,L|116:69,1,72,2|0,0:0|3:0,0:0:0:0:
280,232,35584,1,2,0:0:0:0:
111,269,35746,1,10,0:0:0:0:
244,110,35908,1,2,0:0:0:0:
209,310,36070,2,0,L|126:295,1,72,2|0,3:2|0:0,0:0:0:0:
29,149,36395,2,0,L|115:136,1,72,10|0,0:0|0:0,0:0:0:0:
0,260,36719,1,0,3:2:0:0:
199,194,36881,5,2,0:0:0:0:
199,194,37043,2,0,P|208:153|199:113,1,72,10|2,0:0|0:0,0:0:0:0:
58,30,37368,2,0,P|45:88|50:109,1,72,2|2,3:2|0:0,0:0:0:0:
96,224,37692,1,10,0:0:0:0:
281,76,37854,6,0,L|364:91,1,72,2|0,0:0|3:0,0:0:0:0:
286,209,38178,1,2,0:0:0:0:
163,122,38341,1,10,0:0:0:0:
359,43,38503,1,2,0:0:0:0:
286,209,38665,2,0,P|227:231|203:225,1,72,2|0,3:2|0:0,0:0:0:0:
417,115,38989,2,0,P|452:117|482:136,1,72,10|0,0:0|0:0,0:0:0:0:
399,286,39314,1,4,3:2:0:0:
227,131,39476,5,2,0:0:0:0:
353,166,39638,1,10,0:0:0:0:
261,261,39800,1,2,0:0:0:0:
227,131,39962,2,0,B|217:95|217:95|227:54,1,72,2|0,3:2|0:0,0:0:0:0:
353,166,40287,1,10,0:0:0:0:
144,231,40449,6,0,L|47:207,1,72,2|0,0:0|3:0,0:0:0:0:
15,100,40773,1,2,0:0:0:0:
15,100,40935,2,0,L|112:76,1,72,10|0,0:0|0:0,0:0:0:0:
311,68,41260,2,0,P|329:111|316:153,1,72,2|0,0:0|0:0,0:0:0:0:
197,153,41584,2,0,P|179:110|192:68,1,72,10|0,0:0|0:0,0:0:0:0:
392,37,41908,5,10,0:0:0:0:
406,41,42557,5,10,0:0:0:0:
420,45,43206,5,10,0:0:0:0:
404,155,43530,1,10,0:0:0:0:
388,265,43854,1,10,0:0:0:0:
123,293,44503,6,0,L|110:202,1,83.9999974365235,2|2,0:0|0:0,0:0:0:0:
75,187,44903,2,0,L|91:72,1,83.9999974365235,2|0,0:0|0:0,0:0:0:0:
152,37,45303,1,2,0:0:0:0:
236,153,45569,1,0,0:0:0:0:
236,153,45703,2,0,L|230:208,2,41.9999987182618,2|0|0,0:0|0:0|0:0,0:0:0:0:
312,81,46103,6,0,P|351:80|415:117,1,83.9999974365235,2|2,0:0|0:0,0:0:0:0:
426,131,46503,2,0,P|427:170|390:234,1,83.9999974365235,2|2,0:0|0:0,0:0:0:0:
350,278,46903,6,0,B|312:295|312:295|267:287,1,83.9999974365235,2|2,0:0|0:0,0:0:0:0:
198,247,47303,1,2,0:0:0:0:
156,252,47436,1,2,0:0:0:0:
114,257,47569,1,2,0:0:0:0:
72,262,47703,2,0,B|33:243|33:243|19:199,1,83.9999974365235,2|2,0:0|0:0,0:0:0:0:
106,141,48103,6,0,P|156:122|213:142,1,83.9999974365235,2|2,0:0|0:0,0:0:0:0:
229,143,48503,2,0,P|270:145|308:128,1,83.9999974365235,2|2,0:0|0:0,0:0:0:0:
348,95,48903,2,0,L|340:48,2,41.9999987182618,2|0|2,0:0|0:0|0:0,0:0:0:0:
441,143,49303,6,0,L|433:257,1,83.9999974365235,2|0,0:0|0:0,0:0:0:0:
432,278,49703,2,0,P|376:250|335:258,1,83.9999974365235,2|2,0:0|0:0,0:0:0:0:
291,312,50103,2,0,P|249:329|201:319,1,83.9999974365235,2|0,0:0|0:0,0:0:0:0:
152,258,50503,1,2,0:0:0:0:
111,248,50636,1,2,0:0:0:0:
70,257,50769,1,2,0:0:0:0:
38,283,50903,6,0,P|8:241|11:196,1,83.9999974365235,2|0,0:0|0:0,0:0:0:0:
23,170,51303,1,2,0:0:0:0:
149,131,51569,1,2,0:0:0:0:
149,131,51703,2,0,P|196:138|243:148,1,83.9999974365235,2|0,0:0|0:0,0:0:0:0:
270,175,52103,2,0,P|323:164|364:152,1,83.9999974365235,2|2,0:0|0:0,0:0:0:0:
435,130,52503,6,0,B|462:78|401:55|450:-6,1,125.999996154785,2|2,0:0|0:0,0:0:0:0:
295,74,53169,1,2,0:0:0:0:
295,74,53303,2,0,P|218:51|203:50,1,83.9999974365235,2|0,0:0|0:0,0:0:0:0:
149,104,53703,6,0,P|94:122|53:123,1,83.9999974365235,2|2,0:0|0:0,0:0:0:0:
8,57,54103,1,2,0:0:0:0:
17,231,54503,6,0,P|72:213|113:212,1,83.9999974365235,2|2,0:0|0:0,0:0:0:0:
158,278,54903,1,2,0:0:0:0:
392,245,55303,6,0,P|337:227|296:226,1,83.9999974365235,2|2,0:0|0:0,0:0:0:0:
251,292,55703,2,0,B|232:243|232:243|239:192,1,83.9999974365235,2|2,0:0|0:0,0:0:0:0:
259,136,56103,1,2,0:0:0:0:
259,136,56236,2,0,P|269:115|272:83,1,41.9999987182618,2|2,0:0|0:0,0:0:0:0:
194,42,56503,1,2,0:0:0:0:
194,42,56636,2,0,P|183:54|173:80,1,41.9999987182618,2|2,0:0|0:0,0:0:0:0:
135,157,56903,1,2,0:0:0:0:
176,150,57036,1,2,0:0:0:0:
217,143,57169,1,2,0:0:0:0:
259,136,57303,6,0,P|309:114|350:117,1,80.9999975280763,6|0,0:0|0:0,0:0:0:0:
480,240,57627,2,0,L|469:336,1,80.9999975280763,10|2,0:0|0:0,0:0:0:0:
323,211,57951,1,2,3:2:0:0:
447,129,58113,1,2,3:2:0:0:
375,303,58275,1,10,0:0:0:0:
375,303,58357,1,2,0:0:0:0:
375,303,58438,1,2,0:0:0:0:
180,156,58600,6,0,L|258:135,1,80.9999975280763,2|0,3:2|0:0,0:0:0:0:
257,273,58924,1,10,0:0:0:0:
103,216,59086,1,2,0:0:0:0:
233,77,59248,2,0,L|244:165,1,80.9999975280763,2|2,3:2|3:2,0:0:0:0:
249,181,59492,1,2,3:2:0:0:
249,181,59573,1,10,0:0:0:0:
103,92,59735,1,2,0:0:0:0:
31,283,59897,6,0,B|112:298|96:220|186:237,1,161.999995056153,6|10,3:2|0:0,0:0:0:0:
351,290,60384,2,0,P|335:302|315:307,1,40.4999987640381,2|2,0:0|0:0,0:0:0:0:
168,322,60546,5,10,0:0:0:0:
274,134,60708,1,8,0:0:0:0:
307,371,60870,1,10,0:0:0:0:
307,371,60951,1,2,3:2:0:0:
307,371,61032,1,2,0:0:0:0:
149,182,61194,5,2,3:2:0:0:
377,237,61357,1,10,0:0:0:0:
410,242,61438,1,10,0:0:0:0:
442,247,61519,2,0,L|496:237,1,40.4999987640381,10|10,0:0|0:0,0:0:0:0:
449,90,61681,1,10,0:0:0:0:
449,90,61762,1,10,0:0:0:0:
449,90,61843,2,0,L|352:75,1,80.9999975280763,10|2,0:0|0:0,0:0:0:0:
284,45,62086,1,2,0:0:0:0:
284,45,62167,2,0,L|203:57,1,80.9999975280763,10|10,0:0|0:0,0:0:0:0:
105,76,62411,1,10,0:0:0:0:
105,76,62492,6,0,P|85:128|96:183,1,80.9999975280763,6|0,3:2|0:0,0:0:0:0:
288,188,62816,1,8,0:0:0:0:
79,264,62978,1,2,0:0:0:0:
189,138,63140,1,0,3:2:0:0:
222,345,63302,1,2,0:0:0:0:
222,345,63465,2,0,L|128:328,1,80.9999975280763,8|2,0:0|0:0,0:0:0:0:
336,216,63789,6,0,L|445:198,1,80.9999975280763,0|0,3:2|0:0,0:0:0:0:
193,107,64113,2,0,L|100:89,1,80.9999975280763,10|0,0:0|0:0,0:0:0:0:
317,13,64438,2,0,L|330:107,1,80.9999975280763,2|0,3:2|0:0,0:0:0:0:
186,299,64762,2,0,L|203:194,1,80.9999975280763,10|0,0:0|0:0,0:0:0:0:
437,133,65086,6,0,P|401:213|315:202,1,161.999995056153,6|0,0:0|0:0,0:0:0:0:
262,160,65411,6,0,P|211:136|149:149,1,108,10|0,0:0|0:0,0:0:0:0:
78,192,65735,2,0,L|90:340,1,144,2|8,3:2|0:0,0:0:0:0:
256,259,66221,2,0,L|248:175,1,72,2|0,3:2|0:0,0:0:0:0:
179,314,66546,1,2,3:2:0:0:
346,369,66708,2,0,L|338:285,1,72,8|10,0:0|0:0,0:0:0:0:
326,188,67032,1,2,3:2:0:0:
179,314,67194,5,10,0:0:0:0:
167,103,67357,1,10,0:0:0:0:
339,297,67519,1,2,3:2:0:0:
356,37,67681,6,0,P|310:95|333:184,1,161.999995056153,2|0,3:2|0:0,0:0:0:0:
403,231,68005,6,0,L|480:216,1,72,10|8,0:0|0:0,0:0:0:0:
423,123,68330,1,2,3:2:0:0:
323,265,68492,1,2,0:0:0:0:
212,108,68654,1,10,0:0:0:0:
99,301,68816,6,0,P|155:250|177:323,1,180,6|8,0:0|0:0,0:0:0:0:
35,208,69302,2,0,P|22:147|41:110,1,90,2|0,3:2|0:0,0:0:0:0:
300,57,69627,2,0,P|310:126|301:150,1,90,2|0,3:2|0:0,0:0:0:0:
177,323,69951,5,2,3:2:0:0:
143,317,70032,1,0,3:0:0:0:
110,312,70113,1,0,3:0:0:0:
77,306,70194,1,0,3:0:0:0:
43,301,70275,1,0,3:0:0:0:
18,298,70600,6,0,B|143:347|267:267|281:192|276:148|234:103|187:109|147:148|181:208,1,450,6|2,0:0|0:0,0:0:0:0:
288,342,71573,5,6,0:0:0:0:
484,201,71735,1,10,0:0:0:0:
497,195,71816,1,8,3:0:0:0:
512,193,71897,1,0,3:0:0:0:
377,369,72059,5,10,0:0:0:0:
320,150,72221,1,2,3:2:0:0:
320,150,72302,1,0,3:0:0:0:
320,150,72384,2,0,L|313:211,1,49.5000015106202,10|0,0:0|0:0,0:0:0:0:
211,299,72546,2,0,L|205:249,1,49.5000015106202,2|2,3:2|0:0,0:0:0:0:
110,139,72708,2,0,L|103:200,1,49.5000015106202,10|0,0:0|0:0,0:0:0:0:
16,276,72870,5,0,3:0:0:0:
241,228,73032,1,8,0:0:0:0:
241,228,73113,1,8,3:0:0:0:
241,228,73194,2,0,L|184:216,1,49.5000015106202,2|2,3:2|0:0,0:0:0:0:
67,87,73357,6,0,L|178:69,1,99.0000030212403,10|2,0:0|3:2,0:0:0:0:
264,118,73600,1,2,0:0:0:0:
264,118,73681,2,0,L|326:106,1,49.5000015106202,10|0,0:0|0:0,0:0:0:0:
391,48,73843,2,0,L|440:42,2,49.5000015106202,2|2|10,3:2|0:0|0:0,0:0:0:0:
353,246,74167,5,2,3:2:0:0:
184,139,74330,1,8,0:0:0:0:
172,160,74411,1,8,3:0:0:0:
167,184,74492,6,0,L|172:247,1,49.5000015106202,2|2,3:2|0:0,0:0:0:0:
182,347,74654,1,10,0:0:0:0:
291,149,74816,6,0,L|296:212,1,49.5000015106202,2|2,3:2|0:0,0:0:0:0:
306,312,74978,1,10,0:0:0:0:
412,113,75140,6,0,L|417:176,1,49.5000015106202,2|2,3:2|0:0,0:0:0:0:
427,276,75302,1,10,0:0:0:0:
170,233,75465,1,2,3:2:0:0:
354,39,75627,5,10,0:0:0:0:
299,289,75789,1,0,3:0:0:0:
103,99,75951,5,10,0:0:0:0:
365,168,76113,1,0,3:0:0:0:
167,352,76275,5,10,0:0:0:0:
243,88,76438,1,8,0:0:0:0:
292,90,76519,1,8,0:0:0:0:
329,121,76600,1,8,0:0:0:0:
340,169,76681,1,8,0:0:0:0:
319,213,76762,6,0,P|229:194|213:194,1,99.0000030212403,6|0,3:2|0:0,0:0:0:0:
35,285,77086,1,10,0:0:0:0:
35,285,77167,1,2,0:0:0:0:
35,285,77248,2,0,P|125:304|141:304,1,99.0000030212403,2|2,0:0|3:2,0:0:0:0:
221,291,77492,1,2,0:0:0:0:
221,291,77573,1,2,0:0:0:0:
70,149,77735,2,0,L|75:208,1,49.5000015106202,10|2,0:0|0:0,0:0:0:0:
211,97,77897,1,2,0:0:0:0:
20,61,78059,6,0,L|28:182,1,99.0000030212403,2|0,3:2|0:0,0:0:0:0:
131,304,78384,2,0,L|141:243,1,49.5000015106202,10|2,0:0|0:0,0:0:0:0:
161,155,78546,1,2,0:0:0:0:
393,196,78708,1,2,3:2:0:0:
393,196,78789,1,2,0:0:0:0:
393,196,78870,1,2,0:0:0:0:
292,70,79032,1,10,0:0:0:0:
263,286,79194,1,2,0:0:0:0:
504,209,79357,5,2,3:2:0:0:
277,175,79519,1,2,3:2:0:0:
474,16,79681,2,0,L|489:132,1,99.0000030212403,6|0,0:0|0:0,0:0:0:0:
410,290,80005,5,2,3:2:0:0:
183,256,80167,1,2,3:2:0:0:
380,97,80330,2,0,L|395:213,1,99.0000030212403,6|0,0:0|0:0,0:0:0:0:
302,348,80654,6,0,L|293:286,1,49.5000015106202,2|2,3:2|0:0,0:0:0:0:
277,175,80816,1,10,0:0:0:0:
86,298,80978,6,0,L|94:236,1,49.5000015106202,2|2,3:2|3:2,0:0:0:0:
111,125,81140,1,8,0:0:0:0:
284,223,81302,6,0,L|275:161,1,49.5000015106202,10|2,0:0|0:0,0:0:0:0:
118,76,81465,2,0,L|110:124,1,49.5000015106202,2|2,0:0|0:0,0:0:0:0:
215,313,81627,1,10,0:0:0:0:
253,342,81708,1,10,0:0:0:0:
302,348,81789,1,10,0:0:0:0:
347,329,81870,1,10,0:0:0:0:
373,287,81951,5,2,0:0:0:0:
387,275,82032,1,2,0:0:0:0:
405,268,82113,1,2,0:0:0:0:
423,267,82194,1,2,0:0:0:0:
491,291,82275,6,0,P|392:298|378:200,1,216,6|0,3:2|0:0,0:0:0:0:
440,126,82600,1,0,3:0:0:0:
200,183,82762,1,2,0:0:0:0:
330,29,82924,1,10,0:0:0:0:
330,29,83005,1,2,0:0:0:0:
330,29,83086,1,2,0:0:0:0:
296,246,83248,5,2,3:2:0:0:
155,146,83411,2,0,B|131:134|131:134|105:134,1,49.5000015106202,2|2,0:0|0:0,0:0:0:0:
320,93,83573,1,10,0:0:0:0:
320,93,83654,1,2,0:0:0:0:
320,93,83735,2,0,L|312:167,1,49.5000015106202,2|2,0:0|0:0,0:0:0:0:
204,331,83897,2,0,L|196:261,1,49.5000015106202,2|2,3:2|0:0,0:0:0:0:
80,171,84059,1,2,0:0:0:0:
289,124,84221,1,10,0:0:0:0:
289,124,84302,1,2,0:0:0:0:
289,124,84384,1,2,0:0:0:0:
118,309,84546,6,0,L|109:260,1,49.5000015106202,2|2,3:2|0:0,0:0:0:0:
158,97,84708,1,2,0:0:0:0:
267,298,84870,5,10,0:0:0:0:
278,301,84951,1,2,0:0:0:0:
289,300,85032,1,2,0:0:0:0:
315,116,85194,6,0,P|286:107|239:105,1,49.5000015106202,2|2,3:2|0:0,0:0:0:0:
136,177,85357,1,2,0:0:0:0:
369,211,85519,5,10,0:0:0:0:
372,228,85600,1,2,0:0:0:0:
371,245,85681,1,2,0:0:0:0:
167,304,85843,6,0,L|112:283,1,49.5000015106202,2|2,3:2|0:0,0:0:0:0:
274,121,86005,1,2,0:0:0:0:
370,351,86167,1,8,0:0:0:0:
370,351,86248,1,2,3:2:0:0:
370,351,86330,1,2,0:0:0:0:
111,278,86492,2,0,L|170:264,1,49.5000015106202,2|2,3:2|0:0,0:0:0:0:
394,203,86654,1,2,0:0:0:0:
164,360,86816,5,10,0:0:0:0:
129,324,86897,1,10,0:0:0:0:
111,278,86978,1,10,0:0:0:0:
113,229,87059,1,10,0:0:0:0:
134,185,87140,6,0,P|148:136|124:65,1,99.0000030212403,6|0,3:2|0:0,0:0:0:0:
25,265,87465,1,10,0:0:0:0:
25,265,87546,1,2,0:0:0:0:
25,265,87627,2,0,P|32:303|41:318,1,49.5000015106202,2|2,0:0|0:0,0:0:0:0:
228,205,87789,2,0,P|238:168|238:132,1,49.5000015106202,2|2,3:2|0:0,0:0:0:0:
51,135,87951,1,2,0:0:0:0:
220,294,88113,1,10,0:0:0:0:
256,66,88275,1,2,0:0:0:0:
111,278,88438,6,0,L|102:217,1,49.5000015106202,2|2,3:2|0:0,0:0:0:0:
84,100,88600,1,2,0:0:0:0:
352,20,88762,6,0,L|343:81,1,49.5000015106202,10|2,0:0|0:0,0:0:0:0:
325,198,88924,1,2,0:0:0:0:
227,342,89086,6,0,L|218:281,1,49.5000015106202,2|2,3:2|0:0,0:0:0:0:
200,164,89248,1,2,0:0:0:0:
457,143,89411,5,10,0:0:0:0:
453,167,89492,1,10,0:0:0:0:
449,192,89573,1,10,0:0:0:0:
442,241,89654,1,10,0:0:0:0:
434,290,89735,6,0,B|392:348|324:332|347:307|275:284|233:343|233:343|220:280|141:276|149:214|177:182|212:168|239:172|263:199|263:199|304:185|332:228,1,540,6|0,0:0|0:0,0:0:0:0:
326,228,91032,5,10,0:0:0:0:
51,320,91194,1,10,0:0:0:0:
138,132,91681,5,10,0:0:0:0:
478,239,91843,1,10,0:0:0:0:
359,34,92330,6,0,P|342:96|325:205,1,135,6|2,3:2|0:0,0:0:0:0:
256,225,92654,2,0,P|268:293|268:328,1,90,10|2,0:0|0:0,0:0:0:0:
191,351,92897,1,2,0:0:0:0:
191,351,92978,1,10,0:0:0:0:
397,263,93140,1,8,0:0:0:0:
223,129,93302,1,8,0:0:0:0:
223,129,93384,1,8,0:0:0:0:
223,129,93465,5,10,0:0:0:0:
302,313,93627,2,0,L|295:366,2,45,2|2|10,0:0|0:0|0:0,0:0:0:0:
411,144,93951,2,0,B|421:171|421:171|416:198,1,45,2|2,3:2|0:0,0:0:0:0:
401,288,94113,1,10,0:0:0:0:
224,243,94275,2,0,P|154:265|118:254,1,90,2|0,3:2|0:0,0:0:0:0:
220,67,94600,2,0,P|290:45|326:56,1,90,10|0,0:0|0:0,0:0:0:0:
401,288,94924,5,10,0:0:0:0:
162,152,95086,1,10,0:0:0:0:
427,106,95573,5,10,0:0:0:0:
139,262,95735,1,10,0:0:0:0:
139,262,96059,6,0,L|130:68,1,180,10|2,0:0|0:0,0:0:0:0:
280,23,96546,2,0,L|285:81,1,45,10|8,0:0|0:0,0:0:0:0:
388,136,96708,2,0,L|384:91,1,45,10|8,0:0|0:0,0:0:0:0:
503,52,96870,1,10,0:0:0:0:
503,52,97194,6,0,P|493:32|460:42,1,53.9999983520508,2|2,0:0|0:0,0:0:0:0:
384,91,97519,1,2,0:0:0:0:
431,262,100113,5,6,0:0:0:0:
376,155,100275,1,2,0:0:0:0:
376,155,100357,1,2,0:0:0:0:
376,155,100438,2,0,P|369:115|375:90,1,62.9999980773926,2|2,0:0|0:0,0:0:0:0:
286,218,100762,2,0,P|237:198|210:200,1,62.9999980773926,2|2,0:0|0:0,0:0:0:0:
194,217,101005,1,2,0:0:0:0:
194,217,101086,2,0,P|168:232|125:230,1,62.9999980773926,2|2,0:0|0:0,0:0:0:0:
262,125,101411,5,0,0:0:0:0:
230,293,101573,1,2,0:0:0:0:
100,178,101735,1,2,0:0:0:0:
269,213,101897,1,2,0:0:0:0:
153,342,102059,2,0,L|143:270,1,62.9999980773926,2|0,0:0|0:0,0:0:0:0:
361,195,102384,2,0,L|352:257,1,62.9999980773926,2|0,0:0|0:0,0:0:0:0:
331,354,102708,1,0,0:0:0:0:
185,197,102870,5,2,0:0:0:0:
185,197,102951,1,2,0:0:0:0:
185,197,103032,2,0,P|131:184|107:183,1,62.9999980773926,2|2,0:0|0:0,0:0:0:0:
234,96,103357,2,0,P|285:106|310:105,2,62.9999980773926,2|0|2,0:0|0:0|0:0,0:0:0:0:
126,20,103843,6,0,L|136:97,1,62.9999980773926,2|0,0:0|0:0,0:0:0:0:
123,183,104167,1,2,0:0:0:0:
37,71,104330,1,2,0:0:0:0:
234,96,104492,1,2,0:0:0:0:
37,71,104654,2,0,L|27:148,1,62.9999980773926,2|2,0:0|0:0,0:0:0:0:
123,183,104978,2,0,L|133:260,1,62.9999980773926,2|2,0:0|0:0,0:0:0:0:
37,295,105302,1,0,0:0:0:0:
221,353,105465,5,2,0:0:0:0:
221,353,105546,1,2,0:0:0:0:
221,353,105627,2,0,P|229:308|223:277,1,62.9999980773926,2|2,0:0|0:0,0:0:0:0:
323,210,105951,2,0,P|313:249|336:329,1,125.999996154785,2|2,0:0|0:0,0:0:0:0:
418,209,106438,6,0,L|343:197,1,62.9999980773926,2|0,0:0|0:0,0:0:0:0:
243,117,106762,1,2,0:0:0:0:
341,98,106924,1,2,0:0:0:0:
266,221,107086,1,2,0:0:0:0:
144,160,107248,2,0,P|132:120|135:85,1,62.9999980773926,2|0,0:0|0:0,0:0:0:0:
234,25,107573,2,0,P|246:65|243:100,1,62.9999980773926,2|0,0:0|0:0,0:0:0:0:
178,252,107897,5,2,0:0:0:0:
161,265,108546,5,2,0:0:0:0:
142,269,109194,5,2,0:0:0:0:
121,265,109519,1,2,0:0:0:0:
103,254,109843,2,0,L|93:110,1,125.999996154785,2|2,0:0|0:0,0:0:0:0:
428,46,110492,6,0,P|439:79|439:115,1,72,6|0,0:0|0:0,0:0:0:0:
252,160,110816,1,10,0:0:0:0:
330,97,110978,1,2,0:0:0:0:
456,244,111140,2,0,L|380:229,1,72,2|2,3:2|0:0,0:0:0:0:
252,160,111465,2,0,L|193:171,2,36,10|2|2,0:0|0:0|0:0,0:0:0:0:
266,302,111789,5,2,0:0:0:0:
82,240,111951,1,0,0:0:0:0:
223,103,112113,1,8,0:0:0:0:
192,213,112275,1,2,0:0:0:0:
45,135,112438,2,0,P|29:92|46:46,1,72,2|2,3:2|0:0,0:0:0:0:
65,28,112681,1,2,0:0:0:0:
65,28,112762,2,0,L|160:19,1,72,8|0,0:0|0:0,0:0:0:0:
297,192,113086,6,0,L|392:183,1,72,6|0,3:2|0:0,0:0:0:0:
223,110,113411,1,10,0:0:0:0:
192,213,113573,1,2,0:0:0:0:
250,7,113735,2,0,P|214:4|181:17,1,72,2|2,3:2|0:0,0:0:0:0:
111,143,114059,2,0,P|79:154|64:153,2,36,10|2|2,0:0|0:0|0:0,0:0:0:0:
223,110,114384,5,2,0:0:0:0:
22,68,114546,1,0,0:0:0:0:
22,68,114708,1,8,0:0:0:0:
181,17,114870,1,2,0:0:0:0:
18,207,115032,2,0,L|28:297,1,72,2|2,3:2|0:0,0:0:0:0:
34,324,115275,1,2,0:0:0:0:
34,324,115357,2,0,P|95:314|124:294,1,72,10|0,0:0|0:0,0:0:0:0:
261,143,115681,6,0,P|200:154|190:163,1,72,6|0,3:2|0:0,0:0:0:0:
265,319,116005,1,8,0:0:0:0:
360,291,116167,1,0,0:0:0:0:
394,196,116330,2,0,L|385:105,1,72,0|2,3:2|0:0,0:0:0:0:
202,251,116654,1,10,0:0:0:0:
202,251,116735,1,2,0:0:0:0:
202,251,116816,1,2,0:0:0:0:
282,151,116978,5,2,0:0:0:0:
259,347,117140,1,0,0:0:0:0:
103,272,117302,1,8,0:0:0:0:
296,234,117465,1,2,0:0:0:0:
106,143,117627,2,0,P|55:155|25:168,1,72,2|2,3:2|0:0,0:0:0:0:
26,198,117870,1,2,0:0:0:0:
26,198,117951,2,0,L|34:271,1,72,10|2,0:0|0:0,0:0:0:0:
217,164,118275,6,0,L|233:22,1,108,6|2,0:0|0:0,0:0:0:0:
234,26,118600,1,10,0:0:0:0:
404,194,118762,1,2,0:0:0:0:
404,194,118843,1,2,0:0:0:0:
404,194,118924,6,0,L|393:99,1,72,6|0,0:0|0:0,0:0:0:0:
259,264,119248,1,10,0:0:0:0:
123,168,119411,1,2,0:0:0:0:
258,140,119573,5,0,0:0:0:0:
135,283,119735,1,4,0:0:0:0:
50,119,119897,1,10,0:0:0:0:
50,119,119978,1,2,0:0:0:0:
50,119,120059,1,2,0:0:0:0:
206,224,120221,2,0,L|294:210,1,72,2|2,3:2|0:0,0:0:0:0:
158,20,120546,1,10,0:0:0:0:
155,37,120627,1,10,0:0:0:0:
152,55,120708,1,10,0:0:0:0:
149,73,120789,1,10,0:0:0:0:
146,91,120870,6,0,L|131:175,1,80.9999975280763,6|0,3:2|0:0,0:0:0:0:
290,292,121194,2,0,L|274:199,1,80.9999975280763,10|2,0:0|0:0,0:0:0:0:
242,60,121519,1,2,3:2:0:0:
149,211,121681,1,2,3:2:0:0:
346,111,121843,1,10,0:0:0:0:
346,111,121924,1,2,0:0:0:0:
346,111,122005,1,2,0:0:0:0:
145,40,122167,6,0,P|107:42|67:61,1,80.9999975280763,2|0,3:2|0:0,0:0:0:0:
149,211,122492,1,10,0:0:0:0:
242,60,122654,1,2,0:0:0:0:
248,276,122816,2,0,P|295:276|336:252,1,80.9999975280763,2|2,3:2|3:2,0:0:0:0:
348,242,123059,1,2,3:2:0:0:
348,242,123140,1,10,0:0:0:0:
250,102,123302,1,2,0:0:0:0:
124,299,123465,6,0,P|163:366|240:373,1,161.999995056153,6|10,3:2|0:0,0:0:0:0:
418,323,123951,2,0,L|407:260,1,40.4999987640381,2|2,0:0|0:0,0:0:0:0:
268,187,124113,5,10,0:0:0:0:
337,384,124275,1,8,0:0:0:0:
480,233,124438,1,10,0:0:0:0:
480,233,124519,1,2,3:2:0:0:
480,233,124600,1,2,0:0:0:0:
258,296,124762,5,2,3:2:0:0:
409,347,124924,1,10,0:0:0:0:
438,353,125005,1,10,0:0:0:0:
466,350,125086,2,0,P|497:341|519:326,1,40.4999987640381,10|10,0:0|0:0,0:0:0:0:
421,180,125248,1,10,0:0:0:0:
421,180,125330,1,10,0:0:0:0:
421,180,125411,2,0,P|371:170|306:178,1,80.9999975280763,10|2,0:0|0:0,0:0:0:0:
248,212,125654,1,2,0:0:0:0:
248,212,125735,2,0,P|201:216|158:200,1,80.9999975280763,10|10,0:0|0:0,0:0:0:0:
77,172,125978,1,10,0:0:0:0:
77,172,126059,6,0,B|59:129|59:129|71:72,1,80.9999975280763,6|0,3:2|0:0,0:0:0:0:
219,59,126384,1,8,0:0:0:0:
143,252,126546,1,2,0:0:0:0:
303,130,126708,1,0,3:2:0:0:
113,88,126870,1,2,0:0:0:0:
254,260,127032,2,0,L|341:237,1,80.9999975280763,8|2,0:0|0:0,0:0:0:0:
398,40,127357,6,0,L|289:22,1,80.9999975280763,0|0,3:2|0:0,0:0:0:0:
156,186,127681,2,0,L|249:164,1,80.9999975280763,10|0,0:0|0:0,0:0:0:0:
431,143,128005,2,0,L|337:130,1,80.9999975280763,2|0,3:2|0:0,0:0:0:0:
241,307,128330,2,0,L|346:280,1,80.9999975280763,10|0,0:0|0:0,0:0:0:0:
494,238,128654,5,14,0:0:0:0:
234,167,128816,1,10,0:0:0:0:
422,62,128978,2,0,L|432:156,1,80.9999975280763,10|2,0:0|0:0,0:0:0:0:
289,335,129302,2,0,L|280:254,1,80.9999975280763,10|2,0:0|0:0,0:0:0:0:
96,101,129627,1,10,0:0:0:0:
98,121,129708,1,10,0:0:0:0:
100,141,129789,1,10,0:0:0:0:
102,161,129870,1,10,0:0:0:0:
104,181,129951,2,0,L|114:275,1,80.9999975280763,10|0,0:0|0:0,0:0:0:0:
249,78,130275,6,0,B|319:51|390:100|350:135|424:174|493:169|523:107|502:49|439:30|394:61|370:113,1,404.999987640381,6|0,0:0|0:0,0:0:0:0:
264,238,131248,5,6,0:0:0:0:
127,112,131411,1,10,0:0:0:0:
121,99,131492,1,8,3:0:0:0:
119,84,131573,1,0,3:0:0:0:
319,140,131735,5,10,0:0:0:0:
119,229,131897,1,2,3:2:0:0:
119,229,131978,1,0,3:0:0:0:
119,229,132059,2,0,L|127:179,1,49.5000015106202,10|0,0:0|0:0,0:0:0:0:
222,82,132221,2,0,L|234:140,1,49.5000015106202,2|2,3:2|0:0,0:0:0:0:
318,242,132384,2,0,L|327:178,1,49.5000015106202,10|0,0:0|0:0,0:0:0:0:
428,106,132546,5,0,3:0:0:0:
489,305,132708,1,8,0:0:0:0:
489,305,132789,1,8,3:0:0:0:
489,305,132870,2,0,P|459:303|436:292,1,49.5000015106202,2|2,3:2|0:0,0:0:0:0:
261,218,133032,6,0,P|262:193|275:172,1,49.5000015106202,10|0,0:0|0:0,0:0:0:0:
375,135,133194,2,0,P|398:140|418:155,1,49.5000015106202,2|2,3:2|0:0,0:0:0:0:
459,250,133357,2,0,P|454:274|441:295,1,49.5000015106202,10|0,0:0|0:0,0:0:0:0:
340,332,133519,2,0,P|315:326|295:313,2,49.5000015106202,2|2|10,3:2|0:0|0:0,0:0:0:0:
359,231,133843,5,2,3:2:0:0:
166,322,134005,1,8,0:0:0:0:
166,322,134086,1,8,3:0:0:0:
166,322,134167,6,0,L|159:258,1,49.5000015106202,2|2,3:2|0:0,0:0:0:0:
147,134,134330,1,10,0:0:0:0:
280,264,134492,6,0,L|275:201,1,49.5000015106202,2|2,3:2|0:0,0:0:0:0:
265,101,134654,1,10,0:0:0:0:
399,222,134816,6,0,L|394:159,1,49.5000015106202,2|2,3:2|0:0,0:0:0:0:
384,59,134978,1,10,0:0:0:0:
280,264,135140,1,2,3:2:0:0:
494,155,135302,5,10,0:0:0:0:
264,13,135465,1,0,3:0:0:0:
406,248,135627,5,10,0:0:0:0:
144,150,135789,1,0,3:0:0:0:
417,48,135951,5,10,0:0:0:0:
214,252,136113,5,8,0:0:0:0:
175,282,136194,1,8,0:0:0:0:
127,289,136275,1,8,0:0:0:0:
81,271,136357,1,8,0:0:0:0:
51,234,136438,6,0,L|40:126,1,99.0000030212403,6|0,3:2|0:0,0:0:0:0:
259,81,136762,1,10,0:0:0:0:
259,81,136843,1,2,0:0:0:0:
259,81,136924,2,0,P|215:54|153:62,1,99.0000030212403,2|2,0:0|3:2,0:0:0:0:
192,137,137167,1,2,0:0:0:0:
192,137,137248,1,2,0:0:0:0:
354,41,137411,2,0,P|381:32|405:32,1,49.5000015106202,10|2,0:0|0:0,0:0:0:0:
397,132,137573,1,2,0:0:0:0:
168,55,137735,6,0,L|149:185,1,99.0000030212403,2|0,3:2|0:0,0:0:0:0:
293,276,138059,2,0,L|285:211,1,49.5000015106202,10|2,0:0|0:0,0:0:0:0:
270,130,138221,1,2,0:0:0:0:
132,297,138384,1,2,3:2:0:0:
132,297,138465,1,2,0:0:0:0:
132,297,138546,1,2,0:0:0:0:
320,228,138708,1,10,0:0:0:0:
145,138,138870,1,2,0:0:0:0:
251,351,139032,5,2,3:2:0:0:
290,130,139194,1,2,3:2:0:0:
70,282,139357,2,0,L|186:267,1,99.0000030212403,6|0,0:0|0:0,0:0:0:0:
392,184,139681,5,2,3:2:0:0:
180,121,139843,1,2,3:2:0:0:
307,326,140005,2,0,L|322:210,1,99.0000030212403,6|0,0:0|0:0,0:0:0:0:
138,60,140330,6,0,L|149:127,1,49.5000015106202,2|2,3:2|0:0,0:0:0:0:
167,234,140492,1,10,0:0:0:0:
343,289,140654,6,0,L|351:227,1,49.5000015106202,2|2,3:2|3:2,0:0:0:0:
368,116,140816,1,8,0:0:0:0:
238,29,140978,6,0,L|247:91,1,49.5000015106202,10|2,0:0|0:0,0:0:0:0:
445,287,141140,2,0,L|453:239,1,49.5000015106202,2|2,0:0|0:0,0:0:0:0:
272,184,141302,1,10,0:0:0:0:
229,161,141384,1,10,0:0:0:0:
180,163,141465,1,10,0:0:0:0:
139,188,141546,1,10,0:0:0:0:
118,234,141627,5,2,0:0:0:0:
103,244,141708,1,2,0:0:0:0:
85,251,141789,1,2,0:0:0:0:
67,251,141870,1,2,0:0:0:0:
9,209,141951,6,0,P|91:180|182:267,1,216,6|0,3:2|0:0,0:0:0:0:
236,361,142275,1,0,3:0:0:0:
300,148,142438,1,2,0:0:0:0:
163,315,142600,1,10,0:0:0:0:
163,315,142681,1,2,0:0:0:0:
163,315,142762,1,2,0:0:0:0:
363,231,142924,5,2,3:2:0:0:
173,129,143086,2,0,L|104:140,1,49.5000015106202,2|2,0:0|0:0,0:0:0:0:
264,304,143248,1,10,0:0:0:0:
264,304,143330,1,0,0:0:0:0:
264,304,143411,2,0,L|273:241,1,49.5000015106202,2|2,0:0|0:0,0:0:0:0:
423,121,143573,2,0,L|432:170,1,49.5000015106202,2|2,3:2|0:0,0:0:0:0:
364,332,143735,1,2,0:0:0:0:
214,156,143897,1,10,0:0:0:0:
214,156,143978,1,2,0:0:0:0:
214,156,144059,1,2,0:0:0:0:
427,259,144221,6,0,L|485:246,1,49.5000015106202,2|2,3:2|0:0,0:0:0:0:
354,107,144384,1,2,0:0:0:0:
266,280,144546,5,10,0:0:0:0:
264,292,144627,1,2,0:0:0:0:
264,304,144708,1,2,0:0:0:0:
176,153,144870,6,0,L|184:91,1,49.5000015106202,2|2,3:2|0:0,0:0:0:0:
342,208,145032,1,2,0:0:0:0:
168,276,145194,5,10,0:0:0:0:
156,280,145275,1,2,0:0:0:0:
143,278,145357,1,2,0:0:0:0:
271,88,145519,6,0,L|280:145,1,49.5000015106202,2|2,3:2|0:0,0:0:0:0:
419,299,145681,1,2,0:0:0:0:
471,93,145843,1,8,0:0:0:0:
471,93,145924,1,2,3:2:0:0:
471,93,146005,1,2,0:0:0:0:
284,309,146167,5,10,0:0:0:0:
266,319,146248,1,8,0:0:0:0:
242,326,146330,1,10,0:0:0:0:
212,328,146411,1,8,0:0:0:0:
180,315,146492,1,8,0:0:0:0:
151,276,146573,1,8,0:0:0:0:
145,227,146654,1,10,0:0:0:0:
164,182,146735,1,8,0:0:0:0:
203,152,146816,6,0,L|307:138,1,99.0000030212403,6|0,3:2|0:0,0:0:0:0:
225,335,147140,1,10,0:0:0:0:
59,257,147302,1,2,0:0:0:0:
203,152,147465,2,0,P|208:178|208:210,1,49.5000015106202,2|2,3:2|0:0,0:0:0:0:
126,332,147627,1,2,0:0:0:0:
45,162,147789,1,10,0:0:0:0:
45,162,147870,1,2,3:2:0:0:
45,162,147951,1,2,0:0:0:0:
275,304,148113,6,0,L|283:250,1,49.5000015106202,2|2,3:2|0:0,0:0:0:0:
299,87,148275,1,2,0:0:0:0:
133,205,148438,6,0,L|205:186,1,49.5000015106202,10|2,0:0|0:0,0:0:0:0:
381,144,148600,1,2,0:0:0:0:
135,44,148762,6,0,L|145:106,1,49.5000015106202,2|2,3:2|0:0,0:0:0:0:
187,280,148924,1,2,0:0:0:0:
415,236,149086,5,10,0:0:0:0:
459,214,149167,1,8,0:0:0:0:
485,173,149248,1,8,0:0:0:0:
485,124,149330,1,8,0:0:0:0:
468,80,149411,6,0,B|383:64|306:121|306:121|374:163|347:237|347:237|274:207|230:272|230:272|291:293|301:352,1,540,6|0,0:0|0:0,0:0:0:0:
212,355,150708,5,10,0:0:0:0:
180,91,150870,1,10,0:0:0:0:
353,355,151357,5,10,0:0:0:0:
380,34,151519,1,10,0:0:0:0:
212,355,152005,6,0,P|165:333|115:331,1,90,2|2,0:0|0:0,0:0:0:0:
37,237,152492,1,2,0:0:0:0:
37,237,152654,2,0,P|103:211|131:215,1,90,2|2,0:0|0:0,0:0:0:0:
261,256,153302,2,0,L|365:241,2,90,2|2|2,0:0|0:0|0:0,0:0:0:0:
261,256,154275,2,0,P|254:222|258:206,1,45,2|0,0:0|0:0,0:0:0:0:
284,120,154600,6,0,P|296:73|276:20,1,90,2|2,0:0|0:0,0:0:0:0:
195,13,155086,1,2,0:0:0:0:
195,13,155248,2,0,P|135:43|97:47,1,90,2|2,0:0|0:0,0:0:0:0:
26,164,155897,2,0,P|97:175|128:191,1,90,2|2,0:0|0:0,0:0:0:0:
216,286,156546,1,2,0:0:0:0:
216,286,156870,1,2,0:0:0:0:
216,286,157194,6,0,L|209:334,2,45,2|2|2,0:0|0:0|0:0,0:0:0:0:
280,219,157681,1,2,0:0:0:0:
389,289,157843,1,2,0:0:0:0:
389,289,158167,2,0,L|382:244,1,45,2|0,0:0|0:0,0:0:0:0:
411,154,158492,6,0,P|342:156|324:170,1,90,2|2,0:0|0:0,0:0:0:0:
216,286,159140,2,0,P|176:305|132:298,1,90,2|2,0:0|0:0,0:0:0:0:
80,129,159789,6,0,P|142:124|159:184,1,135,2|2,0:0|0:0,0:0:0:0:
76,212,160438,2,0,L|65:118,1,90,2|2,0:0|0:0,0:0:0:0:
125,41,160924,1,2,0:0:0:0:
216,85,161086,6,0,B|373:149|324:-7|481:61,1,279,2|0,0:0|0:0,0:0:0:0:
490,150,163681,6,0,P|430:186|361:171,1,144,6|2,3:2|0:0,0:0:0:0:
288,116,164167,1,2,3:2:0:0:
331,281,164330,2,0,P|270:244|201:260,1,144,8|2,0:0|0:0,0:0:0:0:
171,290,164735,1,2,0:0:0:0:
171,290,164816,6,0,L|180:368,1,72,2|0,3:2|0:0,0:0:0:0:
66,232,165140,2,0,L|57:310,1,72,2|0,0:0|0:0,0:0:0:0:
169,169,165465,1,2,0:0:0:0:
60,103,165627,2,0,P|53:68|65:32,1,72,10|2,0:0|0:0,0:0:0:0:
157,24,165870,1,2,0:0:0:0:
157,24,165951,2,0,L|212:16,1,36,10|10,0:0|0:0,0:0:0:0:
258,94,166113,2,0,L|293:86,1,36,10|10,0:0|0:0,0:0:0:0:
381,23,166275,5,6,3:2:0:0:
360,180,166438,1,2,0:0:0:0:
360,180,166519,1,2,0:0:0:0:
360,180,166600,1,2,0:0:0:0:
174,114,166762,2,0,L|182:175,1,36,2|2,3:2|0:0,0:0:0:0:
198,243,166924,1,10,0:0:0:0:
286,89,167086,1,2,0:0:0:0:
108,215,167248,1,2,0:0:0:0:
108,215,167330,1,0,0:0:0:0:
108,215,167411,2,0,L|16:198,1,72,6|0,0:0|0:0,0:0:0:0:
174,114,167735,6,0,L|167:64,2,36,2|2|2,3:2|0:0|0:0,0:0:0:0:
281,234,168059,2,0,L|276:269,2,36,2|2|10,3:2|0:0|0:0,0:0:0:0:
388,114,168384,2,0,L|383:78,1,36,2|2,3:2|0:0,0:0:0:0:
422,224,168546,1,10,0:0:0:0:
399,262,168627,1,10,0:0:0:0:
361,285,168708,1,10,0:0:0:0:
317,288,168789,1,10,0:0:0:0:
276,269,168870,6,0,P|207:252|187:252,1,80.9999975280763,6|0,3:2|0:0,0:0:0:0:
47,267,169194,1,10,0:0:0:0:
231,148,169357,1,2,0:0:0:0:
148,343,169519,1,0,3:2:0:0:
111,152,169681,1,2,0:0:0:0:
264,349,169843,2,0,L|277:262,1,80.9999975280763,8|2,0:0|0:0,0:0:0:0:
222,67,170167,6,0,L|234:178,1,80.9999975280763,0|0,3:0|0:0,0:0:0:0:
425,203,170492,2,0,L|341:178,1,80.9999975280763,10|0,0:0|0:0,0:0:0:0:
98,275,170816,2,0,L|197:247,1,80.9999975280763,2|0,3:2|0:0,0:0:0:0:
352,56,171140,2,0,L|267:34,1,80.9999975280763,10|0,0:0|0:0,0:0:0:0:
87,169,171465,6,0,P|180:152|202:91,1,161.999995056153,6|0,0:0|0:0,0:0:0:0:
121,97,171789,6,0,L|137:237,1,108,10|0,0:0|0:0,0:0:0:0:
145,289,172113,2,0,B|198:280|198:280|238:290|238:290|300:279,1,144,2|8,3:2|0:0,0:0:0:0:
438,217,172600,2,0,P|427:270|426:289,1,72,2|0,3:2|0:0,0:0:0:0:
338,180,172924,1,2,3:2:0:0:
465,114,173086,2,0,P|426:91|388:89,1,72,8|10,0:0|0:0,0:0:0:0:
293,92,173411,1,2,3:2:0:0:
437,216,173573,5,10,0:0:0:0:
217,235,173735,1,10,0:0:0:0:
412,118,173897,1,10,0:0:0:0:
201,65,174059,6,0,B|119:46|127:132|45:110,1,161.999995056153,2|0,3:2|0:0,0:0:0:0:
24,29,174384,6,0,P|9:74|18:107,1,72,10|8,0:0|0:0,0:0:0:0:
50,205,174708,1,2,3:2:0:0:
192,169,174870,1,2,0:0:0:0:
99,77,175032,1,10,0:0:0:0:
142,273,175194,6,0,B|232:307|214:201|317:233,1,180,6|10,0:0|0:0,0:0:0:0:
479,162,175681,2,0,P|424:122|391:118,1,90,10|2,0:0|0:0,0:0:0:0:
295,344,176005,2,0,P|348:335|386:307,1,90,10|2,0:0|0:0,0:0:0:0:
269,77,176330,1,10,0:0:0:0:
224,82,176411,1,10,0:0:0:0:
188,108,176492,1,10,0:0:0:0:
167,147,176573,1,10,0:0:0:0:
166,191,176654,2,0,L|181:300,1,90,10|0,0:0|0:0,0:0:0:0:
396,205,176978,5,6,0:0:0:0:
256,192,177059,12,2,179086,0:0:0:0:
157,56,179248,6,0,P|101:51|51:78,1,107.999996704102,2|2,0:0|0:0,0:0:0:0:
126,153,179735,2,0,P|182:158|232:131,1,107.999996704102,2|2,0:0|0:0,0:0:0:0:
307,83,180221,2,0,L|301:19,1,53.9999983520508,2|2,0:0|0:0,0:0:0:0:
406,108,180546,2,0,L|421:229,1,107.999996704102,2|2,0:0|0:0,0:0:0:0:
382,300,181032,2,0,P|305:267|263:269,1,107.999996704102,2|2,0:0|0:0,0:0:0:0:
208,322,181519,1,2,0:0:0:0:
208,322,181681,1,2,0:0:0:0:
100,293,181843,6,0,B|80:264|80:264|87:189,1,107.999996704102,2|2,0:0|0:0,0:0:0:0:
276,223,182492,2,0,B|296:194|296:194|289:119,1,107.999996704102,2|2,0:0|0:0,0:0:0:0:
65,6,183140,2,0,B|45:35|45:35|52:110,1,107.999996704102,2|2,0:0|0:0,0:0:0:0:
86,191,183627,1,2,0:0:0:0:
144,121,183789,2,0,P|204:119|260:129,1,107.999996704102,2|0,0:0|0:0,0:0:0:0:
463,234,184438,6,0,P|406:234|344:260,1,107.999996704102,2|2,0:0|0:0,0:0:0:0:
275,308,184924,2,0,L|264:178,1,107.999996704102,2|2,0:0|0:0,0:0:0:0:
350,137,185411,1,2,0:0:0:0:
350,137,185573,1,2,0:0:0:0:
209,63,185735,6,0,L|188:190,1,107.999996704102,2|2,0:0|0:0,0:0:0:0:
110,219,186221,1,2,0:0:0:0:
110,219,186384,2,0,P|58:215|37:202,1,53.9999983520508,2|0,0:0|0:0,0:0:0:0:
184,275,186708,2,0,P|226:262|253:264,1,53.9999983520508,2|2,0:0|0:0,0:0:0:0:
81,323,187032,1,6,0:0:0:0:
423,93,188330,5,10,0:0:0:0:
164,128,188492,1,10,0:0:0:0:
442,217,188978,5,10,0:0:0:0:
50,158,189140,1,10,0:0:0:0:
423,93,189627,5,10,0:0:0:0:
351,324,189789,2,0,L|339:261,1,53.9999983520508,8|0,0:0|0:0,0:0:0:0:
263,200,190113,2,0,L|278:88,1,107.999996704102,2|2,0:0|0:0,0:0:0:0:
366,42,190600,2,0,L|376:95,1,53.9999983520508,2|2,0:0|0:0,0:0:0:0:
340,270,190924,5,10,0:0:0:0:
164,128,191086,2,0,P|123:118|96:116,1,53.9999983520508,10|0,0:0|0:0,0:0:0:0:
143,248,191411,2,0,P|214:223|261:225,1,107.999996704102,2|2,0:0|0:0,0:0:0:0:
340,270,191897,2,0,P|374:282|399:283,1,53.9999983520508,2|2,0:0|0:0,0:0:0:0:
385,171,192221,5,10,0:0:0:0:
164,128,192384,1,10,0:0:0:0:
286,63,192546,2,0,L|293:132,1,53.9999983520508,2|0,0:0|0:0,0:0:0:0:
391,283,192870,5,10,0:0:0:0:
420,81,193032,1,10,0:0:0:0:
498,194,193194,2,0,L|444:184,1,53.9999983520508,2|0,0:0|0:0,0:0:0:0:
285,265,193519,6,0,L|215:253,1,53.9999983520508,10|0,0:0|0:0,0:0:0:0:
102,144,193843,1,10,0:0:0:0:
93,119,193924,1,10,0:0:0:0:
91,93,194005,1,10,0:0:0:0:
97,66,194086,1,10,0:0:0:0:
111,43,194167,6,0,P|144:114|120:189,1,161.999995056153,10|0,0:0|0:0,0:0:0:0:
49,238,194492,6,0,B|171:199|134:332|263:286,1,216,2|0,0:0|0:0,0:0:0:0:
329,154,194816,6,0,P|277:153|218:193,1,99.0000030212403,6|0,3:2|0:0,0:0:0:0:
359,355,195140,1,10,0:0:0:0:
359,355,195221,1,2,0:0:0:0:
359,355,195302,2,0,P|424:353|473:325,1,99.0000030212403,2|2,0:0|3:2,0:0:0:0:
480,324,195546,1,2,0:0:0:0:
480,324,195627,1,2,0:0:0:0:
300,239,195789,2,0,L|250:228,1,49.5000015106202,10|2,0:0|0:0,0:0:0:0:
432,158,195951,1,2,0:0:0:0:
247,362,196113,6,0,L|233:240,1,99.0000030212403,2|0,3:2|0:0,0:0:0:0:
125,123,196438,2,0,L|113:187,1,49.5000015106202,10|2,0:0|0:0,0:0:0:0:
91,278,196600,1,2,0:0:0:0:
266,173,196762,1,2,3:2:0:0:
266,173,196843,1,2,0:0:0:0:
266,173,196924,1,2,0:0:0:0:
101,79,197086,1,10,0:0:0:0:
192,274,197248,1,2,0:0:0:0:
327,68,197411,5,2,3:2:0:0:
147,179,197573,1,2,3:2:0:0:
358,288,197735,2,0,L|469:267,1,99.0000030212403,6|0,0:0|0:0,0:0:0:0:
247,90,198059,5,0,0:0:0:0:
193,291,198221,1,0,0:0:0:0:
25,98,198384,2,0,L|136:77,1,99.0000030212403,6|0,0:0|0:0,0:0:0:0:
340,272,198708,6,0,L|291:262,1,49.5000015106202,2|2,3:2|0:0,0:0:0:0:
189,198,198870,1,10,0:0:0:0:
327,68,199032,6,0,L|376:78,1,49.5000015106202,2|2,3:2|0:0,0:0:0:0:
478,142,199194,1,10,0:0:0:0:
340,272,199357,6,0,L|331:210,1,49.5000015106202,10|2,0:0|0:0,0:0:0:0:
205,108,199519,2,0,L|197:156,1,49.5000015106202,2|2,0:0|0:0,0:0:0:0:
131,288,199681,5,10,0:0:0:0:
83,295,199762,1,10,0:0:0:0:
41,271,199843,1,10,0:0:0:0:
23,225,199924,1,10,0:0:0:0:
48,182,200005,5,2,0:0:0:0:
58,167,200086,1,2,0:0:0:0:
62,149,200167,1,2,0:0:0:0:
61,131,200248,1,2,0:0:0:0:
29,66,200330,6,0,P|34:162|131:155,1,216,6|0,3:2|0:0,0:0:0:0:
205,107,200654,1,0,3:0:0:0:
400,150,200816,1,2,0:0:0:0:
286,34,200978,1,10,0:0:0:0:
286,34,201059,1,2,0:0:0:0:
286,34,201140,1,2,0:0:0:0:
192,238,201302,5,2,3:2:0:0:
360,82,201465,1,2,0:0:0:0:
151,21,201627,1,10,0:0:0:0:
151,21,201708,1,2,0:0:0:0:
151,21,201789,1,2,0:0:0:0:
279,195,201951,2,0,L|288:248,1,49.5000015106202,2|2,3:2|0:0,0:0:0:0:
88,150,202113,1,2,0:0:0:0:
284,36,202275,1,10,0:0:0:0:
297,30,202357,1,2,0:0:0:0:
311,24,202438,1,2,0:0:0:0:
194,258,202600,6,0,P|181:235|175:209,1,49.5000015106202,2|2,3:2|0:0,0:0:0:0:
181,54,202762,1,2,0:0:0:0:
321,233,202924,5,10,0:0:0:0:
321,233,203005,1,2,0:0:0:0:
321,233,203086,1,2,0:0:0:0:
118,154,203248,6,0,P|151:149|195:133,1,49.5000015106202,2|2,3:2|0:0,0:0:0:0:
334,88,203411,1,2,0:0:0:0:
194,258,203573,5,10,0:0:0:0:
194,258,203654,1,2,0:0:0:0:
194,258,203735,1,2,0:0:0:0:
128,71,203897,6,0,L|58:58,1,49.5000015106202,2|2,3:2|0:0,0:0:0:0:
284,175,204059,1,2,0:0:0:0:
63,238,204221,1,8,0:0:0:0:
63,238,204302,1,2,3:2:0:0:
63,238,204384,5,2,0:0:0:0:
253,319,204546,2,0,L|307:330,1,49.5000015106202,2|2,3:2|0:0,0:0:0:0:
160,165,204708,5,2,0:0:0:0:
68,366,204870,1,10,0:0:0:0:
68,366,204951,1,10,0:0:0:0:
68,366,205032,1,10,0:0:0:0:
68,366,205113,1,10,0:0:0:0:
68,366,205194,6,0,B|49:318|49:318|54:270,1,99.0000030212403,6|0,3:2|0:0,0:0:0:0:
203,168,205519,1,10,0:0:0:0:
236,172,205600,1,2,0:0:0:0:
268,176,205681,1,2,0:0:0:0:
156,334,205843,2,0,L|147:264,1,49.5000015106202,2|2,3:2|0:0,0:0:0:0:
125,96,206005,1,2,0:0:0:0:
261,281,206167,1,10,0:0:0:0:
291,60,206330,1,2,0:0:0:0:
139,207,206492,6,0,L|193:193,1,49.5000015106202,2|2,3:2|0:0,0:0:0:0:
369,155,206654,1,2,0:0:0:0:
172,39,206816,6,0,L|181:101,1,49.5000015106202,10|2,0:0|0:0,0:0:0:0:
211,275,206978,1,2,0:0:0:0:
412,70,207140,6,0,L|353:53,1,49.5000015106202,2|2,3:2|0:0,0:0:0:0:
150,186,207302,1,2,0:0:0:0:
403,341,207465,5,10,0:0:0:0:
443,314,207546,1,10,0:0:0:0:
463,269,207627,1,10,0:0:0:0:
456,221,207708,1,10,0:0:0:0:
424,184,207789,6,0,B|382:126|314:142|337:167|265:190|223:131|223:131|210:194|131:198|139:260|167:292|202:306|229:302|253:275|253:275|294:289|322:246,1,540,6|0,0:0|0:0,0:0:0:0:
319,248,209086,5,10,0:0:0:0:
74,139,209248,1,10,0:0:0:0:
74,139,209735,5,10,0:0:0:0:
479,54,209897,1,10,0:0:0:0:
479,54,210384,6,0,P|422:99|339:88,1,135,6|2,3:2|0:0,0:0:0:0:
290,52,210708,2,0,P|243:28|196:34,1,90,10|2,0:0|0:0,0:0:0:0:
131,69,210951,1,2,0:0:0:0:
131,69,211032,1,10,0:0:0:0:
281,139,211194,1,8,0:0:0:0:
82,199,211357,1,8,0:0:0:0:
82,199,211438,1,8,0:0:0:0:
82,199,211519,5,10,0:0:0:0:
224,68,211681,2,0,L|220:23,2,45,2|2|10,0:0|0:0|0:0,0:0:0:0:
171,261,212005,1,2,3:2:0:0:
154,265,212086,1,2,0:0:0:0:
136,265,212167,1,10,0:0:0:0:
281,139,212330,2,0,P|332:135|365:154,1,90,2|0,3:2|0:0,0:0:0:0:
337,295,212654,2,0,P|290:300|252:275,1,90,10|0,0:0|0:0,0:0:0:0:
113,198,212978,5,10,0:0:0:0:
364,153,213140,1,10,0:0:0:0:
103,71,213627,5,10,0:0:0:0:
41,353,213789,1,10,0:0:0:0:
41,353,214113,6,0,B|141:361|102:270|216:294,1,180,10|2,0:0|0:0,0:0:0:0:
332,322,214600,1,10,0:0:0:0:
113,198,214762,1,10,0:0:0:0:
339,123,214924,1,10,0:0:0:0:
251,237,215086,1,2,0:0:0:0:
251,237,215167,1,2,0:0:0:0:
251,237,215248,1,10,0:0:0:0:
222,14,215411,6,0,P|148:55|155:140,1,180,6|2,0:0|0:0,0:0:0:0:
251,237,215897,1,10,0:0:0:0:
295,229,215978,1,8,0:0:0:0:
339,221,216059,1,8,0:0:0:0:
384,214,216140,1,8,0:0:0:0:
428,206,216221,2,0,B|488:195|488:195|508:162,1,94.499997116089,10|0,0:0|0:0,0:0:0:0:
507,72,216546,2,0,L|500:24,2,41.9999987182618,2|2|2,0:0|0:0|0:0,0:0:0:0:
421,109,216870,5,6,0:0:0:0:
54,46,219140,6,0,L|73:246,1,180,6|0,0:0|0:0,0:0:0:0:
