osu file format v14

[General]
AudioFilename: audio.mp3
AudioLeadIn: 0
PreviewTime: 83704
Countdown: 0
SampleSet: None
StackLeniency: 0.7
Mode: 0
LetterboxInBreaks: 0
WidescreenStoryboard: 1

[Editor]
Bookmarks: 52019
DistanceSpacing: 2.14
BeatDivisor: 8
GridSize: 4
TimelineZoom: 2.5

[Metadata]
Title:Ephemeral
TitleUnicode:Ephemeral
Artist:Intervals
ArtistUnicode:Intervals
Creator:InfinityGhost
Version:Say Goodbye
Source:
Tags:
BeatmapID:1595790
BeatmapSetID:758700

[Difficulty]
HPDrainRate:6
CircleSize:4
OverallDifficulty:8
ApproachRate:9.6
SliderMultiplier:2.5
SliderTickRate:1

[Events]
//Background and Video events
0,0,"bglol.png",0,0
//Break Periods
//Storyboard Layer 0 (Background)
//Storyboard Layer 1 (Fail)
//Storyboard Layer 2 (Pass)
//Storyboard Layer 3 (Foreground)
//Storyboard Sound Samples

[TimingPoints]
661,434.782608695652,4,3,0,40,1,0
661,-200,4,3,0,40,0,0
6639,-100,4,3,0,40,0,0
7617,-200,4,3,0,40,0,0
12834,-100,4,3,0,70,0,0
19791,-100,4,3,0,70,0,0
28921,-133.333333333333,4,3,0,70,0,0
40660,-105.263157894737,4,3,0,70,0,0
42400,-133.333333333333,4,3,0,70,0,0

[HitObjects]
82,182,661,6,0,P|127:187|160:172,1,62.5
174,159,987,1,0,0:0:0:0:
74,216,1095,2,0,P|118:209|146:186,1,62.5
174,159,1421,1,0,0:0:0:0:
70,254,1530,2,0,P|111:235|132:206,1,62.5
174,159,1856,5,0,0:0:0:0:
190,133,1965,1,0,0:0:0:0:
213,112,2073,1,0,0:0:0:0:
242,102,2182,1,0,0:0:0:0:
272,107,2291,1,0,0:0:0:0:
354,214,2400,6,0,P|309:219|276:204,1,62.5
262,191,2726,1,0,0:0:0:0:
144,275,2834,2,0,P|188:268|216:245,1,62.5
262,191,3160,1,0,0:0:0:0:
329,258,3269,2,0,B|299:253|299:253|266:210,1,62.5
391,200,3596,5,0,0:0:0:0:
408,225,3704,1,0,0:0:0:0:
416,255,3813,1,0,0:0:0:0:
412,286,3922,1,0,0:0:0:0:
398,314,4030,1,0,0:0:0:0:
437,144,4139,6,0,P|392:139|359:154,1,62.5
345,167,4465,1,0,0:0:0:0:
259,206,4574,2,0,P|229:212|199:206,1,62.5
167,198,4899,1,0,0:0:0:0:
137,205,5008,1,0,0:0:0:0:
112,224,5117,1,0,0:0:0:0:
98,252,5226,1,0,0:0:0:0:
127,243,5334,1,0,0:0:0:0:
156,207,5443,1,0,0:0:0:0:
146,148,5552,1,0,0:0:0:0:
77,124,5661,1,0,0:0:0:0:
21,218,5769,5,0,0:0:0:0:
21,218,5823,1,0,0:0:0:0:
21,218,5878,2,0,P|14:248|21:278,1,62.5
102,384,6204,2,0,P|116:356|117:325,1,62.5
98,252,6530,1,0,0:0:0:0:
201,323,6639,1,0,0:0:0:0:
231,329,6693,1,0,0:0:0:0:
261,323,6747,2,0,P|291:316|321:323,1,62.5
436,265,6965,6,0,P|405:271|375:265,1,62.5
327,202,7182,1,0,0:0:0:0:
434,300,7291,2,0,P|402:298|375:284,1,62.5
327,202,7508,1,0,0:0:0:0:
235,179,7617,6,0,P|280:174|313:189,1,62.5
327,202,7943,1,0,0:0:0:0:
227,145,8051,2,0,P|271:152|299:175,1,62.5
327,202,8377,1,0,0:0:0:0:
223,107,8486,2,0,P|264:126|285:155,1,62.5
327,202,8813,5,0,0:0:0:0:
343,228,8922,1,0,0:0:0:0:
366,249,9031,1,0,0:0:0:0:
395,259,9139,1,0,0:0:0:0:
425,254,9248,1,0,0:0:0:0:
507,147,9357,6,0,P|462:142|429:157,1,62.5
415,170,9683,1,0,0:0:0:0:
297,86,9792,2,0,P|341:93|369:116,1,62.5
415,170,10118,1,0,0:0:0:0:
482,103,10226,2,0,B|452:108|452:108|419:151,1,62.5
408,284,10552,5,0,0:0:0:0:
425,259,10660,1,0,0:0:0:0:
433,229,10769,1,0,0:0:0:0:
429,198,10878,1,0,0:0:0:0:
415,170,10986,1,0,0:0:0:0:
454,340,11095,6,0,P|409:345|376:330,1,62.5
362,317,11421,1,0,0:0:0:0:
276,278,11530,2,0,P|246:272|216:278,1,62.5
184,286,11855,5,0,0:0:0:0:
154,279,11964,1,0,0:0:0:0:
129,260,12074,1,0,0:0:0:0:
114,232,12182,1,0,0:0:0:0:
144,241,12290,1,0,0:0:0:0:
173,277,12399,1,0,0:0:0:0:
163,336,12508,1,0,0:0:0:0:
94,360,12617,1,0,0:0:0:0:
38,266,12726,1,0,0:0:0:0:
191,164,12834,6,0,P|256:177|318:162,1,125
439,269,13160,2,0,P|374:256|312:271,1,125
249,350,13487,1,0,0:0:0:0:
237,289,13595,1,0,0:0:0:0:
189,250,13704,1,0,0:0:0:0:
71,214,13813,5,0,0:0:0:0:
176,153,13921,1,0,0:0:0:0:
71,93,14030,1,0,0:0:0:0:
53,244,14139,5,0,0:0:0:0:
211,151,14247,1,0,0:0:0:0:
53,61,14356,1,0,0:0:0:0:
40,267,14465,1,0,0:0:0:0:
189,246,14574,6,0,P|176:311|191:373,1,125
272,190,14900,1,0,0:0:0:0:
173,197,15008,2,0,P|129:246|111:307,1,125
272,190,15334,1,0,0:0:0:0:
36,166,15443,2,0,B|96:177|96:177|170:163,1,125
244,84,15769,1,0,0:0:0:0:
272,190,15878,6,0,L|278:261,1,62.5,0|0,3:0|3:0,3:0:0:0:
353,110,16095,2,0,L|346:38,1,62.5,0|0,3:0|3:0,3:0:0:0:
367,287,16313,6,0,P|317:330|256:348,1,125
373,187,16639,1,0,0:0:0:0:
417,276,16747,2,0,P|396:338|352:384,1,125
373,187,17073,1,0,0:0:0:0:
277,250,17182,2,0,L|215:257,1,62.5,0|0,3:0|3:0,3:0:0:0:
156,187,17400,2,0,P|125:232|138:312,1,125
62,160,17726,1,0,0:0:0:0:
158,97,17834,1,0,0:0:0:0:
235,143,17943,1,0,0:0:0:0:
215,257,18052,6,0,P|277:235|323:191,1,125
124,211,18378,1,0,0:0:0:0:
179,294,18486,2,0,P|243:307|305:292,1,125
124,211,18812,1,0,0:0:0:0:
220,148,18921,2,0,L|282:141,1,62.5,0|0,3:0|3:0,3:0:0:0:
118,102,19139,2,0,L|56:95,1,62.5,0|0,3:0|3:0,3:0:0:0:
335,71,19356,5,0,0:0:0:0:
368,163,19464,1,0,0:0:0:0:
295,232,19574,1,0,0:0:0:0:
208,182,19683,1,0,0:0:0:0:
199,87,19791,6,0,P|138:100|78:87,1,125
282,145,20117,2,0,P|343:132|404:146,1,125
227,224,20443,2,0,L|164:230,1,62.5,0|0,3:0|3:0,3:0:0:0:
405,238,20660,2,0,P|436:283|423:363,1,125
281,304,20987,2,0,L|344:310,1,62.5,0|0,3:0|3:0,3:0:0:0:
115,160,21204,2,0,P|84:205|97:285,1,125
263,186,21530,6,0,P|325:207|371:251,1,125
173,230,21856,1,0,0:0:0:0:
228,148,21964,2,0,P|292:135|354:150,1,125
173,230,22290,1,0,0:0:0:0:
149,0,22400,2,0,B|137:55|137:55|149:118,1,125
178,233,22726,1,0,0:0:0:0:
72,204,22835,6,0,L|1:210,1,62.5,0|0,3:0|3:0,3:0:0:0:
178,233,23052,2,0,L|250:226,1,62.5,0|0,3:0|3:0,3:0:0:0:
353,159,23269,6,0,P|415:138|461:94,1,125
263,115,23595,1,0,0:0:0:0:
318,197,23703,2,0,P|382:210|444:195,1,125
263,115,24029,1,0,0:0:0:0:
240,349,24139,2,0,B|228:289|228:289|240:226,1,125
263,115,24465,1,0,0:0:0:0:
106,137,24574,5,0,0:0:0:0:
175,66,24682,1,0,0:0:0:0:
263,115,24791,1,0,0:0:0:0:
243,229,24900,1,0,0:0:0:0:
144,236,25008,6,0,P|102:282|83:341,1,125
243,229,25334,1,0,0:0:0:0:
155,185,25442,2,0,P|95:204|49:245,1,125
243,229,25768,1,0,0:0:0:0:
146,14,25878,2,0,B|186:59|186:59|207:120,1,125
243,229,26204,1,0,0:0:0:0:
345,183,26313,2,0,L|407:190,1,62.5,0|0,3:0|3:0,3:0:0:0:
243,229,26531,2,0,L|181:236,1,62.5,0|0,3:0|3:0,3:0:0:0:
19,40,26747,6,0,P|84:53|146:38,1,125
267,145,27073,2,0,P|202:132|140:147,1,125
81,243,27400,2,0,P|111:250|141:243,1,62.5
324,75,27617,2,0,P|355:120|342:200,1,125
298,349,27943,2,0,P|267:304|280:224,1,125
326,36,28269,5,0,0:0:0:0:
395,102,28377,1,0,0:0:0:0:
348,187,28487,2,0,P|295:202|223:165,1,125
217,93,28813,1,0,0:0:0:0:
240,233,28921,6,0,L|250:326,1,93.7500035762788,0|0,3:0|3:0,3:0:0:0:
217,93,29356,2,0,P|173:100|124:82,1,93.7500035762788,0|0,3:0|3:0,3:0:0:0:
309,148,29791,2,0,B|359:149|385:191|385:191|411:234|464:238,1,187.500007152558
464,237,30443,1,0,0:0:0:0:
453,119,30552,6,0,L|442:26,1,93.7500035762788,0|0,3:0|3:0,3:0:0:0:
307,238,30878,2,0,L|301:284,1,46.8750017881394,0|0,3:0|3:0,3:0:0:0:
325,69,31095,1,0,0:0:0:0:
325,69,31421,2,0,P|279:75|235:60,1,93.7500035762788,0|0,3:0|3:0,3:0:0:0:
174,112,31747,2,0,L|180:158,1,46.8750017881394,0|0,3:0|3:0,3:0:0:0:
370,231,31965,6,0,L|381:138,1,93.7500035762788,0|0,3:0|3:0,3:0:0:0:
370,231,32400,2,0,L|381:138,1,93.7500035762788,0|0,3:0|3:0,3:0:0:0:
144,237,32834,6,0,P|189:243|233:228,1,93.7500035762788,0|0,3:0|3:0,3:0:0:0:
302,269,33160,2,0,L|308:315,1,46.8750017881394,0|0,3:0|3:0,3:0:0:0:
184,155,33487,1,0,0:0:0:0:
447,214,33704,6,0,P|402:220|358:205,1,93.7500035762788,0|0,3:0|3:0,3:0:0:0:
357,204,34030,1,0,0:0:0:0:
357,204,34139,1,0,0:0:0:0:
488,90,34356,2,0,L|494:136,1,46.8750017881394,0|0,3:0|3:0,3:0:0:0:
358,87,34574,6,0,P|314:71|268:77,1,93.7500035762788,0|0,3:0|3:0,3:0:0:0:
214,129,34900,1,0,0:0:0:0:
102,67,35008,2,0,P|145:51|191:56,1,93.7500035762788,0|0,3:0|3:0,3:0:0:0:
214,129,35334,1,0,0:0:0:0:
359,109,35443,2,0,L|313:115,1,46.8750017881394,0|0,3:0|3:0,3:0:0:0:
214,129,35660,1,0,0:0:0:0:
317,230,35769,2,0,L|280:201,1,46.8750017881394,0|0,3:0|3:0,3:0:0:0:
214,129,35986,1,0,0:0:0:0:
275,316,36095,2,0,L|321:310,1,46.8750017881394,0|0,3:0|3:0,3:0:0:0:
207,244,36313,6,0,B|162:238|162:238|114:249,1,93.7500035762788
114,248,36747,1,0,0:0:0:0:
114,248,37182,1,0,0:0:0:0:
114,248,37508,6,0,L|125:155,1,93.7500035762788,0|0,3:0|3:0,3:0:0:0:
209,262,37834,2,0,L|215:308,1,46.8750017881394,0|0,3:0|3:0,3:0:0:0:
262,142,38052,1,0,0:0:0:0:
262,142,38378,6,0,L|273:49,1,93.7500035762788,0|0,3:0|3:0,3:0:0:0:
357,156,38704,2,0,L|363:202,1,46.8750017881394,0|0,3:0|3:0,3:0:0:0:
252,354,38921,2,0,L|263:261,1,93.7500035762788,0|0,3:0|3:0,3:0:0:0:
252,354,39356,2,0,L|263:261,1,93.7500035762788,0|0,3:0|3:0,3:0:0:0:
153,133,39791,6,0,P|150:181|164:226,1,93.7500035762788,0|0,3:0|3:0,3:0:0:0:
250,130,40117,2,0,L|261:37,1,93.7500035762788,0|0,3:0|3:0,3:0:0:0:
363,184,40443,2,0,L|369:230,1,46.8750017881394,0|0,3:0|3:0,3:0:0:0:
234,281,40660,6,0,P|198:308|123:312,1,118.749996829033,0|0,3:0|3:0,3:0:0:0:
59,244,40987,1,0,0:0:0:0:
234,281,41095,2,0,P|198:308|123:312,1,118.749996829033,0|0,3:0|3:0,3:0:0:0:
59,244,41422,1,0,0:0:0:0:
285,206,41530,2,0,L|402:219,1,118.749996829033
481,167,41856,1,0,0:0:0:0:
402,219,41965,2,0,P|370:268|369:326,1,118.749996829033,0|0,3:0|3:0,3:0:0:0:
428,374,42291,1,0,0:0:0:0:
354,128,42400,6,0,L|261:139,1,93.7500035762788,0|0,3:0|3:0,3:0:0:0:
187,150,42726,1,0,0:0:0:0:
123,65,42834,2,0,P|168:59|212:74,1,93.7500035762788,0|0,3:0|3:0,3:0:0:0:
260,139,43160,1,0,0:0:0:0:
68,118,43269,5,0,0:0:0:0:
68,118,43704,1,0,0:0:0:0:
68,118,44139,1,0,0:0:0:0:
68,118,44465,1,0,0:0:0:0:
105,182,44574,2,0,P|148:197|194:191,1,93.7500035762788,0|0,3:0|3:0,3:0:0:0:
293,68,45008,5,0,0:0:0:0:
293,68,45334,2,0,P|308:111|302:157,1,93.7500035762788,0|0,3:0|3:0,3:0:0:0:
260,269,45660,2,0,L|266:223,1,46.8750017881394,0|0,3:0|3:0,3:0:0:0:
430,233,45878,2,0,P|387:218|341:224,1,93.7500035762788,0|0,3:0|3:0,3:0:0:0:
430,233,46313,2,0,P|387:218|341:224,1,93.7500035762788,0|0,3:0|3:0,3:0:0:0:
250,358,46747,6,0,P|265:314|259:268,1,93.7500035762788,0|0,3:0|3:0,3:0:0:0:
191,207,47074,1,0,0:0:0:0:
123,294,47182,2,0,L|169:300,1,46.8750017881394,0|0,3:0|3:0,3:0:0:0:
322,174,47400,2,0,L|276:180,1,46.8750017881394,0|0,3:0|3:0,3:0:0:0:
400,117,47617,6,0,P|414:160|408:207,1,93.7500035762788,0|0,3:0|3:0,3:0:0:0:
338,266,47944,1,0,0:0:0:0:
210,121,48052,2,0,L|117:110,1,93.7500035762788,0|0,3:0|3:0,3:0:0:0:
288,90,48487,6,0,P|292:136|275:179,1,93.7500035762788,0|0,3:0|3:0,3:0:0:0:
194,304,48813,2,0,L|183:211,1,93.7500035762788,0|0,3:0|3:0,3:0:0:0:
116,109,49139,2,0,L|110:155,1,46.8750017881394,0|0,3:0|3:0,3:0:0:0:
97,248,49356,5,0,0:0:0:0:
183,210,49465,1,0,0:0:0:0:
128,286,49574,5,0,0:0:0:0:
183,210,49683,1,0,0:0:0:0:
174,304,49791,5,0,0:0:0:0:
183,210,49900,1,0,0:0:0:0:
223,296,50008,5,0,0:0:0:0:
183,210,50117,1,0,0:0:0:0:
296,239,50226,6,0,L|389:250,1,93.7500035762788,0|0,3:0|3:0,3:0:0:0:
451,134,50660,2,0,L|358:145,1,93.7500035762788,0|0,3:0|3:0,3:0:0:0:
296,239,51095,2,0,L|389:250,1,93.7500035762788,0|0,3:0|3:0,3:0:0:0:
198,184,51421,6,0,P|184:227|190:274,1,93.7500035762788,0|0,3:0|3:0,3:0:0:0:
199,79,51747,2,0,L|156:96,1,46.8750017881394,0|0,3:0|3:0,3:0:0:0:
305,44,51965,1,0,0:0:0:0:
297,134,52291,6,0,P|311:91|305:44,1,93.7500035762788,0|0,3:0|3:0,3:0:0:0:
296,239,52617,2,0,L|338:221,1,46.8750017881394,0|0,3:0|3:0,3:0:0:0:
96,262,52834,2,0,L|189:273,1,93.7500035762788,0|0,3:0|3:0,3:0:0:0:
96,262,53269,2,0,L|189:273,1,93.7500035762788,0|0,3:0|3:0,3:0:0:0:
