osu file format v14

[General]
AudioFilename: audio.mp3
AudioLeadIn: 0
PreviewTime: 186036
Countdown: 0
SampleSet: Normal
StackLeniency: 0.7
Mode: 0
LetterboxInBreaks: 0
WidescreenStoryboard: 0

[Editor]
Bookmarks: 145647,262516,280293,415854
DistanceSpacing: 0.2
BeatDivisor: 4
GridSize: 4
TimelineZoom: 2.6

[Metadata]
Title:A Voice Within
TitleUnicode:A Voice Within
Artist:Intervals
ArtistUnicode:Intervals
Creator:DavidEd
Version:Deity
Source:
Tags:mike semesky anup sastry progressive metal djent bergy
BeatmapID:1206528
BeatmapSetID:569096

[Difficulty]
HPDrainRate:6
CircleSize:4
OverallDifficulty:9
ApproachRate:9.7
SliderMultiplier:1.8
SliderTickRate:1

[Events]
//Background and Video events
0,0,"bg.jpg",0,0
//Break Periods
2,25345,26607
2,126954,128476
2,262755,279511
2,297983,298954
//Storyboard Layer 0 (Background)
//Storyboard Layer 1 (Fail)
//Storyboard Layer 2 (Pass)
//Storyboard Layer 3 (Foreground)
//Storyboard Sound Samples

[TimingPoints]
8450,260.869565217391,4,1,1,70,1,0
16797,-117.647058823529,4,1,1,70,0,0
19015,-100,4,1,1,70,0,0
27102,-117.647058823529,4,1,1,60,0,0
30819,-117.647058823529,4,1,1,5,0,0
30884,-117.647058823529,4,1,1,60,0,0
35254,-117.647058823529,4,1,1,5,0,0
35319,-117.647058823529,4,1,1,60,0,0
39167,-117.647058823529,4,1,1,5,0,0
39232,-117.647058823529,4,1,1,60,0,0
41515,-117.647058823529,4,1,1,5,0,0
41580,-117.647058823529,4,1,1,60,0,0
42949,-117.647058823529,4,1,1,5,0,0
43015,-133.333333333333,4,1,1,60,0,0
47580,-100,4,1,1,60,0,0
47776,-100,4,1,1,5,0,0
47841,-133.333333333333,4,1,1,60,0,0
51754,-100,4,1,1,60,0,0
51949,-100,4,1,1,5,0,0
52015,-100,4,1,1,60,0,0
52276,-117.647058823529,4,1,1,60,0,0
54036,-117.647058823529,4,1,1,5,0,0
54102,-117.647058823529,4,1,1,60,0,0
55863,-117.647058823529,4,1,1,5,0,0
55928,-117.647058823529,4,1,1,60,0,0
58471,-117.647058823529,4,1,1,5,0,0
58536,-117.647058823529,4,1,1,60,0,0
60623,-133.333333333333,4,1,1,60,0,0
63754,-133.333333333333,4,1,1,50,0,0
66363,260.869565217391,4,1,1,70,1,0
66363,-100,4,1,1,70,0,0
74710,-90.9090909090909,4,1,1,80,0,1
109667,-100,4,1,1,80,0,0
110189,-100,4,1,1,70,0,0
128971,-117.647058823529,4,1,1,60,0,0
132558,-117.647058823529,4,1,1,5,0,0
132623,-117.647058823529,4,1,1,60,0,0
134906,-117.647058823529,4,1,1,5,0,0
134971,-117.647058823529,4,1,1,60,0,0
137319,-117.647058823529,4,1,1,60,0,0
140906,-117.647058823529,4,1,1,5,0,0
140971,-117.647058823529,4,1,1,60,0,0
144689,-117.647058823529,4,1,1,5,0,0
144754,-117.647058823529,4,1,1,60,0,0
162363,-133.333333333333,4,1,1,50,0,0
168102,521.739130434783,4,1,1,60,1,0
168102,-100,4,1,1,60,0,0
168623,-100,4,1,1,30,0,0
168754,-100,4,1,1,60,0,0
169667,-100,4,1,1,30,0,0
169797,-100,4,1,1,60,0,0
170841,-100,4,1,1,30,0,0
170971,-100,4,1,1,60,0,0
171884,-45.4545454545455,4,1,1,60,0,0
172276,-100,4,1,1,60,0,0
172797,-100,4,1,1,30,0,0
172928,-100,4,1,1,60,0,0
174363,-62.5,4,1,1,60,0,0
175145,-100,4,1,1,60,0,0
175406,-62.5,4,1,1,60,0,0
176058,-100,4,1,1,60,0,0
176971,-100,4,1,1,30,0,0
177102,-100,4,1,1,60,0,0
178015,-100,4,1,1,30,0,0
178145,-100,4,1,1,60,0,0
179188,-100,4,1,1,30,0,0
179319,-100,4,1,1,60,0,0
180232,-45.4545454545455,4,1,1,60,0,0
180623,-100,4,1,1,60,0,0
181145,-100,4,1,1,30,0,0
181275,-100,4,1,1,60,0,0
182710,-62.5,4,1,1,60,0,0
183493,-100,4,1,1,70,0,0
183754,-55.5555555555556,4,1,1,70,0,0
184797,260.869565217391,4,1,1,80,1,1
184797,-90.9090909090909,4,1,1,80,0,1
219753,-312.5,4,1,1,50,0,0
220014,-312.5,4,1,1,15,0,0
220079,-312.5,4,1,1,50,0,0
220276,-100,4,1,1,70,0,0
252623,-83.3333333333333,4,1,1,70,0,0
253667,555.555555555556,4,1,1,70,1,0
253736,-100,4,1,1,40,0,0
259222,-100,4,1,1,35,0,0
260333,-100,4,1,1,30,0,0
261444,-100,4,1,1,25,0,0
262555,554.016620498615,4,1,1,20,1,0
280006,-100,4,2,2,50,0,0
280283,555.555555555556,4,2,2,50,1,0
280283,-125,4,2,2,50,0,0
288338,-125,4,3,1,40,0,0
288616,-125,4,3,1,45,0,0
288894,-125,4,3,1,50,0,0
289171,-111.111111111111,4,2,2,50,0,0
292783,-111.111111111111,4,3,1,40,0,0
293060,-111.111111111111,4,3,1,45,0,0
293338,-111.111111111111,4,3,1,50,0,0
293616,-99.9999999999999,4,2,2,50,0,0
295005,-99.9999999999999,4,3,1,40,0,0
295283,-99.9999999999999,4,3,1,45,0,0
295560,-99.9999999999999,4,3,1,50,0,0
295838,-99.9999999999999,4,3,1,40,0,0
296116,-99.9999999999999,4,3,1,45,0,0
296394,-99.9999999999999,4,3,1,50,0,0
296671,-99.9999999999999,4,3,1,55,0,0
296949,-99.9999999999999,4,3,1,60,0,0
297227,-99.9999999999999,4,3,1,65,0,0
297505,-99.9999999999999,4,3,1,70,0,0
297783,-99.9999999999999,4,3,1,75,0,0
299449,-99.9999999999999,4,2,2,30,0,0
300144,-99.9999999999999,4,2,2,5,0,0
300283,-80,4,1,1,70,0,0
302921,-80,4,1,1,5,0,0
303060,-80,4,1,1,70,0,0
311810,-80,4,1,1,5,0,0
311949,-80,4,1,1,70,0,0
318060,-80,4,1,1,80,0,0
324310,-80,4,1,1,5,0,0
324449,-80,4,1,1,80,0,0
335838,-80,4,1,1,80,0,1
344310,-80,4,1,1,5,0,1
344449,-80,4,1,1,80,0,1
362088,-80,4,1,1,5,0,1
362227,-80,4,1,1,80,0,1
371394,-80,4,1,1,70,0,0
407088,-80,4,1,1,50,0,0
411394,-80,4,1,1,45,0,0
411949,-80,4,1,1,40,0,0
412505,-80,4,1,1,35,0,0
413060,-80,4,1,1,30,0,0
413616,-80,4,1,1,25,0,0
414171,-80,4,1,1,20,0,0
414727,-80,4,1,1,15,0,0
415283,-80,4,1,1,10,0,0
415838,-80,4,1,1,5,0,0

[Colours]
Combo1 : 64,102,191
Combo2 : 197,80,80
Combo3 : 196,166,77
Combo4 : 157,72,193

[HitObjects]
296,108,8450,6,0,P|344:96|384:96,1,90,12|2,0:0|0:0,0:0:0:0:
216,276,8710,2,0,P|168:288|128:288,1,90,12|2,0:0|0:0,0:0:0:0:
148,88,8971,5,12,2:0:0:0:
296,220,9102,1,2,0:0:0:0:
232,12,9232,1,12,2:0:0:0:
138,199,9363,6,0,P|126:251|130:303,1,90,6|8,0:0|0:0,0:0:0:0:
383,287,9623,2,0,P|383:242|372:198,1,90,6|8,0:0|0:0,0:0:0:0:
256,35,9884,1,2,0:0:0:0:
292,312,10015,5,12,2:0:0:0:
356,103,10145,1,2,0:0:0:0:
160,289,10276,1,12,2:0:0:0:
145,84,10406,1,2,0:0:0:0:
236,240,10536,5,8,0:0:0:0:
356,103,10667,2,0,P|371:144|373:189,1,90,6|8,0:0|0:0,0:0:0:0:
160,289,10928,2,0,P|149:248|155:200,1,90,6|8,0:0|0:0,0:0:0:0:
232,40,11189,1,2,0:0:0:0:
268,236,11319,1,8,0:0:0:0:
56,268,11449,6,0,P|52:224|60:180,1,90,6|8,2:0|0:0,0:0:0:0:
140,48,11710,1,2,0:0:0:0:
268,236,11841,1,12,2:0:0:0:
40,72,11971,1,2,0:0:0:0:
168,264,12102,1,8,3:0:0:0:
273,5,12232,1,2,0:0:0:0:
268,236,12363,1,12,0:0:0:0:
168,84,12493,1,2,0:0:0:0:
344,320,12623,6,0,P|388:320|432:300,1,90,12|2,0:0|0:0,0:0:0:0:
252,100,12884,1,12,2:0:0:0:
244,208,13015,1,8,3:0:0:0:
236,316,13145,1,4,3:0:0:0:
148,252,13276,1,4,3:0:0:0:
336,168,13406,2,0,P|380:168|424:188,1,90,12|2,0:0|0:0,0:0:0:0:
344,320,13667,1,8,0:0:0:0:
168,168,13797,6,0,P|168:124|188:83,1,90,6|8,0:0|0:0,0:0:0:0:
336,168,14058,2,0,L|332:212,1,45,2|2,0:0|0:0,0:0:0:0:
248,336,14189,1,8,0:0:0:0:
207,317,14254,1,8,0:0:0:0:
190,277,14319,1,2,0:0:0:0:
205,236,14384,1,2,0:0:0:0:
245,216,14449,1,8,0:0:0:0:
416,280,14580,2,0,L|420:236,1,45,2|2,0:0|0:0,0:0:0:0:
412,96,14710,5,8,0:0:0:0:
379,66,14775,1,8,0:0:0:0:
335,66,14840,1,2,0:0:0:0:
303,97,14905,1,2,0:0:0:0:
301,141,14970,1,8,0:0:0:0:
432,256,15102,1,6,0:0:0:0:
245,216,15232,1,12,0:0:0:0:
360,332,15363,1,2,0:0:0:0:
358,317,15428,1,2,0:0:0:0:
357,302,15493,1,8,3:0:0:0:
356,287,15558,1,8,3:0:0:0:
355,272,15623,1,4,3:0:0:0:
354,257,15689,1,4,3:0:0:0:
353,242,15754,6,0,L|261:234,1,90,8|6,0:0|0:0,0:0:0:0:
96,192,16015,1,12,2:0:0:0:
280,152,16145,2,0,L|276:92,1,45,2|2,0:0|0:0,0:0:0:0:
144,24,16276,5,12,0:0:0:0:
152,132,16406,1,8,3:0:0:0:
160,240,16536,1,4,3:0:0:0:
168,348,16667,1,4,3:0:0:0:
412,244,16797,5,6,0:0:0:0:
412,244,16863,1,2,0:0:0:0:
412,244,16928,2,0,L|420:164,1,76.5000014591217,2|2,0:0|0:0,0:0:0:0:
436,36,17189,1,2,0:0:0:0:
324,188,17319,2,0,P|284:200|244:200,1,76.5000014591217,12|2,2:0|0:0,0:0:0:0:
176,180,17515,1,2,0:0:0:0:
176,180,17580,2,0,L|168:100,1,76.5000014591217,2|2,0:0|0:0,0:0:0:0:
300,282,17841,5,6,0:0:0:0:
131,334,17971,1,8,3:0:0:0:
131,334,18036,1,4,3:0:0:0:
131,334,18102,2,0,L|123:254,1,76.5000014591217,2|2,0:0|0:0,0:0:0:0:
280,40,18363,5,12,2:0:0:0:
256,128,18493,1,2,0:0:0:0:
176,180,18623,1,2,0:0:0:0:
84,176,18754,1,2,0:0:0:0:
124,24,18884,5,12,2:0:0:0:
260,224,19015,2,0,L|316:304,1,90,6|8,0:0|0:0,0:0:0:0:
412,80,19276,1,6,2:0:0:0:
396,284,19407,1,8,0:0:0:0:
288,132,19536,1,6,2:0:0:0:
176,268,19667,1,8,0:0:0:0:
386,195,19797,6,0,L|398:295,1,90,6|8,2:0|0:0,0:0:0:0:
202,153,20058,1,2,0:0:0:0:
112,324,20189,2,0,P|152:348|212:348,1,90,12|2,2:0|0:0,0:0:0:0:
288,132,20449,1,8,3:0:0:0:
176,268,20580,5,2,0:0:0:0:
76,64,20710,1,12,2:0:0:0:
260,240,20841,1,2,3:0:0:0:
215,17,20971,1,12,2:0:0:0:
192,176,21102,1,2,0:0:0:0:
372,40,21232,5,12,2:0:0:0:
460,96,21363,1,8,3:0:0:0:
476,202,21493,1,4,3:0:0:0:
402,282,21623,1,4,3:0:0:0:
192,176,21754,2,0,P|236:152|280:152,1,90,12|2,2:0|0:0,0:0:0:0:
444,208,22015,1,12,2:0:0:0:
275,328,22145,2,0,L|258:233,1,90,6|8,0:0|0:0,0:0:0:0:
368,108,22406,2,0,L|376:155,1,45,2|2,0:0|0:0,0:0:0:0:
352,296,22536,5,8,0:0:0:0:
376,332,22601,1,8,0:0:0:0:
419,339,22666,1,2,0:0:0:0:
454,312,22731,1,2,0:0:0:0:
457,268,22796,1,8,0:0:0:0:
292,192,22928,2,0,L|245:200,1,45,2|2,0:0|0:0,0:0:0:0:
136,288,23058,5,8,0:0:0:0:
92,285,23123,1,2,0:0:0:0:
64,250,23188,1,2,0:0:0:0:
72,207,23253,1,8,0:0:0:0:
108,183,23318,1,8,0:0:0:0:
248,308,23449,1,6,2:0:0:0:
336,136,23580,5,12,0:0:0:0:
236,232,23710,1,2,0:0:0:0:
233,217,23775,1,2,0:0:0:0:
230,202,23841,1,8,3:0:0:0:
228,187,23905,1,8,3:0:0:0:
225,172,23970,1,4,3:0:0:0:
222,158,24036,1,4,3:0:0:0:
220,143,24102,1,8,0:0:0:0:
352,296,24232,1,6,2:0:0:0:
153,333,24363,6,0,L|50:314,1,90,12|2,0:0|0:0,0:0:0:0:
272,92,24623,1,8,0:0:0:0:
248,312,24754,1,8,3:0:0:0:
24,155,24884,1,4,3:0:0:0:
153,333,25015,1,4,3:0:0:0:
164,176,25145,1,12,2:0:0:0:
290,95,27102,5,0,0:0:0:0:
148,76,27232,2,0,P|220:108|304:88,1,153.000002918243,6|8,0:0|0:0,0:0:0:0:
416,48,27623,2,0,L|424:136,1,76.5000014591217,2|2,0:0|0:0,0:0:0:0:
335,204,27884,1,8,3:0:0:0:
422,124,28015,1,4,3:0:0:0:
476,340,28145,6,0,P|476:280|414:208,1,153.000002918243,8|2,0:0|0:0,0:0:0:0:
292,116,28536,1,8,3:0:0:0:
260,276,28667,1,4,3:0:0:0:
384,120,28797,2,0,P|364:56|284:24,1,153.000002918243,2|2,0:0|0:0,0:0:0:0:
128,52,29189,1,8,0:0:0:0:
292,116,29319,1,2,0:0:0:0:
132,196,29449,6,0,B|106:142|106:142|128:47,1,153.000002918243,2|8,0:0|0:0,0:0:0:0:
197,133,29841,1,2,0:0:0:0:
296,328,29971,1,6,0:0:0:0:
296,328,30232,6,0,L|308:244,1,76.5000014591217,6|0,0:0|0:0,0:0:0:0:
332,96,30493,1,8,3:0:0:0:
484,200,30623,2,0,P|428:200|376:156,1,114.750002188683,4|0,3:0|0:0,0:0:0:0:
332,96,30884,2,0,P|362:84|408:86,1,76.5000014591217,8|0,0:0|0:0,0:0:0:0:
466,307,31145,1,6,0:0:0:0:
466,307,31406,6,0,P|395:339|320:326,1,153.000002918243,6|8,0:0|0:0,0:0:0:0:
223,271,31797,1,2,0:0:0:0:
381,218,31928,2,0,B|389:182|389:182|379:140,1,76.5000014591217,8|4,3:0|3:0,0:0:0:0:
351,26,32189,1,4,3:0:0:0:
168,205,32319,6,0,P|240:186|306:241,1,153.000002918243,8|2,0:0|0:0,0:0:0:0:
137,287,32710,2,0,P|103:264|85:230,1,76.5000014591217,8|4,3:0|3:0,0:0:0:0:
162,48,32971,2,0,P|154:98|100:141,1,114.750002188683,4|0,3:0|0:0,0:0:0:0:
24,168,33232,1,2,0:0:0:0:
79,59,33363,1,2,0:0:0:0:
280,188,33493,6,0,B|380:232|380:232|372:188,1,153.000002918243,12|2,0:0|0:0,0:0:0:0:
336,32,33884,2,0,P|324:72|324:108,1,76.5000014591217,8|0,0:0|0:0,0:0:0:0:
448,288,34145,2,0,P|460:248|460:212,1,76.5000014591217,2|0,0:0|0:0,0:0:0:0:
236,112,34406,6,0,P|196:168|236:264,1,153.000002918243,6|8,0:0|3:0,0:0:0:0:
364,332,34797,1,4,3:0:0:0:
324,224,34928,1,4,3:0:0:0:
116,268,35058,2,0,B|32:288|32:288|60:312,1,114.750002188683,2|0,0:0|0:0,0:0:0:0:
172,328,35319,2,0,P|196:292|196:240,1,76.5000014591217,6|0,0:0|0:0,0:0:0:0:
144,80,35580,6,0,B|112:140|156:180|156:180|200:168,1,153.000002918243,6|8,0:0|0:0,0:0:0:0:
308,136,35971,1,2,0:0:0:0:
237,37,36102,2,0,B|285:23|285:23|315:28,1,76.5000014591217,8|4,3:0|3:0,0:0:0:0:
420,108,36363,1,4,3:0:0:0:
376,320,36493,6,0,P|436:332|468:252,1,153.000002918243,8|2,0:0|0:0,0:0:0:0:
368,200,36884,1,8,3:0:0:0:
273,272,37015,1,4,3:0:0:0:
160,153,37145,2,0,P|159:114|171:78,1,76.5000014591217,8|0,3:0|0:0,0:0:0:0:
268,16,37406,1,2,0:0:0:0:
396,124,37536,1,8,0:0:0:0:
170,78,37667,1,2,0:0:0:0:
273,272,37797,6,0,B|288:220|288:220|268:120,1,153.000002918243,2|8,0:0|0:0,0:0:0:0:
176,228,38189,1,0,0:0:0:0:
432,232,38319,1,6,0:0:0:0:
432,232,38580,6,0,P|443:270|437:321,1,76.5000014591217,6|8,0:0|3:0,0:0:0:0:
320,276,38841,1,4,3:0:0:0:
316,104,38971,2,0,P|366:90|432:120,1,114.750002188683,4|0,3:0|0:0,0:0:0:0:
364,176,39232,2,0,P|320:190|278:182,1,76.5000014591217,8|0,0:0|0:0,0:0:0:0:
124,100,39493,1,6,2:0:0:0:
124,100,39754,6,0,B|142:157|142:157|126:255,1,153.000002918243,6|8,0:0|0:0,0:0:0:0:
106,359,40145,1,2,0:0:0:0:
221,238,40276,1,8,3:0:0:0:
57,162,40406,1,4,3:0:0:0:
221,238,40536,1,4,3:0:0:0:
335,106,40667,6,0,B|397:32|397:32|421:88,1,153.000002918243,8|2,0:0|0:0,0:0:0:0:
484,192,41058,2,0,P|448:208|408:208,1,76.5000014591217,8|4,3:0|3:0,0:0:0:0:
236,156,41319,2,0,B|156:136|156:136|164:172,1,114.750002188683,4|0,3:0|0:0,0:0:0:0:
300,216,41580,2,0,P|319:185|323:143,1,76.5000014591217,2|2,0:0|0:0,0:0:0:0:
132,43,41841,6,0,P|77:80|71:179,1,153.000002918243,12|2,0:0|0:0,0:0:0:0:
197,325,42232,2,0,L|205:243,1,76.5000014591217,12|0,0:0|0:0,0:0:0:0:
36,164,42493,2,0,L|43:240,1,76.5000014591217,2|0,0:0|0:0,0:0:0:0:
289,297,42754,6,0,P|337:290|378:238,1,114.750002188683,6|0,0:0|0:0,0:0:0:0:
398,168,43015,1,8,3:0:0:0:
180,224,43145,2,0,L|173:148,1,76.5000014591217,8|2,0:0|0:0,0:0:0:0:
348,16,43406,5,8,0:0:0:0:
288,104,43536,1,8,3:0:0:0:
181,117,43667,1,4,3:0:0:0:
94,54,43797,1,4,3:0:0:0:
294,134,43928,6,0,P|312:192|312:272,1,135.000005149842,6|0,0:0|0:0,0:0:0:0:
168,324,44319,2,0,P|168:292|176:252,1,67.5000025749208,2|0,0:0|0:0,0:0:0:0:
384,172,44580,2,0,P|390:205|390:238,1,67.5000025749208
288,352,44841,1,2,0:0:0:0:
187,183,44971,6,0,P|180:149|180:116,1,67.5000025749208,8|2,0:0|0:0,0:0:0:0:
312,265,45232,1,2,0:0:0:0:
312,265,45493,2,0,L|236:269,1,67.5000025749208,2|0,0:0|0:0,0:0:0:0:
42,193,45754,2,0,L|122:189,1,67.5000025749208,2|0,0:0|0:0,0:0:0:0:
268,112,46015,6,0,P|275:146|275:179,1,67.5000025749208,0|2,0:0|0:0,0:0:0:0:
160,336,46276,2,0,P|153:302|153:269,1,67.5000025749208,0|2,0:0|0:0,0:0:0:0:
180,136,46536,1,0,0:0:0:0:
404,232,46667,2,0,B|416:180|416:180|404:100,1,135.000005149842,2|2,0:0|0:0,0:0:0:0:
312,265,47058,6,0,P|331:297|356:317,1,67.5000025749208,8|2,0:0|0:0,0:0:0:0:
332,168,47319,1,8,3:0:0:0:
240,196,47449,1,4,3:0:0:0:
220,288,47580,6,0,P|152:322|92:307,1,135,4|0,3:0|0:0,0:0:0:0:
20,256,47841,1,2,0:0:0:0:
132,128,47971,1,8,0:0:0:0:
312,265,48102,6,0,P|330:236|337:203,1,67.5000025749208,2|0,0:0|0:0,0:0:0:0:
144,224,48363,1,8,0:0:0:0:
284,356,48493,2,0,P|336:356|376:336,1,67.5000025749208,2|0,0:0|0:0,0:0:0:0:
480,240,48754,2,0,L|412:224,1,67.5000025749208
292,136,49015,1,2,0:0:0:0:
384,328,49145,6,0,B|400:264|400:264|380:192,1,135.000005149842,8|2,0:0|0:0,0:0:0:0:
336,44,49536,1,0,0:0:0:0:
432,104,49667,2,0,L|512:112,1,67.5000025749208,2|0,0:0|0:0,0:0:0:0:
292,136,49928,2,0,L|224:129,1,67.5000025749208,2|0,0:0|0:0,0:0:0:0:
68,112,50189,6,0,B|56:148|56:148|68:176|68:176|55:212|70:243,1,135.000005149842,2|0,0:0|0:0,0:0:0:0:
208,225,50580,2,0,P|177:211|143:208,1,67.5000025749208,2|2,0:0|0:0,0:0:0:0:
24,344,50841,2,0,P|57:339|88:325,1,67.5000025749208,0|2,0:0|0:0,0:0:0:0:
220,252,51102,1,2,0:0:0:0:
56,56,51232,5,8,0:0:0:0:
118,141,51363,1,8,3:0:0:0:
226,149,51493,1,4,3:0:0:0:
298,69,51623,1,4,3:0:0:0:
98,160,51754,6,0,P|75:219|103:283,1,135,12|0,0:0|0:0,0:0:0:0:
176,328,52015,2,0,B|219:337|219:337|265:326,1,90,8|4,3:0|3:0,0:0:0:0:
472,196,52276,6,0,P|400:164|332:184,1,153.000002918243,6|8,0:0|0:0,0:0:0:0:
220,252,52667,1,0,0:0:0:0:
396,280,52797,1,2,0:0:0:0:
292,180,52928,1,8,3:0:0:0:
320,356,53058,1,4,3:0:0:0:
356,120,53189,1,8,0:0:0:0:
220,252,53319,6,0,P|252:276|288:284,1,76.5000014591217
496,136,53580,1,2,0:0:0:0:
408,76,53710,1,8,3:0:0:0:
320,136,53841,2,0,P|272:156|200:148,1,114.750002188683,4|0,3:0|0:0,0:0:0:0:
136,116,54102,1,2,0:0:0:0:
276,248,54232,1,8,0:0:0:0:
252,60,54363,1,0,0:0:0:0:
152,232,54493,6,0,P|152:296|208:364,1,153.000002918243,2|8,0:0|0:0,0:0:0:0:
340,364,54884,1,0,0:0:0:0:
228,160,55015,1,2,0:0:0:0:
228,160,55276,6,0,P|272:160|304:148,1,76.5000014591217,6|0,0:0|0:0,0:0:0:0:
252,60,55536,1,8,3:0:0:0:
76,116,55667,2,0,P|32:76|32:24,1,114.750002188683,4|0,3:0|0:0,0:0:0:0:
148,80,55928,2,0,P|156:120|144:160,1,76.5000014591217,8|0,0:0|0:0,0:0:0:0:
64,320,56189,1,6,0:0:0:0:
64,320,56449,6,0,P|136:288|212:304,1,153.000002918243,6|8,0:0|0:0,0:0:0:0:
320,348,56841,1,0,0:0:0:0:
320,348,56971,2,0,L|328:272,1,76.5000014591217,2|8,0:0|3:0,0:0:0:0:
344,144,57232,1,4,3:0:0:0:
128,184,57363,6,0,P|196:215|270:202,1,153.000002918243,8|0,0:0|0:0,0:0:0:0:
404,216,57754,2,0,L|484:224,1,76.5000014591217,2|8,0:0|3:0,0:0:0:0:
300,324,58015,2,0,L|223:331,1,76.5000014591217,4|0,3:0|0:0,0:0:0:0:
52,212,58276,2,0,P|88:256|148:264,1,114.750002188683,2|0,0:0|0:0,0:0:0:0:
236,244,58536,6,0,B|267:142|267:142|262:94,1,153.000002918243,12|2,0:0|0:0,0:0:0:0:
440,220,58928,2,0,L|363:212,1,76.5000014591217,8|0,0:0|0:0,0:0:0:0:
100,108,59189,2,0,L|176:100,1,76.5000014591217,2|0,0:0|0:0,0:0:0:0:
312,280,59449,6,0,P|256:327|175:304,1,153.000002918243,6|8,0:0|3:0,0:0:0:0:
40,168,59841,1,8,0:0:0:0:
236,244,59971,1,2,0:0:0:0:
60,368,60102,5,8,0:0:0:0:
108,272,60232,1,8,3:0:0:0:
152,172,60363,1,4,3:0:0:0:
200,76,60493,1,4,3:0:0:0:
360,243,60623,6,0,P|297:265|235:243,1,135.000005149842,6|0,0:0|0:0,0:0:0:0:
279,112,61015,2,0,P|294:142|296:176,1,67.5000025749208
160,288,61276,2,0,L|152:216,1,67.5000025749208
216,164,61536,1,0,0:0:0:0:
278,320,61667,6,0,P|213:327|160:288,1,135.000005149842
235,243,62058,1,0,0:0:0:0:
384,300,62189,2,0,P|400:264|400:228,1,67.5000025749208
312,117,62449,2,0,B|300:168|300:168|320:248,1,135.000005149842
384,164,62841,1,0,0:0:0:0:
228,128,62971,2,0,B|76:144,1,135.000005149842
168,216,63363,1,0,0:0:0:0:
228,128,63493,2,0,P|240:100|240:56,1,67.5000025749208
93,142,63754,6,0,P|65:198|89:286,1,135.000005149842,4|0,0:0|0:0,0:0:0:0:
164,324,64145,2,0,B|240:320,1,67.5000025749208
284,172,64406,2,0,P|264:204|260:236,1,67.5000025749208
396,288,64667,2,0,P|416:256|420:224,1,67.5000025749208
364,104,64928,2,0,B|280:88|280:88|220:104,1,135.000005149842
340,232,65319,5,0,0:0:0:0:
340,232,66363,6,0,P|352:280|352:320,1,90,12|2,0:0|0:0,0:0:0:0:
172,152,66623,2,0,P|160:104|160:64,1,90,12|2,0:0|0:0,0:0:0:0:
360,84,66884,1,12,2:0:0:0:
228,220,67015,1,2,0:0:0:0:
432,192,67145,1,12,2:0:0:0:
244,108,67276,6,0,P|199:109|155:120,1,90,6|8,0:0|0:0,0:0:0:0:
296,308,67536,2,0,P|339:318|384:320,1,90,6|8,0:0|0:0,0:0:0:0:
352,160,67797,1,2,0:0:0:0:
72,220,67928,5,12,2:0:0:0:
200,20,68058,1,2,0:0:0:0:
224,264,68189,1,12,2:0:0:0:
60,76,68319,1,2,0:0:0:0:
160,196,68449,5,8,0:0:0:0:
338,71,68580,2,0,P|349:114|351:159,1,90,6|8,0:0|0:0,0:0:0:0:
144,240,68841,2,0,P|132:292|132:336,1,90,6|8,0:0|0:0,0:0:0:0:
356,328,69102,1,2,0:0:0:0:
236,112,69232,1,8,0:0:0:0:
456,192,69363,6,0,P|412:202|367:204,1,90,6|8,2:0|0:0,0:0:0:0:
143,142,69623,1,2,0:0:0:0:
256,344,69754,2,0,P|268:292|268:248,1,90,12|2,2:0|0:0,0:0:0:0:
232,80,70015,1,8,3:0:0:0:
368,272,70145,2,0,P|412:272|464:252,1,90,2|12,0:0|0:0,0:0:0:0:
143,142,70406,2,0,P|96:140|48:156,1,90,2|12,0:0|0:0,0:0:0:0:
116,288,70667,5,0,0:0:0:0:
304,88,70797,1,8,0:0:0:0:
332,192,70928,1,8,3:0:0:0:
356,300,71058,1,4,3:0:0:0:
436,228,71189,1,4,3:0:0:0:
232,156,71319,2,0,P|188:145|143:143,1,90,12|2,2:0|0:0,0:0:0:0:
160,332,71580,1,8,0:0:0:0:
348,244,71710,2,0,P|344:196|316:136,1,90,6|8,0:0|0:0,0:0:0:0:
120,200,71971,6,0,P|114:221|115:244,1,45,2|2,0:0|0:0,0:0:0:0:
252,324,72102,1,8,0:0:0:0:
266,282,72167,1,8,0:0:0:0:
267,237,72232,1,10,0:0:0:0:
255,193,72297,1,2,0:0:0:0:
232,156,72363,1,8,0:0:0:0:
44,131,72493,6,0,P|66:129|87:122,1,45,2|2,0:0|0:0,0:0:0:0:
216,56,72623,1,8,0:0:0:0:
259,42,72688,1,8,0:0:0:0:
302,45,72753,1,2,0:0:0:0:
344,62,72818,1,2,0:0:0:0:
378,91,72884,2,0,L|388:180,1,90,8|6,0:0|2:0,0:0:0:0:
460,332,73145,6,0,P|420:348|364:348,1,90,8|2,0:0|0:0,0:0:0:0:
168,348,73406,1,8,3:0:0:0:
165,325,73471,1,8,3:0:0:0:
162,303,73536,1,4,3:0:0:0:
160,280,73601,1,4,3:0:0:0:
157,258,73667,2,0,L|252:248,1,90,8|6,0:0|2:0,0:0:0:0:
64,348,73928,5,8,0:0:0:0:
40,140,74058,1,2,0:0:0:0:
40,140,74123,1,2,0:0:0:0:
40,140,74189,1,8,0:0:0:0:
157,258,74319,1,8,3:0:0:0:
237,112,74449,1,4,3:0:0:0:
436,251,74580,1,2,0:0:0:0:
436,251,74645,1,2,0:0:0:0:
436,251,74710,6,0,B|373:235|373:235|299:261|299:261|238:246,1,198.000006042481,6|8,0:0|0:0,0:0:0:0:
74,72,75102,2,0,B|125:58|125:58|173:72,1,99.0000030212403,6|0,0:0|0:0,0:0:0:0:
436,160,75362,1,2,0:0:0:0:
436,160,75427,1,2,0:0:0:0:
436,160,75493,6,0,B|373:144|373:144|299:170|299:170|238:155,1,198.000006042481,12|0,2:0|0:0,0:0:0:0:
116,132,75884,1,2,0:0:0:0:
228,308,76015,2,0,B|180:324|180:324|132:308,1,99.0000030212403,8|0,0:0|0:0,0:0:0:0:
36,152,76276,1,2,0:0:0:0:
179,241,76406,1,2,0:0:0:0:
283,59,76536,2,0,B|272:99|272:99|287:155,1,99.0000030212403,8|2,0:0|0:0,0:0:0:0:
458,255,76797,6,0,B|423:302|357:304|322:267|322:267|306:219,1,198.000006042481,6|8,0:0|0:0,0:0:0:0:
396,60,77189,2,0,B|409:99|409:99|398:156,1,99.0000030212403,6|0,0:0|0:0,0:0:0:0:
228,316,77449,1,2,0:0:0:0:
228,316,77515,1,2,0:0:0:0:
228,316,77580,6,0,B|173:333|125:300|118:247|118:247|156:205,1,198.000006042481,12|0,2:0|0:0,0:0:0:0:
234,120,77971,1,2,0:0:0:0:
335,237,78102,2,8,P|287:248|231:231,1,99.0000030212403,8|0,0:0|0:0,0:0:0:0:
40,160,78362,2,0,B|56:120|56:120|101:86,1,99.0000030212403,2|2,0:0|0:0,0:0:0:0:
276,48,78623,2,0,B|235:36|235:36|180:49,1,99.0000030212403,8|2,0:0|0:0,0:0:0:0:
36,248,78884,6,0,B|96:228|96:228|156:248|156:248|164:292|204:312,1,198.000006042481,6|8,0:0|0:0,0:0:0:0:
444,228,79276,2,0,B|384:248|384:248|324:228|324:228|316:184|286:169,1,198.000006042481,6|2,0:0|0:0,0:0:0:0:
104,132,79667,1,12,2:0:0:0:
236,285,79797,2,0,L|239:235,1,49.5000015106202,2|2,0:0|0:0,0:0:0:0:
176,64,79928,5,8,0:0:0:0:
135,36,79993,1,8,0:0:0:0:
86,32,80058,1,2,0:0:0:0:
41,52,80123,1,2,0:0:0:0:
12,91,80189,2,0,B|4:128|4:128|12:200,1,99.0000030212403,8|2,0:0|0:0,0:0:0:0:
164,348,80449,5,8,0:0:0:0:
188,212,80580,1,8,3:0:0:0:
212,76,80710,1,8,3:0:0:0:
316,168,80841,1,4,3:0:0:0:
64,252,80971,6,0,B|53:300|53:300|67:347,1,99.0000030212403,2|4,0:0|3:0,0:0:0:0:
264,300,81232,1,8,0:0:0:0:
128,128,81363,2,0,B|116:80|116:80|128:32,1,99.0000030212403,6|8,2:0|3:0,0:0:0:0:
332,76,81624,1,4,3:0:0:0:
197,251,81754,5,8,0:0:0:0:
192,261,81819,1,8,3:0:0:0:
189,273,81884,1,8,3:0:0:0:
185,284,81949,1,4,3:0:0:0:
180,297,82014,1,4,3:0:0:0:
340,168,82145,2,0,B|388:156|388:156|436:168,1,99.0000030212403,6|8,2:0|0:0,0:0:0:0:
392,340,82406,5,6,2:0:0:0:
216,112,82536,1,8,3:0:0:0:
212,344,82667,1,4,3:0:0:0:
388,108,82797,1,4,3:0:0:0:
392,340,82928,1,8,0:0:0:0:
80,205,83058,6,0,B|142:189|142:189|216:215|216:215|277:200,1,198.000006042481,6|8,0:0|0:0,0:0:0:0:
435,42,83449,2,0,B|389:27|389:27|330:45,1,99.0000030212403,6|0,0:0|0:0,0:0:0:0:
80,116,83710,1,2,0:0:0:0:
80,116,83776,1,2,0:0:0:0:
80,116,83841,6,0,B|142:100|142:100|216:126|216:126|277:111,1,198.000006042481,12|0,2:0|0:0,0:0:0:0:
400,172,84232,1,2,0:0:0:0:
288,264,84363,2,0,B|276:304|276:304|288:360,1,99.0000030212403,8|0,0:0|0:0,0:0:0:0:
472,220,84623,2,0,B|484:180|484:180|472:124,1,99.0000030212403,2|2,0:0|0:0,0:0:0:0:
280,172,84884,2,0,B|240:184|240:184|184:173,1,99.0000030212403,8|2,0:0|0:0,0:0:0:0:
40,44,85145,6,0,B|84:24|84:24|156:72|228:52,1,198.000006042481,6|8,0:0|0:0,0:0:0:0:
456,165,85536,2,0,B|410:180|410:180|351:162,1,99.0000030212403,6|0,0:0|0:0,0:0:0:0:
68,248,85797,1,2,0:0:0:0:
68,248,85863,1,2,0:0:0:0:
68,248,85928,6,0,B|112:228|112:228|184:276|256:256,1,198.000006042481,12|0,2:0|0:0,0:0:0:0:
361,165,86319,1,2,0:0:0:0:
198,64,86449,2,0,P|185:110|204:163,1,99.0000030212403,8|0,0:0|0:0,0:0:0:0:
348,284,86710,2,0,B|391:297|391:297|447:282,1,99.0000030212403,2|2,0:0|0:0,0:0:0:0:
390,108,86971,1,8,0:0:0:0:
348,284,87102,1,2,0:0:0:0:
136,184,87232,6,0,B|188:170|188:170|283:195|283:195|328:182,1,198.000006042481,6|8,0:0|0:0,0:0:0:0:
476,104,87623,2,0,B|423:117|423:117|328:92|328:92|284:104,1,198.000006042481,6|2,0:0|0:0,0:0:0:0:
136,184,88015,1,12,2:0:0:0:
268,56,88145,2,0,L|284:104,1,49.5000015106202,2|2,0:0|0:0,0:0:0:0:
355,255,88276,5,8,0:0:0:0:
342,302,88341,1,8,0:0:0:0:
304,333,88406,1,2,0:0:0:0:
256,337,88471,1,2,0:0:0:0:
213,314,88536,2,0,B|199:275|199:275|211:215,1,99.0000030212403,8|2,0:0|0:0,0:0:0:0:
368,40,88797,5,8,0:0:0:0:
388,176,88928,1,8,3:0:0:0:
408,312,89058,1,4,3:0:0:0:
508,216,89189,1,4,3:0:0:0:
268,136,89319,6,0,B|219:120|219:120|168:137,1,99.0000030212403,2|8,0:0|3:0,0:0:0:0:
12,208,89580,1,8,0:0:0:0:
228,324,89710,2,0,B|240:275|240:275|221:224,1,99.0000030212403,6|8,2:0|3:0,0:0:0:0:
160,48,89971,1,4,3:0:0:0:
112,256,90102,5,8,0:0:0:0:
109,268,90167,1,8,3:0:0:0:
106,280,90232,1,8,3:0:0:0:
103,292,90297,1,4,3:0:0:0:
100,304,90362,1,4,3:0:0:0:
320,220,90493,2,0,B|366:205|366:205|414:221,1,99.0000030212403,6|8,2:0|0:0,0:0:0:0:
228,324,90754,5,6,2:0:0:0:
209,90,90884,1,8,3:0:0:0:
368,316,91015,1,2,2:0:0:0:
349,82,91145,1,8,3:0:0:0:
228,324,91276,1,8,0:0:0:0:
60,168,91406,6,0,B|112:154|112:154|207:179|207:179|252:166,1,198.000006042481,6|8,0:0|0:0,0:0:0:0:
415,276,91797,2,0,B|370:263|370:263|313:278,1,99.0000030212403,6|0,0:0|0:0,0:0:0:0:
61,359,92058,1,2,0:0:0:0:
61,359,92123,1,2,0:0:0:0:
61,359,92189,6,0,B|47:307|47:307|72:212|72:212|59:167,1,198.000006042481,12|0,2:0|0:0,0:0:0:0:
32,52,92580,1,2,0:0:0:0:
227,125,92710,2,0,P|276:125|322:108,1,99.0000030212403,8|0,0:0|0:0,0:0:0:0:
152,20,92971,1,2,0:0:0:0:
104,148,93102,1,2,0:0:0:0:
264,300,93232,2,0,B|280:256|280:256|280:200,1,99.0000030212403,8|0,0:0|0:0,0:0:0:0:
453,50,93493,6,0,B|414:127|503:156|453:240,1,198.000006042481,6|8,0:0|0:0,0:0:0:0:
227,125,93884,2,0,B|275:111|275:111|329:128,1,99.0000030212403,6|0,0:0|0:0,0:0:0:0:
506,300,94145,1,2,0:0:0:0:
506,300,94210,1,2,0:0:0:0:
506,300,94276,6,0,P|437:319|380:211,1,198.000006042481,12|0,2:0|0:0,0:0:0:0:
401,114,94667,1,2,0:0:0:0:
224,30,94797,2,0,B|211:71|211:71|227:127,1,99.0000030212403,8|0,0:0|0:0,0:0:0:0:
296,251,95058,1,2,0:0:0:0:
314,119,95189,1,2,0:0:0:0:
112,248,95319,2,0,B|160:231|160:231|212:236,1,99.0000030212403,8|2,0:0|0:0,0:0:0:0:
460,304,95580,6,0,B|412:300|412:300|324:340|324:340|270:335,1,198.000006042481,6|8,0:0|0:0,0:0:0:0:
168,152,95971,2,0,P|256:160|296:256,1,198.000006042481,6|2,0:0|0:0,0:0:0:0:
128,328,96363,1,12,2:0:0:0:
84,136,96493,2,0,P|91:112|110:90,1,49.5000015106202,2|2,0:0|0:0,0:0:0:0:
244,52,96623,5,8,0:0:0:0:
291,57,96688,1,8,0:0:0:0:
319,97,96753,1,2,0:0:0:0:
310,144,96818,1,2,0:0:0:0:
267,167,96883,1,8,0:0:0:0:
124,279,97015,1,2,0:0:0:0:
126,303,97080,1,2,0:0:0:0:
128,328,97145,1,8,0:0:0:0:
396,309,97276,5,8,3:0:0:0:
267,253,97406,1,4,3:0:0:0:
139,198,97536,1,4,3:0:0:0:
296,52,97667,6,0,B|344:40|344:40|392:52,1,99.0000030212403,2|8,0:0|3:0,0:0:0:0:
460,216,97928,1,8,0:0:0:0:
217,101,98058,2,0,B|204:53|204:53|215:5,1,99.0000030212403,6|8,2:0|3:0,0:0:0:0:
428,132,98319,1,4,3:0:0:0:
328,287,98449,5,8,0:0:0:0:
321,295,98514,1,8,3:0:0:0:
314,306,98579,1,8,3:0:0:0:
308,316,98644,1,4,3:0:0:0:
301,327,98709,1,4,3:0:0:0:
112,200,98841,2,0,B|159:187|159:187|207:198,1,99.0000030212403,2|8,0:0|0:0,0:0:0:0:
388,320,99102,5,2,0:0:0:0:
193,102,99232,1,8,3:0:0:0:
212,336,99363,1,4,3:0:0:0:
364,90,99493,1,4,3:0:0:0:
388,320,99624,1,8,0:0:0:0:
49,215,99754,6,0,B|120:236|120:236|244:208,1,198.000006042481,6|8,0:0|0:0,0:0:0:0:
411,49,100145,2,0,B|363:37|363:37|315:49,1,99.0000030212403,6|0,0:0|0:0,0:0:0:0:
52,124,100406,1,2,0:0:0:0:
52,124,100472,1,2,0:0:0:0:
52,124,100536,6,0,B|123:145|123:145|247:117,1,198.000006042481,12|0,2:0|0:0,0:0:0:0:
376,172,100928,1,2,0:0:0:0:
292,276,101058,2,0,B|282:320|282:320|294:372,1,99.0000030212403,8|0,0:0|0:0,0:0:0:0:
463,217,101319,2,0,B|473:173|473:173|461:121,1,99.0000030212403,2|2,0:0|0:0,0:0:0:0:
281,174,101580,2,0,B|237:185|237:185|184:175,1,99.0000030212403,8|2,0:0|0:0,0:0:0:0:
37,44,101841,6,0,B|82:57|82:57|177:32|177:32|229:46,1,198.000006042481,6|8,0:0|0:0,0:0:0:0:
454,165,102232,2,0,B|410:176|410:176|357:166,1,99.0000030212403,6|0,0:0|0:0,0:0:0:0:
152,184,102493,1,2,0:0:0:0:
152,184,102558,1,2,0:0:0:0:
152,184,102623,6,0,B|166:236|166:236|141:331|141:331|154:376,1,198.000006042481,12|0,2:0|0:0,0:0:0:0:
284,340,103015,1,2,0:0:0:0:
240,120,103145,2,0,B|228:160|228:160|244:216,1,99.0000030212403,8|0,0:0|0:0,0:0:0:0:
444,340,103406,2,0,B|456:300|456:300|440:244,1,99.0000030212403,2|2,0:0|0:0,0:0:0:0:
318,61,103667,2,0,P|368:48|420:68,1,99.0000030212403,8|2,0:0|0:0,0:0:0:0:
368,300,103928,6,0,B|323:313|323:313|228:288|228:288|176:302,1,198.000006042481,6|8,0:0|0:0,0:0:0:0:
44,148,104319,2,0,B|89:161|89:161|184:136|184:136|236:150,1,198.000006042481,6|2,0:0|0:0,0:0:0:0:
424,204,104710,1,12,2:0:0:0:
306,65,104841,2,0,L|310:125,1,49.5000015106202,2|2,0:0|0:0,0:0:0:0:
360,264,104971,5,8,0:0:0:0:
402,288,105036,1,8,0:0:0:0:
450,287,105101,1,2,0:0:0:0:
491,260,105166,1,2,0:0:0:0:
511,215,105231,1,8,0:0:0:0:
310,115,105362,1,2,0:0:0:0:
306,139,105427,1,2,0:0:0:0:
302,163,105492,1,8,0:0:0:0:
40,48,105623,5,8,3:0:0:0:
174,83,105754,1,4,3:0:0:0:
310,115,105884,1,4,3:0:0:0:
212,316,106015,6,0,B|164:328|164:328|108:316,1,99.0000030212403,2|8,0:0|3:0,0:0:0:0:
44,144,106276,1,8,0:0:0:0:
288,232,106406,2,0,B|336:244|336:244|392:232,1,99.0000030212403,6|8,2:0|3:0,0:0:0:0:
456,60,106667,1,4,3:0:0:0:
212,144,106797,5,8,0:0:0:0:
200,140,106862,1,8,3:0:0:0:
188,136,106927,1,8,3:0:0:0:
176,132,106992,1,4,3:0:0:0:
165,128,107057,1,4,3:0:0:0:
368,60,107189,2,0,B|381:107|381:107|372:156,1,99.0000030212403,6|8,2:0|0:0,3:0:0:0:
268,340,107449,5,2,0:0:0:0:
464,120,107579,1,8,3:0:0:0:
444,356,107710,1,4,3:0:0:0:
292,110,107840,1,4,3:0:0:0:
268,340,107971,1,4,3:0:0:0:
496,208,108102,6,0,B|448:196|448:196|399:208,1,99.0000030212403,6|0,0:0|0:0,0:0:0:0:
227,258,108363,2,0,B|179:269|179:269|130:257,1,99.0000030212403,2|0,0:0|0:0,0:0:0:0:
187,47,108623,1,6,2:0:0:0:
320,228,108754,1,4,0:0:0:0:
74,153,108884,2,0,B|123:140|123:140|170:152,1,99.0000030212403,6|0,0:0|0:0,0:0:0:0:
412,199,109145,5,8,0:0:0:0:
227,258,109276,1,8,3:0:0:0:
286,111,109406,1,4,3:0:0:0:
356,348,109536,1,4,3:0:0:0:
55,285,109667,1,12,3:0:0:0:
55,285,110189,5,6,0:0:0:0:
78,119,110319,1,2,0:0:0:0:
50,319,110449,1,2,0:0:0:0:
236,253,110580,2,0,B|191:243|191:243|149:254,1,90,2|4,0:0|2:0,0:0:0:0:
287,99,110841,5,2,0:0:0:0:
264,265,110971,1,2,0:0:0:0:
292,65,111101,1,2,0:0:0:0:
447,206,111232,2,0,B|403:215|403:215|360:204,1,90,12|0,2:0|0:0,0:0:0:0:
161,160,111493,5,8,3:0:0:0:
161,160,111623,1,4,3:0:0:0:
376,115,111754,1,6,2:0:0:0:
264,265,111884,2,0,B|253:221|253:221|262:177,1,90,2|8,0:0|3:0,0:0:0:0:
300,34,112145,1,4,3:0:0:0:
390,307,112276,5,4,2:0:0:0:
376,115,112406,1,8,3:0:0:0:
392,337,112536,1,4,3:0:0:0:
374,83,112667,1,4,3:0:0:0:
231,259,112797,1,6,0:0:0:0:
478,207,112928,2,0,B|434:189|434:189|350:213|350:213|306:197,1,180,6|0,2:0|0:0,0:0:0:0:
101,117,113319,5,12,2:0:0:0:
120,116,113449,1,2,0:0:0:0:
140,116,113580,1,2,0:0:0:0:
156,116,113710,1,2,0:0:0:0:
219,286,113841,1,6,2:0:0:0:
34,201,113971,2,0,L|123:195,1,90,2|2,0:0|0:0,0:0:0:0:
326,183,114232,1,2,0:0:0:0:
326,183,114493,5,2,0:0:0:0:
303,17,114623,1,2,0:0:0:0:
331,217,114753,1,2,0:0:0:0:
158,153,114884,2,0,B|202:142|202:142|245:152,1,90,6|0,2:0|3:0,0:0:0:0:
442,311,115145,5,2,0:0:0:0:
276,334,115275,1,2,0:0:0:0:
472,307,115405,1,12,2:0:0:0:
339,129,115536,2,0,B|324:172|324:172|330:215,1,90,2|0,0:0|0:0,0:0:0:0:
458,56,115797,5,2,0:0:0:0:
408,180,115928,1,6,2:0:0:0:
458,56,116058,1,2,0:0:0:0:
257,103,116189,2,0,B|213:89|213:89|182:58,1,90,8|4,3:0|3:0,0:0:0:0:
421,153,116449,6,0,B|432:195|432:195|423:240,1,90,6|8,2:0|3:0,0:0:0:0:
276,334,116710,1,4,3:0:0:0:
276,334,116841,1,4,3:0:0:0:
348,98,116971,1,6,0:0:0:0:
166,236,117102,2,0,B|213:225|213:225|264:237,1,90,6|0,2:0|0:0,0:0:0:0:
451,336,117363,1,2,0:0:0:0:
451,336,117428,1,2,0:0:0:0:
451,336,117493,5,12,2:0:0:0:
341,133,117623,1,8,3:0:0:0:
341,133,117754,2,0,L|336:230,1,90,4|2,3:0|0:0,0:0:0:0:
155,324,118015,1,2,0:0:0:0:
155,324,118145,2,0,L|244:319,1,90,8|4,3:0|3:0,0:0:0:0:
432,237,118406,1,2,0:0:0:0:
194,169,118536,6,0,B|182:126|182:126|193:81,1,90,6|2,0:0|0:0,0:0:0:0:
373,134,118797,1,2,0:0:0:0:
373,134,118928,1,2,0:0:0:0:
244,318,119058,2,0,P|291:326|335:312,1,90,12|2,2:0|0:0,0:0:0:0:
501,187,119319,1,2,0:0:0:0:
501,187,119449,1,2,0:0:0:0:
284,234,119580,6,0,P|276:161|293:44,1,180,6|2,2:0|0:0,0:0:0:0:
289,55,119971,1,2,0:0:0:0:
402,259,120102,5,12,0:2:0:0:
484,60,120232,1,2,0:0:0:0:
284,234,120362,1,2,0:2:0:0:
272,32,120492,1,2,0:0:0:0:
402,259,120623,5,6,0:2:0:0:
168,128,120754,1,4,3:0:0:0:
252,284,120884,1,8,3:0:0:0:
168,128,121015,1,0,0:0:0:0:
56,332,121145,1,12,0:2:0:0:
124,205,121276,2,0,B|169:219|169:219|251:190|251:190|296:202,1,180,2|0,0:0|0:0,0:0:0:0:
461,343,121667,6,0,B|471:299|471:299|458:255,1,90,6|2,2:0|0:0,0:0:0:0:
415,102,121928,1,2,0:0:0:0:
415,102,122058,1,2,0:0:0:0:
272,244,122189,1,12,2:0:0:0:
470,169,122319,1,2,0:0:0:0:
470,169,122449,1,2,0:0:0:0:
336,40,122580,6,0,P|325:111|349:226,1,180,2|2,0:0|0:0,0:0:0:0:
429,347,122971,1,2,0:0:0:0:
344,216,123102,1,2,0:0:0:0:
223,314,123232,2,0,B|263:318|263:318|313:300,1,90,12|0,2:0|0:0,0:0:0:0:
415,102,123493,1,2,0:0:0:0:
250,235,123623,1,2,0:0:0:0:
362,24,123754,5,6,2:0:0:0:
402,231,123884,2,0,L|420:320,1,90,2|0,0:0|0:0,0:0:0:0:
512,134,124145,1,2,0:0:0:0:
250,235,124276,1,12,2:0:0:0:
381,185,124406,1,2,0:0:0:0:
273,97,124536,1,2,0:0:0:0:
358,323,124667,1,8,0:0:0:0:
128,156,124797,5,6,0:0:0:0:
60,352,124928,1,6,2:0:0:0:
128,156,125058,2,0,B|172:144|172:144|216:156,1,90,6|2,0:0|0:0,0:0:0:0:
436,208,125319,1,8,0:0:0:0:
313,31,125449,2,0,L|307:132,1,90,6|0,0:0|0:0,0:0:0:0:
217,310,125710,1,2,0:0:0:0:
216,287,125776,1,2,0:0:0:0:
215,265,125841,5,12,0:0:0:0:
403,134,125971,1,8,3:0:0:0:
317,344,126102,2,0,L|311:243,1,90,4|4,3:0|3:0,0:0:0:0:
208,68,126363,1,8,3:0:0:0:
122,278,126494,2,0,L|116:177,1,90,4|4,3:0|3:0,0:0:0:0:
226,44,126754,1,12,3:0:0:0:
256,192,128971,6,0,P|326:215|398:188,1,153.000002918243,6|8,0:0|0:0,0:0:0:0:
324,96,129363,1,2,0:0:0:0:
200,255,129493,1,2,0:0:0:0:
233,92,129623,2,0,P|256:129|265:174,1,76.5000014591217,8|4,3:0|3:0,0:0:0:0:
130,310,129884,6,0,P|113:238|155:177,1,153.000002918243,8|0,0:0|0:0,0:0:0:0:
333,210,130276,1,2,0:0:0:0:
244,63,130406,1,8,3:0:0:0:
282,279,130536,2,0,P|360:293|414:241,1,153.000002918243,4|2,3:0|0:0,0:0:0:0:
444,44,130928,1,8,0:0:0:0:
512,144,131058,1,2,0:0:0:0:
333,210,131189,6,0,B|316:128|316:128|332:56,1,153.000002918243,2|8,0:0|0:0,0:0:0:0:
416,132,131580,1,2,0:0:0:0:
220,191,131710,1,6,0:0:0:0:
220,191,131971,2,0,L|203:96,1,76.5000014591217,6|0,0:0|0:0,0:0:0:0:
116,284,132232,1,8,3:0:0:0:
304,320,132363,2,0,P|256:280|200:280,1,114.750002188683,2|0,0:0|0:0,0:0:0:0:
116,284,132623,2,0,L|99:189,1,76.5000014591217,8|0,0:0|0:0,0:0:0:0:
48,47,132884,1,6,0:0:0:0:
48,47,133145,6,0,P|121:67|200:54,1,153.000002918243,6|8,0:0|0:0,0:0:0:0:
332,19,133536,1,2,0:0:0:0:
384,213,133667,1,2,0:0:0:0:
258,125,133797,2,0,P|292:110|332:110,1,76.5000014591217,8|4,3:0|3:0,0:0:0:0:
461,255,134058,6,0,P|400:299|316:268,1,153.000002918243,8|2,0:0|0:0,0:0:0:0:
179,189,134449,1,8,3:0:0:0:
254,319,134580,1,4,3:0:0:0:
384,213,134710,2,0,P|393:159|380:96,1,114.750002188683,2|0,0:0|0:0,0:0:0:0:
344,24,134971,1,8,3:0:0:0:
284,183,135102,1,4,3:0:0:0:
105,73,135232,6,0,B|162:57|162:57|254:74,1,153.000002918243,12|2,0:0|0:0,0:0:0:0:
314,258,135623,2,0,P|276:262|228:240,1,76.5000014591217,8|0,0:0|0:0,0:0:0:0:
81,172,135884,2,0,P|116:159|154:163,1,76.5000014591217,2|0,0:0|0:0,0:0:0:0:
397,252,136145,6,0,P|364:194|267:191,1,153.000002918243,6|8,0:0|3:0,0:0:0:0:
151,253,136536,1,2,0:0:0:0:
222,113,136667,1,4,3:0:0:0:
364,321,136797,1,2,0:0:0:0:
283,182,136928,1,8,0:0:0:0:
133,330,137058,2,0,P|96:308|76:260,1,76.5000014591217,6|0,0:0|0:0,0:0:0:0:
149,83,137319,6,0,B|204:63|204:63|298:82,1,153.000002918243,6|8,0:0|0:0,0:0:0:0:
436,144,137710,1,2,0:0:0:0:
436,144,137841,2,0,L|444:59,1,76.5000014591217,2|8,0:0|3:0,0:0:0:0:
312,182,138102,1,4,3:0:0:0:
459,332,138232,6,0,P|455:275|387:207,1,153.000002918243,8|0,0:0|0:0,0:0:0:0:
233,154,138623,1,2,0:0:0:0:
324,274,138754,1,8,3:0:0:0:
436,144,138884,2,0,P|386:73|320:56,1,153.000002918243,4|2,3:0|0:0,0:0:0:0:
127,104,139276,1,8,0:0:0:0:
208,263,139406,5,2,0:0:0:0:
208,263,139536,2,0,L|128:274,1,76.5000014591217,2|0,0:0|0:0,0:0:0:0:
52,116,139797,2,0,L|127:105,1,76.5000014591217,8|0,0:0|0:0,0:0:0:0:
357,171,140058,1,2,0:0:0:0:
357,171,140319,6,0,L|365:91,1,76.5000014591217,6|0,0:0|0:0,0:0:0:0:
230,128,140580,1,8,3:0:0:0:
329,244,140710,2,0,P|383:247|432:196,1,114.750002188683,2|0,0:0|0:0,0:0:0:0:
357,171,140971,2,0,P|321:167|275:188,1,76.5000014591217,8|0,0:0|0:0,0:0:0:0:
426,130,141232,1,6,0:0:0:0:
426,130,141493,6,0,P|392:74|304:62,1,153.000002918243,6|8,0:0|0:0,0:0:0:0:
178,84,141884,1,2,0:0:0:0:
178,84,142015,2,0,L|99:76,1,76.5000014591217,2|8,0:0|3:0,0:0:0:0:
240,170,142276,1,4,3:0:0:0:
132,320,142406,6,0,B|115:273|115:273|129:166,1,153.000002918243,8|2,0:0|0:0,0:0:0:0:
273,102,142797,1,8,3:0:0:0:
201,239,142928,1,4,3:0:0:0:
376,328,143058,2,0,P|424:282|424:194,1,153.000002918243,2|8,0:0|3:0,0:0:0:0:
389,79,143449,1,2,0:0:0:0:
195,152,143580,6,0,B|183:96|183:96|212:2,1,153.000002918243,12|2,0:0|0:0,0:0:0:0:
286,193,143971,2,0,P|298:238|292:278,1,76.5000014591217,8|0,0:0|0:0,0:0:0:0:
100,288,144232,2,0,P|88:243|94:203,1,76.5000014591217,2|0,0:0|0:0,0:0:0:0:
273,102,144493,6,0,P|338:117|374:170,1,114.750002188683,6|0,0:0|0:0,0:0:0:0:
388,226,144754,1,8,3:0:0:0:
170,245,144884,2,0,L|255:237,1,76.5000014591217,8|2,0:0|0:0,0:0:0:0:
439,69,145145,5,8,0:0:0:0:
367,152,145276,1,8,3:0:0:0:
261,136,145406,1,4,3:0:0:0:
205,44,145536,1,4,3:0:0:0:
336,27,145667,6,0,P|375:62|372:161,1,153.000002918243,6|0,0:0|0:0,0:0:0:0:
304,290,146058,2,0,L|296:213,1,76.5000014591217,2|0,0:0|0:0,0:0:0:0:
474,144,146319,2,0,L|466:229,1,76.5000014591217
416,357,146580,1,2,0:0:0:0:
217,228,146710,6,0,P|259:208|312:210,1,76.5000014591217,8|2,0:0|0:0,0:0:0:0:
180,357,146971,2,0,P|142:352|108:334,1,76.5000014591217,2|0,0:0|0:0,0:0:0:0:
219,143,147232,2,0,L|226:238,1,76.5000014591217,2|0,0:0|0:0,0:0:0:0:
310,330,147493,1,2,0:0:0:0:
372,73,147623,6,0,B|334:65|334:65|276:70,1,76.5000014591217
462,181,147884,2,0,B|487:152|487:152|512:99,1,76.5000014591217,2|0,0:0|0:0,0:0:0:0:
323,204,148145,2,0,B|335:240|335:240|368:288,1,76.5000014591217,2|0,0:0|0:0,0:0:0:0:
288,60,148406,2,0,L|198:52,1,76.5000014591217,2|0,0:0|0:0,0:0:0:0:
107,17,148667,1,2,0:0:0:0:
176,246,148797,6,0,L|188:156,1,76.5000014591217,8|0,0:0|0:0,0:0:0:0:
62,340,149058,1,8,3:0:0:0:
62,340,149189,1,4,3:0:0:0:
62,340,149319,2,0,L|160:350,1,76.5000014591217,2|0,0:0|0:0,0:0:0:0:
254,378,149580,1,2,0:0:0:0:
95,188,149710,1,8,0:0:0:0:
253,215,149841,6,0,L|419:203,1,152.99999927044,2|8,0:0|0:0,0:0:0:0:
373,366,150232,2,0,P|355:332|350:295,1,76.4999996352198,2|0,0:0|0:0,0:0:0:0:
272,53,150493,2,0,P|290:86|295:124,1,76.4999996352198
245,223,150754,1,2,0:0:0:0:
113,57,150884,6,0,B|227:38|227:38|294:49,1,152.99999927044,8|2,0:0|0:0,0:0:0:0:
386,112,151276,1,0,0:0:0:0:
237,231,151406,2,0,L|223:135,1,76.4999996352198,2|0,0:0|0:0,0:0:0:0:
393,231,151667,2,0,L|379:327,1,76.4999996352198,2|0,0:0|0:0,0:0:0:0:
76,230,151928,6,0,B|138:224|138:224|169:228|169:228|251:221,1,152.99999927044,2|0,0:0|0:0,0:0:0:0:
163,384,152319,1,2,0:0:0:0:
163,384,152449,2,0,B|144:354|144:354|138:314,1,76.4999996352198,2|0,0:0|0:0,0:0:0:0:
355,243,152710,2,0,B|328:266|328:266|271:286,1,76.4999996352198,2|2,0:0|0:0,0:0:0:0:
272,66,152971,5,8,0:0:0:0:
276,169,153101,1,8,3:0:0:0:
282,272,153232,2,0,L|286:353,1,76.4999996352198,4|4,3:0|3:0,0:0:0:0:
23,121,153493,6,0,B|64:113|64:113|118:121,1,76.4999996352198,12|0,2:0|0:0,0:0:0:0:
112,323,153754,1,8,3:0:0:0:
9,319,153884,1,4,3:0:0:0:
197,206,154015,6,0,L|204:387,1,153.000002918243,6|8,0:0|0:0,0:0:0:0:
363,250,154406,2,0,P|326:238|288:241,1,76.4999996352198,0|2,0:0|0:0,0:0:0:0:
441,355,154667,2,0,L|445:265,1,76.4999996352198,8|4,3:0|3:0,0:0:0:0:
355,92,154928,6,0,B|339:208|339:208|357:248,1,152.99999927044,8|0,0:0|0:0,0:0:0:0:
465,128,155319,1,8,3:0:0:0:
401,0,155449,1,4,3:0:0:0:
271,49,155580,2,0,P|257:97|258:144,1,76.5000014591217,2|0,0:0|0:0,0:0:0:0:
275,234,155841,1,2,0:0:0:0:
84,224,155971,2,0,L|161:215,1,76.5000014591217,8|0,0:0|0:0,0:0:0:0:
168,20,156232,6,0,L|172:112,1,76.4999996352198,2|0,0:0|0:0,0:0:0:0:
169,299,156493,2,0,B|176:261|176:261|164:195,1,76.4999996352198,8|0,0:0|0:0,0:0:0:0:
25,361,156754,2,0,L|121:357,1,76.4999996352198,2|0,0:0|0:0,0:0:0:0:
237,179,157015,6,0,B|256:258|256:258|242:347,1,152.99999927044,6|8,0:0|3:0,0:0:0:0:
109,365,157406,1,4,3:0:0:0:
209,59,157667,1,8,0:0:0:0:
399,349,157928,1,6,0:0:0:0:
48,66,158189,6,0,L|219:49,1,152.99999927044,6|8,0:0|0:0,0:0:0:0:
222,242,158580,2,0,P|188:239|146:225,1,76.4999996352198,0|2,0:0|0:0,0:0:0:0:
295,106,158841,2,0,P|331:93|369:89,1,76.4999996352198,8|4,3:0|3:0,0:0:0:0:
265,331,159102,6,0,L|255:163,1,152.99999927044,8|0,0:0|0:0,0:0:0:0:
308,21,159493,2,0,L|302:112,1,76.4999996352198,2|8,0:0|3:0,0:0:0:0:
139,217,159754,1,4,3:0:0:0:
139,217,160015,1,8,3:0:0:0:
115,40,160145,1,4,3:0:0:0:
285,213,160276,6,0,P|222:239|141:202,1,152.99999927044,12|2,0:0|0:0,0:0:0:0:
39,119,160667,2,0,L|46:210,1,76.4999996352198,8|0,0:0|0:0,0:0:0:0:
189,40,160928,2,0,P|148:32|107:44,1,76.4999996352198,2|0,0:0|0:0,0:0:0:0:
292,294,161189,6,0,B|310:176|310:176|293:131,1,152.99999927044,6|8,0:0|3:0,0:0:0:0:
131,353,161580,1,8,0:0:0:0:
284,286,161710,1,2,0:0:0:0:
92,235,161841,5,8,0:0:0:0:
276,278,161971,1,8,3:0:0:0:
53,115,162102,2,0,P|46:80|45:18,1,76.5000014591217,4|0,0:3|0:0,0:0:0:0:
61,123,162363,6,0,P|115:96|200:135,1,135.000005149842,6|0,0:0|0:0,0:0:0:0:
125,188,162754,2,0,P|98:134|137:49,1,135.000005149842
214,0,163145,1,0,0:0:0:0:
326,112,163276,2,0,L|172:107,1,135.000005149842
288,28,163667,2,0,L|367:25,1,67.5000025749208
451,0,163928,6,0,P|405:40|427:133,1,135.000005149842
475,165,164319,2,0,L|328:158,1,135.000005149842
402,275,164710,2,0,P|409:236|402:195,1,67.5000025749208
337,325,164971,2,0,B|371:345|371:345|416:356,2,67.5000025749208
309,222,165363,1,0,0:0:0:0:
500,220,165493,6,0,B|504:305|504:305|479:366,1,135.000005149842,4|0,0:0|0:0,0:0:0:0:
337,325,165884,2,0,P|370:288|456:288,2,135.000005149842
395,120,166667,2,0,P|387:162|381:270,1,135.000005149842
493,187,167058,5,0,0:0:0:0:
493,187,168102,6,0,P|434:204|400:400,1,270,6|0,0:0|0:0,0:0:0:0:
496,316,169015,1,6,0:2:0:0:
501,179,169145,2,0,B|372:128|372:246|242:180,1,270,8|0,0:0|0:0,0:0:0:0:
317,48,170058,6,0,L|315:93,1,45,6|0,2:0|0:0,0:0:0:0:
478,6,170319,2,0,B|395:3|395:3|354:14|354:14|254:9,1,225,6|0,2:0|0:0,0:0:0:0:
166,25,171102,5,2,0:0:0:0:
246,229,171232,1,8,0:0:0:0:
305,91,171363,1,2,0:0:0:0:
155,267,171493,5,12,0:0:0:0:
356,189,171623,1,2,0:0:0:0:
211,123,171754,1,2,0:0:0:0:
294,327,171884,6,0,B|298:299|287:275|287:275|297:245|297:245|256:194|291:140,1,198.000006042481,12|0,0:0|0:0,0:0:0:0:
456,310,172276,6,0,B|264:290|264:290|187:319,1,270,6|0,0:0|0:0,0:0:0:0:
50,141,173319,1,8,0:0:0:0:
364,159,173580,2,0,P|329:181|261:183,1,90,6|0,0:2|0:0,0:0:0:0:
372,151,173971,2,0,P|370:109|402:49,1,90,6|0,0:2|0:0,0:0:0:0:
380,159,174363,6,0,B|399:236|399:236|384:316,1,144,6|0,0:0|0:0,0:0:0:0:
275,269,174754,2,0,P|199:243|121:273,1,144,6|0,0:0|0:0,0:0:0:0:
242,105,175145,2,0,L|246:167,1,45,2|2,0:0|0:0,0:0:0:0:
131,267,175406,6,0,B|121:233|121:233|126:189,1,72,12|2,0:0|0:0,0:0:0:0:
197,13,175667,1,2,0:0:0:0:
197,13,175797,1,8,0:0:0:0:
0,53,175928,1,6,0:0:0:0:
117,188,176058,2,0,L|121:80,1,90,6|0,0:2|0:0,0:0:0:0:
43,252,176449,6,0,B|178:188|178:310|301:248,1,270,6|0,0:0|0:0,0:0:0:0:
236,158,177363,1,2,0:0:0:0:
114,326,177493,2,0,P|196:360|372:317,1,270,12|0,0:2|0:0,0:0:0:0:
270,194,178406,6,0,L|267:248,1,45,6|0,0:2|0:0,0:0:0:0:
432,121,178667,2,0,B|323:169|323:71|215:117,1,225,6|0,0:2|0:0,0:0:0:0:
69,59,179449,5,2,0:0:0:0:
149,263,179579,1,8,0:0:0:0:
208,125,179710,1,2,0:0:0:0:
58,301,179840,5,12,0:0:0:0:
259,223,179970,1,2,0:0:0:0:
114,157,180101,1,2,0:0:0:0:
195,351,180232,6,0,B|227:363|227:363|263:356|263:356|326:397|381:358,1,198.000006042481,12|0,0:0|0:0,0:0:0:0:
458,188,180623,6,0,B|363:197|363:197|307:181|307:181|180:199,1,270,6|0,0:2|0:0,0:0:0:0:
46,106,181667,1,12,0:0:0:0:
264,89,181928,2,0,L|274:-13,1,90,6|0,0:2|0:0,0:0:0:0:
256,97,182319,2,0,L|266:199,1,90,6|0,0:2|0:0,0:0:0:0:
250,88,182710,6,0,B|178:72|178:72|94:106,1,144,6|8,0:0|0:0,0:0:0:0:
67,265,183102,2,0,L|228:242,1,144,6|8,0:0|0:0,0:0:0:0:
344,140,183493,6,0,L|293:151,1,45,2|2,0:0|0:0,0:0:0:0:
479,36,183754,1,8,0:0:0:0:
480,76,183819,1,8,0:0:0:0:
481,116,183884,1,2,0:0:0:0:
482,157,183949,1,2,0:0:0:0:
483,197,184014,1,12,0:0:0:0:
321,312,184145,2,0,L|323:257,1,40.4999987640381,2|2,0:0|0:0,0:0:0:0:
302,124,184276,5,8,0:0:0:0:
284,87,184341,1,8,0:0:0:0:
254,60,184406,1,8,3:0:0:0:
216,47,184471,1,8,3:0:0:0:
176,49,184536,1,4,3:0:0:0:
139,65,184602,1,4,3:0:0:0:
99,71,184667,1,4,3:0:0:0:
61,59,184732,1,4,3:0:0:0:
31,32,184797,6,0,P|125:9|219:49,1,198.000006042481,6|8,0:0|0:0,0:0:0:0:
316,208,185189,2,0,L|188:196,1,99.0000030212403,6|0,0:0|0:0,0:0:0:0:
7,121,185449,1,2,0:0:0:0:
7,121,185514,1,2,0:0:0:0:
7,121,185579,6,0,B|52:200|-35:222|28:310,1,198.000006042481,12|0,2:0|0:0,0:0:0:0:
108,384,185971,1,2,0:0:0:0:
273,258,186102,2,0,L|279:159,1,99.0000030212403,8|0,0:0|0:0,0:0:0:0:
460,187,186363,2,0,P|466:234|449:282,1,99.0000030212403,2|2,0:0|0:0,0:0:0:0:
324,71,186623,2,0,B|375:72|375:72|418:93,1,99.0000030212403,8|2,0:0|0:0,0:0:0:0:
361,323,186884,6,0,B|280:326|280:326|246:318|246:318|165:321,1,198.000006042481,6|8,0:0|0:0,0:0:0:0:
290,224,187275,2,0,P|238:208|178:208,1,99.0000030212403,6|0,0:0|0:0,0:0:0:0:
44,102,187536,1,2,0:0:0:0:
44,102,187602,1,2,0:0:0:0:
44,102,187666,6,0,B|65:134|109:138|109:138|133:107|177:92|218:101,1,198.000006042481,12|0,2:0|0:0,0:0:0:0:
414,108,188058,1,2,0:0:0:0:
353,315,188189,2,0,L|250:307,1,99.0000030212403,8|0,0:0|0:0,0:0:0:0:
445,233,188449,1,2,0:0:0:0:
456,384,188580,1,2,0:0:0:0:
312,143,188710,2,0,P|318:97|347:41,1,99.0000030212403,8|2,0:0|0:0,0:0:0:0:
512,153,188971,6,0,P|440:214|322:214,1,198.000006042481,6|8,0:0|0:0,0:0:0:0:
107,95,189363,2,0,P|195:126|254:229,1,198.000006042481,6|2,0:0|0:0,0:0:0:0:
109,343,189754,1,12,2:0:0:0:
259,218,189884,2,0,L|209:212,1,49.5000015106202,2|2,0:0|0:0,0:0:0:0:
21,107,190015,5,8,0:0:0:0:
16,156,190080,1,8,0:0:0:0:
11,205,190145,2,0,L|7:265,1,49.5000015106202,2|2,0:0|0:0,0:0:0:0:
121,76,190276,2,0,P|76:15|28:0,1,99.0000030212403,8|2,0:0|0:0,0:0:0:0:
37,3,190471,1,2,0:0:0:0:
17,0,190536,5,8,0:0:0:0:
102,158,190667,1,8,3:0:0:0:
256,68,190797,1,4,3:0:0:0:
13,99,190928,1,4,3:0:0:0:
140,250,191058,6,0,L|254:241,1,99.0000030212403,2|4,0:0|3:0,0:0:0:0:
465,80,191319,1,8,0:0:0:0:
373,154,191449,2,0,P|363:206|382:277,1,99.0000030212403,6|8,0:0|3:0,0:0:0:0:
432,349,191710,1,2,0:0:0:0:
292,156,191841,5,8,0:0:0:0:
250,129,191905,1,8,3:0:0:0:
201,121,191971,1,8,3:0:0:0:
153,130,192036,1,4,3:0:0:0:
112,157,192101,1,4,3:0:0:0:
227,27,192231,2,8,P|293:11|343:16,1,99.0000030212403,6|8,0:0|0:0,0:0:0:0:
190,267,192493,6,0,P|143:253|94:253,1,99.0000030212403,6|8,2:0|3:0,0:0:0:0:
310,311,192754,1,4,3:0:0:0:
331,169,192884,1,4,3:0:0:0:
214,375,193015,1,8,0:0:0:0:
503,208,193145,6,0,P|534:272|426:351,1,198.000006042481,6|8,0:0|0:0,0:0:0:0:
265,232,193536,2,0,L|381:249,1,99.0000030212403,6|0,0:0|0:0,0:0:0:0:
394,54,193797,1,2,0:0:0:0:
394,54,193862,1,2,0:0:0:0:
394,54,193928,6,0,B|337:25|289:52|289:52|262:43|262:43|229:55|192:33,1,198.000006042481,12|0,2:0|0:0,0:0:0:0:
80,22,194319,1,2,0:0:0:0:
189,267,194449,2,0,P|212:217|216:165,1,99.0000030212403,8|0,0:0|0:0,0:0:0:0:
40,263,194710,2,0,L|48:374,1,99.0000030212403,2|2,0:0|0:0,0:0:0:0:
96,118,194971,2,0,B|49:104|49:104|0:108,1,99.0000030212403,8|0,0:0|0:0,0:0:0:0:
196,274,195232,6,0,B|231:269|231:269|260:276|260:276|336:230|395:295,1,198.000006042481,6|8,0:0|0:0,0:0:0:0:
248,178,195623,2,0,L|259:63,1,99.0000030212403,6|0,0:0|0:0,0:0:0:0:
450,35,195883,1,2,0:0:0:0:
450,35,195949,1,2,0:0:0:0:
450,35,196014,6,0,P|500:64|492:216,1,198.000006042481,12|0,2:0|0:0,0:0:0:0:
464,297,196406,1,2,0:0:0:0:
289,212,196536,2,0,L|182:207,1,99.0000030212403,8|0,0:0|0:0,0:0:0:0:
189,362,196797,1,2,0:0:0:0:
324,351,196928,1,2,0:0:0:0:
196,100,197058,2,0,L|198:210,1,99.0000030212403,8|0,0:0|0:0,0:0:0:0:
109,66,197319,6,0,P|165:12|274:49,1,198.000006042481,6|8,0:0|0:0,0:0:0:0:
196,211,197710,2,0,B|135:195|135:195|97:146|97:146|100:73,1,198.000006042481,6|2,0:0|0:0,0:0:0:0:
278,51,198102,1,12,2:0:0:0:
238,290,198232,2,0,L|169:282,1,49.5000015106202,2|2,0:0|0:0,0:0:0:0:
364,124,198363,5,8,0:0:0:0:
408,145,198428,1,8,0:0:0:0:
440,182,198493,1,2,0:0:0:0:
454,230,198558,1,2,0:0:0:0:
448,278,198623,1,8,0:0:0:0:
262,371,198754,2,0,L|193:363,1,49.5000015106202,2|2,0:0|0:0,0:0:0:0:
277,121,198884,5,8,0:0:0:0:
349,314,199015,1,8,3:0:0:0:
198,179,199145,1,4,3:0:0:0:
408,145,199276,1,4,3:0:0:0:
239,283,199406,6,0,L|119:292,1,99.0000030212403,2|4,0:0|3:0,0:0:0:0:
400,137,199667,1,8,0:0:0:0:
132,282,199797,2,0,P|98:226|101:170,1,99.0000030212403,6|8,2:0|3:0,0:0:0:0:
217,49,200058,2,0,L|279:40,1,49.5000015106202,2|2,0:0|0:0,0:0:0:0:
457,20,200189,1,8,0:0:0:0:
301,162,200319,2,0,L|239:153,1,49.5000015106202,2|2,0:0|0:0,0:0:0:0:
102,323,200449,5,6,2:0:0:0:
138,337,200514,1,8,0:0:0:0:
177,335,200579,1,8,0:0:0:0:
213,317,200644,1,8,0:0:0:0:
237,286,200709,1,8,0:0:0:0:
262,255,200776,1,8,0:0:0:0:
291,244,200841,1,2,0:0:0:0:
336,235,200906,1,2,0:0:0:0:
372,249,200971,6,0,L|379:307,1,49.5000015106202,6|2,2:0|0:0,0:0:0:0:
506,336,201102,2,0,L|513:280,1,49.5000015106202,8|8,3:0|3:0,0:0:0:0:
431,98,201232,1,4,3:0:0:0:
406,95,201297,1,4,3:0:0:0:
382,92,201362,1,2,0:0:0:0:
357,89,201427,1,2,0:0:0:0:
332,86,201493,6,0,B|303:83|303:83|270:89|270:89|211:47|128:59,1,198.000006042481,6|8,0:0|0:0,0:0:0:0:
252,214,201884,2,0,P|196:150|155:146,1,99.0000030212403,6|0,0:0|0:0,0:0:0:0:
154,346,202144,1,2,0:0:0:0:
154,346,202211,1,2,0:0:0:0:
154,346,202276,2,0,B|168:287|165:237|165:237|181:287|229:301,1,198.000006042481,12|0,2:0|0:0,0:0:0:0:
354,256,202667,1,2,0:0:0:0:
303,70,202797,2,0,L|187:81,1,99.0000030212403,8|0,0:0|0:0,0:0:0:0:
390,135,203057,2,0,P|409:82|403:25,1,99.0000030212403,2|2,0:0|0:0,0:0:0:0:
272,244,203318,2,0,L|282:376,1,99.0000030212403,8|0,0:0|0:0,0:0:0:0:
509,193,203580,6,0,B|480:183|443:193|443:193|411:223|354:224|322:183,1,198.000006042481,6|8,0:0|0:0,0:0:0:0:
476,8,203971,2,0,B|490:114,1,99.0000030212403,6|0,0:0|0:0,0:0:0:0:
239,112,204231,1,2,0:0:0:0:
239,112,204296,1,2,0:0:0:0:
239,112,204363,6,0,B|402:105|402:105|380:150|380:150,1,198.000006042481,12|0,2:0|0:0,0:0:0:0:
280,239,204754,1,2,0:0:0:0:
150,114,204884,2,0,L|161:-7,1,99.0000030212403,8|0,0:0|0:0,0:0:0:0:
92,230,205145,1,2,0:0:0:0:
206,308,205276,1,2,0:0:0:0:
142,106,205406,2,0,P|85:84|22:95,1,99.0000030212403,8|2,0:0|0:0,0:0:0:0:
206,308,205667,6,0,P|210:202|221:96,1,198.000006042481,6|8,0:0|0:0,0:0:0:0:
398,180,206058,2,0,P|357:228|226:206,1,198.000006042481,6|2,0:0|0:0,0:0:0:0:
490,73,206449,1,12,2:0:0:0:
421,334,206580,2,0,L|415:260,1,49.5000015106202,2|2,0:0|0:0,0:0:0:0:
307,88,206710,5,8,0:0:0:0:
307,88,206776,1,8,0:0:0:0:
307,88,206841,2,0,L|304:138,1,49.5000015106202,2|2,0:0|0:0,0:0:0:0:
172,286,206971,2,0,B|153:242|153:242|151:159,1,99.0000030212403,8|2,0:0|0:0,0:0:0:0:
153,170,207167,1,2,0:0:0:0:
154,150,207232,5,8,0:0:0:0:
322,222,207363,1,8,3:0:0:0:
164,294,207493,1,4,3:0:0:0:
409,276,207623,1,4,3:0:0:0:
262,97,207754,6,0,P|198:72|148:72,1,99.0000030212403,2|4,0:0|3:0,0:0:0:0:
409,156,208015,1,8,0:0:0:0:
281,286,208145,2,0,B|276:340|276:340|285:394,2,99.0000030212403,6|8|2,0:0|3:0|0:0,0:0:0:0:
449,79,208536,5,8,0:0:0:0:
476,102,208601,1,8,3:0:0:0:
492,136,208666,1,8,3:0:0:0:
492,173,208731,1,4,3:0:0:0:
476,206,208796,1,4,3:0:0:0:
254,89,208928,2,0,L|370:75,1,99.0000030212403,6|8,2:0|0:0,0:0:0:0:
95,12,209189,6,0,L|211:26,1,99.0000030212403,6|8,2:0|3:0,0:0:0:0:
170,240,209449,1,4,3:0:0:0:
143,116,209580,1,4,3:0:0:0:
300,285,209710,1,8,0:0:0:0:
87,193,209841,6,0,P|51:137|118:23,1,198.000006042481,6|8,0:0|0:0,0:0:0:0:
333,90,210231,2,0,L|208:76,1,99.0000030212403,6|0,0:0|0:0,0:0:0:0:
140,258,210492,1,2,0:0:0:0:
140,258,210558,1,2,0:0:0:0:
140,258,210623,6,0,P|211:274|285:160,1,198.000006042481,12|0,2:0|0:0,0:0:0:0:
277,58,211015,1,2,0:0:0:0:
379,233,211145,2,0,L|367:345,1,99.0000030212403,8|0,0:0|0:0,0:0:0:0:
349,144,211406,2,0,P|406:143|448:168,1,99.0000030212403,2|2,0:0|0:0,0:0:0:0:
266,358,211667,2,0,L|254:246,1,99.0000030212403,8|0,0:0|0:0,0:0:0:0:
322,0,211928,6,0,B|313:71|313:71|322:113|322:113|310:199,1,198.000006042481,6|8,0:0|0:0,0:0:0:0:
132,133,212318,2,0,P|190:114|246:123,1,99.0000030212403,6|0,0:0|0:0,0:0:0:0:
44,209,212579,1,0,0:0:0:0:
44,209,212645,1,2,0:0:0:0:
44,209,212710,6,0,B|47:160|3:124|3:124|53:96|58:32,1,198.000006042481,12|0,2:0|0:0,0:0:0:0:
188,12,213102,1,2,0:0:0:0:
308,182,213232,2,0,L|201:161,1,99.0000030212403,8|0,0:0|0:0,0:0:0:0:
395,137,213493,2,0,B|403:187|403:187|388:251,1,99.0000030212403,2|2,0:0|0:0,0:0:0:0:
334,19,213754,2,0,L|441:-2,1,99.0000030212403,8|0,0:0|0:0,0:0:0:0:
501,267,214015,6,0,P|433:249|400:125,1,198.000006042481,6|8,0:0|0:0,0:0:0:0:
431,0,214406,2,0,P|413:68|289:101,1,198.000006042481,6|2,0:0|0:0,0:0:0:0:
128,48,214797,1,12,2:0:0:0:
247,235,214928,2,0,L|240:165,1,49.5000015106202,2|2,0:0|0:0,0:0:0:0:
38,107,215058,5,8,0:0:0:0:
42,156,215123,1,8,0:0:0:0:
46,205,215188,1,2,0:0:0:0:
50,254,215253,1,2,0:0:0:0:
54,304,215319,2,0,L|187:268,1,99.0000030212403,8|2,0:0|0:0,0:0:0:0:
166,288,215515,1,2,0:0:0:0:
182,298,215580,5,8,0:0:0:0:
118,124,215710,1,8,3:0:0:0:
48,375,215841,1,4,3:0:0:0:
261,240,215971,1,4,3:0:0:0:
34,45,216102,6,0,L|22:165,1,99.0000030212403,2|8,0:0|3:0,0:0:0:0:
248,71,216363,1,8,0:0:0:0:
182,298,216493,2,0,P|235:334|303:322,1,99.0000030212403,6|8,0:0|3:0,0:0:0:0:
384,322,216754,1,4,3:0:0:0:
100,221,216884,5,8,0:0:0:0:
100,221,216949,1,8,3:0:0:0:
100,221,217015,2,0,L|95:284,1,49.5000015106202,8|4,3:0|3:0,0:0:0:0:
267,146,217145,1,4,3:0:0:0:
31,26,217276,1,6,2:0:0:0:
191,5,217406,1,8,0:0:0:0:
5,187,217536,6,0,L|18:313,1,99.0000030212403,6|8,0:0|3:0,0:0:0:0:
223,266,217797,1,4,3:0:0:0:
100,221,217928,1,4,3:0:0:0:
198,138,218058,1,8,0:3:0:0:
115,324,218189,6,0,P|90:322|12:284,1,99.0000030212403,6|0,0:0|0:0,0:0:0:0:
95,122,218449,2,0,L|100:232,1,99.0000030212403,2|2,0:0|0:0,0:0:0:0:
21,20,218710,1,6,0:0:0:0:
159,13,218841,1,4,2:0:0:0:
165,151,218971,1,6,0:0:0:0:
29,159,219102,1,2,0:0:0:0:
235,78,219232,6,0,B|284:66|284:66|336:73,1,99.0000030212403,8|2,0:0|0:0,0:0:0:0:
334,271,219493,1,8,3:0:0:0:
291,154,219623,1,4,3:0:0:0:
431,155,219754,6,0,L|444:240,1,86.4,12|0,3:0|0:0,0:0:0:0:
436,264,220276,5,6,0:0:0:0:
240,240,220406,1,2,0:0:0:0:
356,359,220536,1,2,0:0:0:0:
361,160,220667,1,2,0:0:0:0:
353,152,220928,5,2,0:0:0:0:
496,16,221058,1,2,0:0:0:0:
331,29,221188,1,2,0:0:0:0:
488,226,221319,1,12,2:0:0:0:
496,234,221579,5,8,3:0:0:0:
299,218,221709,1,4,3:0:0:0:
433,99,221840,1,4,2:0:0:0:
170,146,221970,1,0,0:0:0:0:
291,226,222101,1,8,3:0:0:0:
326,0,222231,1,4,3:0:0:0:
162,154,222362,6,0,L|147:272,2,90,6|2|2,2:0|0:0|0:0,0:0:0:0:
173,32,222753,1,2,0:0:0:0:
0,184,222883,1,6,2:0:0:0:
231,269,223015,2,0,P|170:262|60:324,1,180,6|0,0:0|0:0,0:0:0:0:
188,355,223405,5,12,2:0:0:0:
225,152,223535,1,2,0:0:0:0:
373,309,223666,1,2,0:0:0:0:
336,106,223796,1,2,0:0:0:0:
97,214,223927,5,6,2:0:0:0:
300,177,224057,1,2,0:0:0:0:
143,29,224188,1,2,0:0:0:0:
346,66,224318,1,2,0:0:0:0:
354,74,224579,5,2,0:0:0:0:
371,264,224709,1,2,0:0:0:0:
220,143,224840,1,2,0:0:0:0:
424,143,224970,1,6,2:0:0:0:
438,154,225231,5,2,0:0:0:0:
475,303,225362,1,2,0:0:0:0:
306,126,225492,1,12,2:0:0:0:
267,276,225623,1,2,0:0:0:0:
257,290,225883,5,2,0:0:0:0:
381,227,226014,1,6,2:0:0:0:
206,180,226145,1,2,0:0:0:0:
423,67,226275,1,2,0:0:0:0:
481,214,226405,1,2,0:0:0:0:
273,49,226536,6,0,L|144:35,1,90,6|2,2:0|0:0,0:0:0:0:
198,188,226796,1,8,3:0:0:0:
322,169,226927,1,4,3:0:0:0:
93,117,227057,1,6,2:0:0:0:
193,283,227189,2,0,B|206:244|206:244|205:195,1,90,6|0,0:0|0:0,0:0:0:0:
183,39,227448,5,2,0:0:0:0:
183,39,227514,1,2,0:0:0:0:
183,39,227579,1,12,2:0:0:0:
107,214,227709,5,8,3:0:0:0:
107,214,227841,2,0,L|215:200,1,90,4|0,3:0|0:0,0:0:0:0:
25,347,228101,1,8,3:0:0:0:
25,347,228232,2,0,L|133:333,1,90,4|0,3:0|0:0,0:0:0:0:
224,363,228492,1,8,3:0:0:0:
276,101,228623,6,0,L|380:96,2,90,6|2|2,0:0|0:0|0:0,0:0:0:0:
112,224,229014,1,2,0:0:0:0:
112,224,229145,2,0,B|94:182|94:182|96:128,1,90,12|2,2:0|0:0,0:0:0:0:
236,189,229405,1,2,0:0:0:0:
206,304,229535,1,2,0:0:0:0:
0,145,229667,6,0,L|104:126,1,90,6|0,2:0|0:0,0:0:0:0:
229,51,229927,1,2,0:0:0:0:
91,21,230057,1,2,0:0:0:0:
236,189,230188,1,12,2:0:0:0:
325,42,230318,2,0,L|221:61,1,90,2|2,0:0|0:0,0:0:0:0:
96,136,230579,1,2,0:0:0:0:
205,274,230710,6,0,P|239:227|241:171,2,90,4|2|2,2:0|0:0|0:0,0:0:0:0:
74,336,231101,1,2,0:0:0:0:
236,188,231231,1,12,2:0:0:0:
327,345,231363,2,0,L|134:319,1,180,2|0,0:0|0:0,0:0:0:0:
62,248,231754,6,0,L|53:136,1,90,6|2,2:0|0:0,0:0:0:0:
235,0,232015,2,0,L|226:112,1,90,2|2,0:0|0:0,0:0:0:0:
50,260,232276,2,0,L|41:148,1,90,12|2,2:0|0:0,0:0:0:0:
223,12,232535,1,2,0:0:0:0:
50,162,232666,1,2,0:0:0:0:
50,162,232928,6,0,L|141:174,2,90,2|2|2,0:0|0:0|0:0,0:0:0:0:
114,89,233319,2,0,P|169:92|206:222,1,180,12|2,2:0|0:0,0:0:0:0:
216,292,233709,1,2,0:0:0:0:
31,311,233840,1,6,2:0:0:0:
208,300,233971,2,0,B|288:292|288:292|325:303|325:303|401:298,1,180,2|2,0:0|0:0,0:0:0:0:
340,197,234362,1,12,2:0:0:0:
195,129,234492,1,2,0:0:0:0:
352,98,234622,1,2,0:0:0:0:
243,216,234753,1,8,0:0:0:0:
303,28,234884,6,0,P|359:14|417:42,2,90,6|6|6,2:0|0:0|2:0,0:0:0:0:
203,121,235275,1,2,0:0:0:0:
345,354,235405,1,8,0:0:0:0:
399,246,235536,2,0,P|333:233|282:254,1,90,6|0,0:0|0:0,0:0:0:0:
175,367,235797,2,0,L|181:313,1,45,2|2,0:0|0:0,0:0:0:0:
267,171,235927,5,8,0:0:0:0:
229,147,235992,1,8,0:0:0:0:
184,145,236057,1,8,3:0:0:0:
144,164,236122,1,8,3:0:0:0:
117,200,236188,5,4,3:0:0:0:
98,225,236253,1,4,3:0:0:0:
70,238,236318,1,2,0:0:0:0:
39,236,236383,1,2,0:0:0:0:
12,220,236448,5,8,0:0:0:0:
88,13,236579,1,8,0:0:0:0:
203,237,236709,1,8,0:0:0:0:
279,30,236840,1,8,0:0:0:0:
61,158,236971,6,0,L|68:349,1,180,6|0,0:0|0:0,0:0:0:0:
235,328,237363,2,0,P|201:276|77:274,2,180,6|2|2,2:0|0:0|0:0,0:0:0:0:
346,150,238015,2,0,P|305:226|219:243,1,180,12|2,2:0|0:0,0:0:0:0:
72,190,238405,1,8,3:0:0:0:
260,95,238535,5,4,2:0:0:0:
212,236,238666,1,2,0:0:0:0:
126,59,238796,1,8,3:0:0:0:
126,264,238927,1,4,3:0:0:0:
357,109,239058,6,0,L|240:101,2,90,6|2|2,2:0|0:0|0:0,0:0:0:0:
449,192,239448,1,2,0:0:0:0:
354,25,239579,1,6,2:0:0:0:
220,244,239710,2,0,B|349:238|349:238|330:223|319:197,1,180,6|2,0:0|0:0,0:0:0:0:
308,189,240035,1,2,0:0:0:0:
304,175,240102,6,0,P|351:161|405:170,1,90,12|0,2:0|0:0,0:0:0:0:
512,328,240363,2,0,P|465:342|411:333,1,90,8|4,3:0|3:0,0:0:0:0:
300,158,240623,2,0,P|347:144|401:153,1,90,6|0,2:0|0:0,0:0:0:0:
412,325,240883,1,0,0:0:0:0:
292,150,241015,6,0,B|274:114|265:62|283:19|283:19|297:42|297:66,1,180,6|6,2:0|0:0,0:0:0:0:
335,231,241406,2,0,P|281:241|234:219,1,90,8|4,3:0|3:0,0:0:0:0:
60,56,241667,2,0,P|89:103|74:245,1,180,6|2,2:0|0:0,0:0:0:0:
27,322,242057,1,2,0:0:0:0:
168,73,242188,5,12,2:0:0:0:
256,232,242319,2,0,B|285:302|233:357|233:357|211:311,1,180,6|2,0:0|0:0,0:0:0:0:
207,306,242644,1,2,0:0:0:0:
195,299,242710,2,0,L|89:297,1,90,12|8,2:0|3:0,0:0:0:0:
332,366,242970,1,2,0:0:0:0:
183,126,243101,1,8,0:0:0:0:
98,297,243232,6,0,B|83:342|83:342|84:397,2,90,6|2|2,2:0|0:0|0:0,0:0:0:0:
191,134,243622,1,2,0:0:0:0:
271,275,243753,1,6,2:0:0:0:
58,152,243884,2,0,B|50:18|50:18|87:68,1,180,6|2,0:0|0:0,0:0:0:0:
109,231,244275,5,12,2:0:0:0:
221,43,244405,1,8,3:0:0:0:
221,43,244536,2,0,L|317:32,1,90,4|4,3:0|3:0,0:0:0:0:
464,285,244797,5,8,0:0:0:0:
420,270,244863,1,8,0:0:0:0:
374,273,244928,1,8,0:0:0:0:
330,257,244992,1,8,0:0:0:0:
286,259,245058,5,8,0:0:0:0:
242,244,245124,1,8,0:0:0:0:
197,247,245189,1,8,0:0:0:0:
153,231,245253,1,8,0:0:0:0:
109,231,245319,6,0,P|124:155|44:92,1,180,6|0,0:0|0:0,0:0:0:0:
31,272,245710,2,0,P|93:317|184:271,2,180,6|2|2,0:0|0:0|0:0,0:0:0:0:
289,217,246363,2,0,L|101:232,1,179.999995708466,12|2,2:0|0:0,0:0:0:0:
195,369,246754,1,8,3:0:0:0:
165,91,246884,5,4,0:0:0:0:
296,224,247015,1,2,0:0:0:0:
157,83,247145,1,8,3:0:0:0:
288,216,247276,1,4,3:0:0:0:
90,29,247406,6,0,L|-13:27,2,89.999997854233,6|2|2,2:0|0:0|0:0,0:0:0:0:
260,98,247797,1,2,0:0:0:0:
109,307,247928,1,6,2:0:0:0:
42,179,248058,2,0,P|73:148|213:146,1,179.999995708466,6|2,0:0|0:0,0:0:0:0:
210,150,248384,1,2,0:0:0:0:
218,160,248449,5,12,2:0:0:0:
202,323,248580,1,0,0:0:0:0:
361,129,248710,1,8,3:0:0:0:
377,292,248841,1,4,3:0:0:0:
145,244,248971,5,6,2:0:0:0:
404,207,249102,1,0,0:0:0:0:
137,236,249232,1,0,0:0:0:0:
369,121,249363,6,0,B|400:51|358:-5|358:-5|348:25|352:51,1,179.999995708466,6|6,2:0|0:0,0:0:0:0:
317,197,249754,2,0,P|358:212|403:206,1,90,8|4,3:0|3:0,0:0:0:0:
231,72,250015,2,0,L|218:266,1,179.999995708466,6|2,2:0|0:0,0:0:0:0:
169,358,250406,1,2,0:0:0:0:
316,140,250536,5,12,2:0:0:0:
141,166,250667,2,0,B|1:158|1:158|40:202,1,179.999995708466,6|2,0:0|0:0,0:0:0:0:
35,198,250993,1,2,0:0:0:0:
43,208,251058,2,0,L|51:302,1,89.999997854233,8|0,0:0|0:0,0:0:0:0:
161,366,251319,1,2,0:0:0:0:
111,86,251449,1,8,0:0:0:0:
274,198,251580,6,0,L|260:324,2,89.999997854233,6|6|6,2:0|0:0|2:0,0:0:0:0:
390,78,251971,1,2,0:0:0:0:
195,138,252102,1,6,2:0:0:0:
398,85,252232,2,0,L|401:192,2,89.999997854233,6|6|2,0:0|2:0|0:0,0:0:0:0:
210,15,252623,5,12,2:0:0:0:
43,203,252753,1,8,3:0:0:0:
43,203,252884,2,0,B|101:187|101:187|147:153,1,107.999994129181,4|2,3:0|0:0,0:0:0:0:
327,253,253145,1,8,3:0:0:0:
327,253,253276,2,0,B|268:237|268:237|222:203,1,107.999994129181,4|2,3:0|0:0,0:0:0:0:
183,8,253536,1,2,0:0:0:0:
473,162,253667,5,6,0:0:0:0:
256,192,253736,12,0,262555,0:0:0:0:
244,120,280006,5,2,0:0:0:0:
264,268,280283,2,0,L|252:180,1,72,2|0,0:0|0:0,0:0:0:0:
144,296,280838,1,2,0:0:0:0:
276,352,281116,2,0,P|328:324|344:244,1,144,2|0,0:0|0:0,0:0:0:0:
244,120,281949,1,2,0:0:0:0:
140,228,282227,6,0,B|88:248|88:248|-4:228,1,144,2|0,0:0|0:0,0:0:0:0:
84,152,283060,1,2,0:0:0:0:
156,316,283338,2,0,P|192:332|232:332,1,72,2|0,0:0|0:0,0:0:0:0:
346,252,283894,2,0,B|298:232|298:232|208:248,1,144,2|0,0:0|0:0,0:0:0:0:
352,344,284727,5,2,0:0:0:0:
360,168,285005,1,2,0:0:0:0:
208,248,285283,1,2,0:0:0:0:
352,344,285560,2,0,L|436:332,1,72,2|0,0:0|0:0,0:0:0:0:
300,256,286116,2,0,L|452:236,1,144,2|0,0:0|0:0,0:0:0:0:
348,112,286949,5,2,0:0:0:0:
300,256,287227,1,2,0:0:0:0:
442,237,287505,1,2,0:0:0:0:
348,112,287783,2,0,L|360:188,1,72,2|0,0:0|0:0,0:0:0:0:
128,288,288338,5,12,0:0:0:0:
256,67,288616,1,12,0:0:0:0:
384,288,288894,1,12,0:0:0:0:
256,192,289171,6,0,L|328:244,1,80.9999975280763,2|0,0:0|0:0,0:0:0:0:
328,88,289727,1,2,0:0:0:0:
188,144,290005,2,0,P|176:208|236:276,1,161.999995056153,2|0,0:0|0:0,0:0:0:0:
388,276,290838,1,2,0:0:0:0:
256,192,291116,6,0,P|300:188|340:164,1,80.9999975280763,2|0,0:0|0:0,0:0:0:0:
272,104,291671,1,0,0:0:0:0:
236,276,291949,1,2,0:0:0:0:
403,222,292227,2,0,P|416:184|412:140,1,80.9999975280763,2|0,0:0|0:0,0:0:0:0:
115,86,292783,5,12,0:0:0:0:
256,329,293061,1,12,0:0:0:0:
396,86,293339,1,12,0:0:0:0:
256,192,293616,6,0,L|332:136,1,90,2|2,0:0|0:0,0:0:0:0:
196,88,294171,1,2,0:0:0:0:
188,232,294449,2,0,P|232:268|280:268,1,90,2|0,0:0|0:0,0:0:0:0:
384,96,295005,5,12,0:0:0:0:
256,317,295283,1,12,0:0:0:0:
128,96,295561,1,12,0:0:0:0:
412,320,295838,5,12,0:0:0:0:
256,52,296116,1,12,0:0:0:0:
104,328,296394,1,12,0:0:0:0:
408,52,296671,5,12,0:0:0:0:
104,52,296949,1,12,0:0:0:0:
408,332,297227,1,12,0:0:0:0:
104,328,297505,1,12,0:0:0:0:
256,52,297783,1,12,0:0:0:0:
256,52,299449,5,2,0:0:0:0:
256,272,299727,2,0,B|288:204|224:204|260:140,1,135,2|0,0:0|0:0,0:0:0:0:
340,288,300283,6,0,P|256:356|172:288,1,225,6|4,0:0|2:0,0:0:0:0:
114,125,301116,1,2,0:0:0:0:
58,321,301394,1,12,2:0:0:0:
256,272,301671,2,0,P|272:216|252:164,1,112.5,2|4,0:0|2:0,0:0:0:0:
48,48,302227,1,2,0:0:0:0:
156,296,302505,6,0,B|160:236|160:236|144:192|144:192|152:124,1,168.75,6|0,0:0|2:0,0:0:0:0:
160,40,303060,1,6,2:0:0:0:
340,176,303338,2,0,P|292:192|232:176,1,112.5,2|12,0:0|2:0,0:0:0:0:
49,296,303894,2,0,P|102:279|155:295,1,112.5,2|4,0:0|2:0,0:0:0:0:
280,356,304449,1,0,0:0:0:0:
140,104,304727,6,0,L|148:216,1,112.5,6|0,0:0|0:0,0:0:0:0:
256,76,305283,1,4,2:0:0:0:
364,264,305560,2,0,P|309:279|256:262,1,112.5,2|4,0:0|2:0,0:0:0:0:
96,144,306116,2,0,P|149:128|202:144,1,112.5,2|4,0:0|2:0,0:0:0:0:
364,264,306671,1,2,0:0:0:0:
92,352,306949,5,6,0:0:0:0:
202,144,307227,1,0,0:0:0:0:
327,343,307505,1,6,2:0:0:0:
40,280,307783,2,0,P|93:264|146:281,1,112.5,2|4,0:0|2:0,0:0:0:0:
308,142,308338,2,0,P|255:158|201:143,1,112.5,2|4,0:0|2:0,0:0:0:0:
40,44,308894,1,0,0:0:0:0:
146,281,309171,5,6,0:0:0:0:
201,143,309449,1,2,0:0:0:0:
40,280,309727,1,4,2:0:0:0:
238,355,310005,2,0,P|291:370|344:353,1,112.5,2|4,0:0|2:0,0:0:0:0:
452,200,310560,2,0,P|399:183|345:198,1,112.5,2|4,0:0|2:0,0:0:0:0:
146,281,311116,1,0,0:0:0:0:
256,28,311394,6,0,B|260:88|260:88|244:132|244:132|252:200,1,168.75,6|0,0:0|2:0,0:0:0:0:
264,292,311949,1,6,2:0:0:0:
68,168,312227,2,0,P|121:152|174:169,1,112.5,2|4,0:0|2:0,0:0:0:0:
252,192,312644,2,0,L|292:184,1,28.125
192,244,312783,2,0,P|176:296|200:352,1,112.5,2|4,0:0|2:0,0:0:0:0:
352,292,313338,1,2,0:0:0:0:
185,57,313616,6,0,L|173:181,1,112.5,6|0,0:0|0:0,0:0:0:0:
308,56,314171,1,4,2:0:0:0:
436,280,314449,2,0,L|368:272,1,56.25,2|0,0:0|0:0,0:0:0:0:
164,248,314727,1,12,2:0:0:0:
416,196,315005,1,2,0:0:0:0:
184,332,315283,1,12,2:0:0:0:
436,280,315561,1,2,0:0:0:0:
256,44,315838,5,6,0:0:0:0:
428,332,316116,1,12,2:0:0:0:
84,332,316394,1,2,0:0:0:0:
428,332,316671,1,6,2:0:0:0:
256,28,316949,6,0,L|216:88,1,56.25,12|0,2:0|0:0,0:0:0:0:
256,360,317227,2,0,L|296:300,1,56.25,8|0,3:0|0:0,0:0:0:0:
452,192,317505,2,0,L|392:160,1,56.25,4|0,3:0|0:0,0:0:0:0:
60,192,317783,2,0,L|120:224,1,56.25,4|0,3:0|0:0,0:0:0:0:
340,360,318060,5,6,0:0:0:0:
256,176,318338,1,8,0:0:0:0:
84,356,318616,1,4,2:0:0:0:
324,228,318894,2,0,P|340:176|320:124,1,112.5,2|12,0:0|2:0,0:0:0:0:
156,28,319449,1,2,0:0:0:0:
56,244,319727,1,4,2:0:0:0:
319,123,320005,6,0,B|228:74|200:178|76:110,1,225,2|0,0:0|0:0,0:0:0:0:
268,212,320838,1,4,2:0:0:0:
104,344,321116,2,0,P|84:296|104:236,1,112.5,2|12,0:0|2:0,0:0:0:0:
320,288,321671,2,0,P|267:306|215:288,1,112.5,2|4,0:0|2:0,0:0:0:0:
84,212,322227,1,0,0:0:0:0:
256,24,322505,5,6,0:0:0:0:
380,192,322783,2,0,P|432:210|484:192,1,112.5,2|4,0:0|2:0,0:0:0:0:
284,140,323338,2,0,P|269:193|288:247,1,112.5,2|12,0:0|2:0,0:0:0:0:
476,357,323894,2,0,B|496:249|496:249|482:181,1,168.75,2|0,0:0|0:0,0:0:0:0:
460,92,324449,1,2,0:0:0:0:
268,272,324727,5,6,0:0:0:0:
484,191,325005,1,0,0:0:0:0:
306,45,325283,1,6,2:0:0:0:
268,272,325560,1,2,0:0:0:0:
440,56,325838,5,12,2:0:0:0:
372,320,326116,1,2,0:0:0:0:
72,56,326394,1,12,2:0:0:0:
140,320,326671,1,2,0:0:0:0:
440,56,326949,5,6,0:0:0:0:
396,236,327227,1,2,0:0:0:0:
264,56,327505,1,4,2:0:0:0:
464,184,327783,2,0,P|481:236|465:289,1,112.5,2|12,0:0|2:0,0:0:0:0:
312,236,328338,1,2,0:0:0:0:
440,56,328616,1,4,2:0:0:0:
464,289,328894,6,0,B|374:340|353:240|239:293,1,225,2|0,0:0|0:0,0:0:0:0:
412,216,329727,1,6,2:0:0:0:
248,76,330005,2,0,P|231:128|248:181,1,112.5,2|12,0:0|2:0,0:0:0:0:
460,128,330560,2,0,P|407:111|354:129,1,112.5,2|4,0:0|2:0,0:0:0:0:
228,208,331116,1,0,0:0:0:0:
464,344,331394,5,6,0:0:0:0:
354,128,331671,2,0,P|336:180|353:233,1,112.5,2|4,0:0|2:0,0:0:0:0:
468,48,332227,1,2,0:0:0:0:
352,320,332505,1,12,2:0:0:0:
160,64,332783,1,2,0:0:0:0:
160,320,333060,1,12,2:0:0:0:
352,64,333338,1,2,0:0:0:0:
256,344,333616,5,6,0:0:0:0:
84,44,333894,1,8,0:0:0:0:
428,44,334171,1,6,2:0:0:0:
256,344,334449,1,6,2:0:0:0:
59,44,334727,5,12,0:0:0:0:
453,44,335004,1,12,3:0:0:0:
59,340,335282,1,12,3:0:0:0:
453,340,335559,1,12,3:0:0:0:
59,44,335838,6,0,P|44:96|64:152,1,112.5,6|2,0:0|0:0,0:0:0:0:
232,88,336394,1,6,2:0:0:0:
336,280,336671,2,0,P|283:296|230:280,1,112.5,2|14,0:0|2:0,0:0:0:0:
62,149,337227,1,2,0:0:0:0:
172,348,337505,1,6,2:0:0:0:
279,154,337783,6,0,B|186:192|154:100|54:152,1,225,2|2,0:0|0:0,0:0:0:0:
232,68,338616,1,6,2:0:0:0:
116,232,338894,2,0,P|99:285|115:338,1,112.5,2|14,0:0|2:0,0:0:0:0:
276,288,339449,1,2,0:0:0:0:
116,232,339727,1,6,2:0:0:0:
244,121,340005,1,2,0:0:0:0:
328,352,340283,5,6,0:0:0:0:
116,232,340560,2,0,P|100:178|117:126,1,112.5,2|6,0:0|2:0,0:0:0:0:
329,181,341116,2,0,P|276:196|224:180,1,112.5,2|14,0:0|2:0,0:0:0:0:
64,56,341671,2,0,P|116:39|169:54,1,112.5,2|6,0:0|2:0,0:0:0:0:
329,181,342227,1,2,0:0:0:0:
88,304,342505,5,6,2:0:0:0:
214,128,342783,2,0,P|231:179|218:232,1,112.5,2|6,0:0|2:0,0:0:0:0:
12,184,343338,2,0,P|64:167|117:183,1,112.5,2|14,0:0|2:0,0:0:0:0:
328,304,343894,2,0,L|356:128,1,168.75,2|0,0:0|0:0,0:0:0:0:
372,36,344449,1,2,0:0:0:0:
434,304,344727,6,0,P|380:319|327:303,1,112.5,6|2,0:0|0:0,0:0:0:0:
184,188,345283,1,4,2:0:0:0:
372,36,345560,2,0,P|389:88|373:141,1,112.5,2|14,0:0|2:0,0:0:0:0:
256,244,346116,1,2,0:0:0:0:
144,80,346394,1,6,2:0:0:0:
320,192,346671,6,0,P|337:244|321:297,1,112.5,2|6,0:0|2:0,0:0:0:0:
176,244,347227,1,2,0:0:0:0:
300,88,347505,1,6,2:0:0:0:
426,298,347783,2,0,B|332:344|304:240|192:308,1,225,2|2,0:0|0:0,0:0:0:0:
376,232,348616,1,6,2:0:0:0:
268,368,348894,1,2,0:0:0:0:
124,168,349171,5,6,0:0:0:0:
300,28,349449,2,0,P|317:79|303:132,1,112.5,2|6,0:0|2:0,0:0:0:0:
100,84,350005,2,0,P|152:67|205:83,1,112.5,2|14,0:0|2:0,0:0:0:0:
348,216,350560,2,0,P|295:232|242:216,1,112.5,2|6,0:0|2:0,0:0:0:0:
100,84,351116,1,2,0:0:0:0:
168,304,351394,5,6,0:0:0:0:
344,80,351671,1,10,0:0:0:0:
344,304,351949,1,6,2:0:0:0:
164,80,352227,2,0,P|111:64|58:80,1,112.5,2|14,0:0|2:0,0:0:0:0:
344,304,352783,2,0,P|396:320|449:304,1,112.5,2|6,0:0|2:0,0:0:0:0:
392,80,353338,1,2,0:0:0:0:
116,300,353616,6,0,P|98:247|112:193,1,112.5,6|2,0:0|0:0,0:0:0:0:
240,56,354171,1,6,2:0:0:0:
352,244,354449,2,0,P|298:260|245:244,1,112.5,2|14,0:0|2:0,3:0:0:0:
104,168,355005,1,2,0:0:0:0:
248,336,355283,1,6,2:0:0:0:
408,164,355560,6,0,P|354:147|301:163,1,112.5,2|6,0:0|2:0,3:0:0:0:
356,336,356116,1,2,0:0:0:0:
408,164,356394,1,6,2:0:0:0:
232,276,356671,2,0,B|138:322|110:218|-2:286,1,225,2|2,0:0|0:0,0:0:0:0:
184,204,357505,1,6,2:0:0:0:
68,348,357783,1,2,0:0:0:0:
12,84,358060,5,6,0:0:0:0:
184,204,358338,2,0,P|131:220|77:204,1,112.5,2|6,0:0|2:0,3:0:0:0:
256,148,358894,2,0,P|272:199|257:253,1,112.5,2|14,0:0|2:0,3:0:0:0:
77,204,359449,2,0,P|60:150|77:97,1,112.5,2|6,0:0|2:0,3:0:0:0:
256,148,360005,1,2,0:0:0:0:
100,336,360283,5,6,2:0:0:0:
292,336,360560,2,0,P|308:282|292:229,1,112.5,2|6,0:0|2:0,3:0:0:0:
84,232,361116,2,0,P|137:248|190:232,1,112.5,2|14,0:0|2:0,3:0:0:0:
344,136,361671,2,0,L|168:120,1,168.75,2|0,0:0|2:0,3:0:0:0:
72,112,362227,1,2,0:0:0:0:
185,336,362505,6,0,P|238:351|291:335,1,112.5,6|2,0:0|2:0,3:0:0:0:
432,224,363060,1,6,2:0:0:0:
236,116,363338,2,0,P|220:169|236:222,1,112.5,2|14,0:0|2:0,3:0:0:0:
432,224,363894,1,2,0:0:0:0:
335,53,364171,1,6,2:0:0:0:
130,221,364449,6,8,P|183:237|236:221,1,112.5,2|6,0:0|2:0,3:0:0:0:
376,128,365005,1,2,0:0:0:0:
264,312,365283,1,6,2:0:0:0:
76,148,365560,2,8,P|129:132|182:148,1,112.5,2|14,0:0|2:0,3:0:0:0:
317,247,366116,1,2,0:0:0:0:
163,315,366394,1,6,2:0:0:0:
182,148,366671,1,2,0:0:0:0:
400,304,366949,5,6,0:0:0:0:
228,244,367227,2,8,P|210:191|224:137,1,112.5,2|6,0:0|2:0,3:0:0:0:
284,316,367783,2,8,P|230:332|177:316,1,112.5,2|14,0:0|2:0,3:0:0:0:
223,137,368338,2,8,P|276:121|329:137,1,112.5,2|6,0:0|2:0,3:0:0:0:
440,256,368894,1,2,0:0:0:0:
177,316,369171,5,6,0:0:0:0:
98,64,369449,1,10,0:0:0:0:
335,316,369727,1,6,2:0:0:0:
414,64,370005,1,6,2:0:0:0:
59,340,370283,5,12,0:0:0:0:
453,340,370560,1,12,3:0:0:0:
59,44,370838,1,12,3:0:0:0:
453,44,371115,1,12,3:0:0:0:
59,340,371394,6,0,B|40:296|40:296|56:232,1,112.5,6|2,0:0|0:0,0:0:0:0:
160,120,371949,1,6,2:0:0:0:
305,320,372227,2,0,B|257:336|257:336|193:318,1,112.5,2|14,0:0|2:0,0:0:0:0:
345,176,372783,2,0,B|393:192|393:192|457:176,1,112.5,2|6,0:0|2:0,0:0:0:0:
189,86,373338,6,0,B|140:70|140:70|77:88,1,112.5,2|6,0:0|2:0,0:0:0:0:
62,300,373894,1,2,0:0:0:0:
138,162,374171,1,6,2:0:0:0:
321,334,374449,2,0,B|273:349|273:349|209:332,1,112.5,2|14,0:0|2:0,0:0:0:0:
29,161,375005,2,0,B|77:145|77:145|140:162,1,112.5,2|6,0:0|2:0,0:0:0:0:
294,185,375560,1,2,0:0:0:0:
84,340,375838,6,0,B|66:292|66:292|80:228,1,112.5,6|2,0:0|0:0,0:0:0:0:
119,83,376394,1,6,2:0:0:0:
244,257,376671,2,0,B|292:272|292:272|356:255,1,112.5,2|14,0:0|2:0,0:0:0:0:
463,85,377227,2,0,B|415:69|415:69|351:85,1,112.5,2|6,0:0|2:0,0:0:0:0:
196,106,377783,1,2,0:0:0:0:
323,335,378060,5,6,2:0:0:0:
397,154,378338,2,0,B|349:170|349:170|285:154,1,112.5,2|6,0:0|2:0,0:0:0:0:
24,101,378894,2,0,B|72:85|72:85|136:101,1,112.5,2|14,0:0|2:0,0:0:0:0:
288,154,379449,1,2,0:0:0:0:
188,312,379727,2,0,B|171:264|171:264|186:200,1,112.5,6|2,2:0|0:0,0:0:0:0:
415,73,380283,6,0,B|431:120|431:120|416:184,1,112.5,6|2,0:0|0:0,0:0:0:0:
313,301,380838,1,6,2:0:0:0:
466,338,381116,1,2,0:0:0:0:
415,73,381394,1,14,2:0:0:0:
214,205,381671,2,0,B|262:220|262:220|326:203,1,112.5,2|6,0:0|2:0,0:0:0:0:
126,72,382227,6,0,B|77:57|77:57|14:75,1,112.5,2|6,0:0|2:0,0:0:0:0:
6,284,382783,1,2,0:0:0:0:
83,148,383060,1,6,2:0:0:0:
256,325,383338,2,0,B|304:340|304:340|367:323,1,112.5,2|14,0:0|2:0,0:0:0:0:
476,136,383894,2,0,B|427:119|427:119|363:135,1,112.5,2|6,0:0|2:0,0:0:0:0:
213,163,384449,1,2,0:0:0:0:
428,312,384727,6,0,B|443:268|443:268|424:199,1,112.5,6|2,0:0|0:0,0:0:0:0:
284,42,385283,1,6,2:0:0:0:
185,255,385560,2,0,P|240:240|296:260,1,112.5,2|12,0:0|2:0,0:0:0:0:
376,128,386116,2,0,B|328:144|328:144|264:129,1,112.5,2|6,0:0|2:0,0:0:0:0:
120,100,386671,1,2,0:0:0:0:
256,334,386949,5,6,0:0:0:0:
436,68,387227,1,8,0:0:0:0:
76,68,387505,1,6,2:0:0:0:
256,334,387783,1,6,2:0:0:0:
436,68,388060,5,12,0:0:0:0:
164,192,388338,1,2,0:0:0:0:
348,192,388616,1,6,2:0:0:0:
256,334,388894,1,2,0:0:0:0:
143,69,389171,6,0,B|191:53|191:53|254:70,1,112.5,6|2,0:0|0:0,0:0:0:0:
408,96,389727,1,6,2:0:0:0:
297,208,390005,1,2,0:0:0:0:
502,303,390283,1,14,2:0:0:0:
408,96,390560,2,0,B|393:144|393:144|410:203,1,112.5,2|6,0:0|2:0,0:0:0:0:
264,336,391116,6,0,B|278:287|278:287|261:228,1,112.5,2|6,0:0|2:0,0:0:0:0:
71,74,391671,1,2,0:0:0:0:
96,229,391949,1,6,2:0:0:0:
321,127,392227,2,0,B|272:111|272:111|212:126,1,112.5,2|14,0:0|2:0,0:0:0:0:
48,299,392783,2,0,B|97:314|97:314|156:298,1,112.5,2|6,0:0|2:0,0:0:0:0:
310,262,393338,1,2,0:0:0:0:
92,80,393616,6,0,B|77:128|77:128|95:187,1,112.5,6|2,0:0|0:0,0:0:0:0:
140,336,394171,1,6,2:0:0:0:
359,187,394449,2,0,B|310:171|310:171|250:187,1,112.5,2|14,0:0|2:0,0:0:0:0:
31,337,395005,2,0,B|79:352|79:352|139:336,1,112.5,2|6,0:0|2:0,0:0:0:0:
276,296,395560,1,2,0:0:0:0:
149,69,395838,5,6,2:0:0:0:
88,268,396116,2,0,B|136:252|136:252|196:267,1,112.5,2|6,0:0|2:0,0:0:0:0:
448,304,396671,2,0,B|399:319|399:319|339:303,1,112.5,2|14,0:0|2:0,0:0:0:0:
196,267,397227,1,2,0:0:0:0:
392,92,397505,2,0,B|409:139|409:139|396:199,1,112.5,6|2,2:0|0:0,0:0:0:0:
113,322,398060,6,0,B|96:274|96:274|110:213,1,112.5,6|2,0:0|0:0,0:0:0:0:
228,99,398616,1,6,2:0:0:0:
77,57,398894,1,2,0:0:0:0:
113,322,399171,1,14,2:0:0:0:
335,187,399449,2,0,B|286:175|286:175|214:190,1,112.5,2|6,0:0|2:0,0:0:0:0:
4,322,400005,6,0,B|52:337|52:337|112:321,1,112.5,2|6,0:0|2:0,0:0:0:0:
361,269,400560,1,2,0:0:0:0:
225,188,400838,1,6,2:0:0:0:
396,32,401116,2,0,B|413:79|413:79|399:139,1,112.5,2|14,0:0|2:0,0:0:0:0:
154,240,401671,2,0,B|138:191|138:191|153:131,1,112.5,2|6,0:0|2:0,0:0:0:0:
268,23,402227,1,2,0:0:0:0:
414,267,402505,5,6,0:0:0:0:
337,129,402783,1,2,0:0:0:0:
186,298,403060,1,6,2:0:0:0:
324,221,403338,1,2,0:0:0:0:
142,61,403616,1,14,2:0:0:0:
219,199,403894,1,2,0:0:0:0:
0,231,404171,1,6,2:0:0:0:
138,154,404449,1,2,0:0:0:0:
448,320,404727,5,6,0:0:0:0:
256,32,405005,1,8,0:0:0:0:
64,320,405283,1,6,2:0:0:0:
448,320,405560,1,6,2:0:0:0:
256,32,405838,6,0,L|256:88,1,56.25,12|0,0:0|0:0,0:0:0:0:
140,220,406116,2,0,L|159:167,1,56.25,12|0,3:0|0:0,0:0:0:0:
360,167,406394,2,0,L|379:219,1,56.25,12|0,3:0|0:0,0:0:0:0:
256,352,406671,2,0,L|256:296,1,56.25,12|0,3:0|0:0,0:0:0:0:
256,32,406949,5,6,0:0:0:0:
256,192,407088,12,0,415838,0:0:0:0:
