osu file format v14

[General]
AudioFilename: audio.mp3
AudioLeadIn: 0
PreviewTime: 23418
Countdown: 1
SampleSet: Soft
StackLeniency: 0.7
Mode: 0
LetterboxInBreaks: 0
WidescreenStoryboard: 0

[Editor]
DistanceSpacing: 0.4
BeatDivisor: 4
GridSize: 16
TimelineZoom: 1

[Metadata]
Title:Disbelief
TitleUnicode:Disbelief
Artist:Interstellar Retribution
ArtistUnicode:Interstellar Retribution
Creator:pacsu
Version:monster
Source:
Tags:Papyrus' Genocide Route Theme undertale
BeatmapID:1175558
BeatmapSetID:555434

[Difficulty]
HPDrainRate:7
CircleSize:3.6
OverallDifficulty:8
ApproachRate:9.2
SliderMultiplier:2.4
SliderTickRate:1

[Events]
//Background and Video events
0,0,"iSCfSkL.png",0,0
//Break Periods
//Storyboard Layer 0 (Background)
//Storyboard Layer 1 (Fail)
//Storyboard Layer 2 (Pass)
//Storyboard Layer 3 (Foreground)
//Storyboard Sound Samples

[TimingPoints]
138,555.555555555556,4,2,0,29,1,0
138,-100,4,2,0,29,0,0
6110,-133.333333333333,4,2,0,29,0,0
6804,-200,4,2,0,29,0,0
7360,-100,4,2,0,29,0,0
7915,-133.333333333333,4,2,0,29,0,0
8471,-100,4,2,0,29,0,0
9026,-133.333333333333,4,2,0,29,0,0
10276,-66.6666666666667,4,2,0,29,0,0
11249,-100,4,2,0,29,0,0
20097,428.571428571429,4,2,0,29,1,0
20097,-100,4,2,0,29,0,0
23954,-80,4,2,0,29,0,0
24382,-100,4,2,0,29,0,0
26097,-133.333333333333,4,2,0,29,0,0
26954,-100,4,2,0,29,0,0
27489,-100,4,2,0,29,0,0
28668,-66.6666666666667,4,2,0,29,0,0
30597,-100,4,2,0,29,0,0
32311,-100,4,2,0,29,0,0
34454,-66.6666666666667,4,2,0,29,0,0
35097,-100,4,2,0,29,0,0
36489,-66.6666666666667,4,2,0,70,0,0
36918,-66.6666666666667,4,2,0,29,0,0
42704,-66.6666666666667,4,2,0,70,0,0
43989,-66.6666666666667,4,2,0,29,0,0
44418,-133.333333333333,4,2,0,29,0,0
45168,-66.6666666666667,4,2,0,29,0,0
45811,-100,4,2,0,29,0,0
46025,-66.6666666666667,4,2,0,29,0,0
47632,-66.6666666666667,4,2,0,5,0,0
47739,-66.6666666666667,4,2,0,29,0,0
48275,-57.1428571428571,4,2,0,29,0,0
48704,-50,4,2,0,29,0,0
50847,-100,4,2,0,29,0,0
64132,-66.6666666666667,4,2,0,29,0,0
65311,-100,4,2,0,29,0,0
68418,-66.6666666666667,4,2,0,29,0,0
70882,-133.333333333333,4,2,0,29,0,0
73025,-66.6666666666667,4,2,0,29,0,0
76722,-100,4,2,0,29,0,0
77900,-66.6666666666667,4,2,0,29,0,0
78382,-66.6666666666667,4,2,0,29,0,1
95097,-100,4,2,0,29,0,0
98954,-80,4,2,0,29,0,0
100239,-100,4,2,0,29,0,0
100668,-66.6666666666667,4,2,0,29,0,0

[Colours]
Combo1 : 128,0,255
Combo2 : 242,41,13
Combo3 : 238,172,17
Combo4 : 17,125,157

[HitObjects]
256,192,138,5,0,0:0:0:0:
256,272,971,1,0,0:0:0:0:
256,48,1526,1,0,0:0:0:0:
256,144,1804,5,0,0:0:0:0:
256,192,1943,1,0,0:0:0:0:
256,240,2082,1,0,0:0:0:0:
256,288,2221,1,0,0:0:0:0:
256,336,2360,1,0,0:0:0:0:
106,125,2915,5,0,0:0:0:0:
385,235,3471,5,0,0:0:0:0:
185,120,3749,1,0,0:0:0:0:
303,317,4026,1,0,0:0:0:0:
260,89,4304,1,0,0:0:0:0:
216,316,4582,1,0,0:0:0:0:
260,89,4999,2,0,P|246:129|263:91,1,120
325,186,5415,5,0,0:0:0:0:
136,93,5693,2,0,P|169:184|256:225,1,180
334,203,6249,2,0,P|314:283|241:316,1,135.000005149841
187,299,6804,2,0,P|195:357|233:393,1,90
292,384,7360,2,0,L|328:381,7,30
213,380,7915,6,0,L|51:335,1,135.000005149841
17,284,8471,2,0,B|185:206,1,180
248,144,9026,2,0,L|86:99,1,135.000005149841
34,79,9582,2,0,L|4:70,7,22.5000008583069
170,192,10138,5,0,0:0:0:0:
416,96,10415,2,0,L|416:192,1,90.0000034332277
170,192,10693,1,0,0:0:0:0:
416,276,10971,2,0,L|416:180,1,90.0000034332277
186,97,11249,2,0,P|259:156|189:284,1,240
170,192,12082,5,0,0:0:0:0:
214,141,12360,1,0,0:0:0:0:
105,209,12638,1,0,0:0:0:0:
280,122,12915,1,0,0:0:0:0:
35,203,13193,1,0,0:0:0:0:
352,124,13471,1,0,0:0:0:0:
128,176,14304,5,0,0:0:0:0:
144,192,14397,1,0,0:0:0:0:
128,208,14489,1,0,0:0:0:0:
112,192,14582,1,4,0:0:0:0:
384,176,15415,5,0,0:0:0:0:
368,192,15508,1,0,0:0:0:0:
384,208,15600,1,0,0:0:0:0:
400,192,15693,1,4,0:0:0:0:
256,192,15971,12,0,19860,0:0:0:0:
272,128,20097,6,2,L|400:128,1,120
192,208,20525,6,2,L|48:208,1,120
192,128,20954,6,2,L|192:0,1,120
272,208,21382,6,2,L|272:336,1,120
192,128,21811,2,2,L|192:95,8,30
256,288,22668,5,0,0:0:0:0:
256,48,23097,1,0,0:0:0:0:
82,166,23525,2,0,P|63:103|79:44,1,120
0,232,23954,1,0,0:0:0:0:
175,102,24168,1,0,0:0:0:0:
163,286,24382,2,0,P|175:253|196:225,1,60
344,196,24704,6,0,L|376:209,4,30
252,166,25025,1,0,0:0:0:0:
321,77,25239,2,0,P|249:54|197:70,1,120
188,305,25561,2,0,P|249:330|327:298,1,120
251,229,25882,2,0,P|254:195|251:153,1,60
55,189,26097,6,0,P|57:215|52:261,1,60.0000022888184
254,170,26382,2,0,P|251:136|254:102,1,60.0000022888184
55,249,26668,2,0,P|51:289|55:320,1,60.0000022888184
416,80,26954,6,0,L|316:80,1,60
176,80,27168,2,0,L|72:80,1,60
54,248,27597,6,0,L|113:248,1,60
282,249,27811,2,0,L|373:249,1,60
176,176,28025,2,0,L|145:176,10,30
336,176,28668,6,0,L|464:176,1,90.0000034332277
176,176,28989,2,0,L|67:177,1,90.0000034332277
176,96,29311,1,0,0:0:0:0:
336,96,29418,1,0,0:0:0:0:
256,96,29632,5,0,0:0:0:0:
256,160,29739,1,0,0:0:0:0:
256,224,29847,1,0,0:0:0:0:
256,288,29954,1,0,0:0:0:0:
416,224,30168,2,0,L|416:134,1,90.0000034332277
416,304,30382,1,0,0:0:0:0:
256,288,30597,5,0,0:0:0:0:
215,278,30704,1,0,0:0:0:0:
174,268,30811,1,0,0:0:0:0:
133,255,30918,1,0,0:0:0:0:
84,232,31025,1,0,0:0:0:0:
131,207,31132,1,0,0:0:0:0:
180,185,31239,1,0,0:0:0:0:
239,155,31347,1,0,0:0:0:0:
179,126,31454,1,0,0:0:0:0:
120,94,31561,1,0,0:0:0:0:
52,54,31668,2,0,P|87:20|166:27,1,120
227,164,31989,5,0,0:0:0:0:
227,164,32097,2,0,P|266:141|296:137,1,60
300,247,32311,1,0,0:0:0:0:
148,336,32525,2,0,L|242:336,1,60
67,251,32739,2,0,L|4:251,2,40
124,251,32954,6,0,P|167:250|202:265,1,60
177,136,33168,2,0,P|134:137|99:122,1,60
182,254,33382,6,0,P|220:272|245:301,1,60
119,133,33596,2,0,P|80:114|55:85,1,60
232,284,33811,6,0,P|257:318|265:355,1,60
69,103,34025,2,0,P|43:68|35:31,1,60
262,334,34239,6,0,P|264:372|256:405,1,60
148,346,34454,1,0,0:0:0:0:
332,264,34668,2,0,P|379:233|422:144,1,90.0000034332277
431,138,34882,1,0,0:0:0:0:
290,134,35097,2,0,L|255:111,2,30
332,263,35311,6,0,P|316:279|294:293,2,40
301,288,35525,2,0,P|255:296|223:288,1,60
54,66,35847,6,0,P|128:35|230:60,1,180.000006866455
310,104,36168,1,0,0:0:0:0:
143,164,36382,1,0,0:0:0:0:
240,240,36597,6,2,B|288:192|288:192|288:240|288:240|240:192,1,180.000006866455,0|0,0:0|0:0,0:0:0:0:
138,45,37025,1,0,0:0:0:0:
75,172,37239,5,0,0:0:0:0:
135,189,37347,1,0,0:0:0:0:
196,176,37454,1,0,0:0:0:0:
249,143,37561,2,0,P|291:126|364:152,1,90.0000034332277
310,371,37775,5,0,0:0:0:0:
248,359,37882,1,0,0:0:0:0:
196,323,37989,1,0,0:0:0:0:
155,274,38097,2,0,P|134:224|137:176,1,90.0000034332277
334,131,38311,5,0,0:0:0:0:
359,188,38418,1,0,0:0:0:0:
341,248,38525,1,0,0:0:0:0:
295,291,38632,2,0,P|245:271|208:226,1,90.0000034332277
334,131,38847,5,0,0:0:0:0:
396,132,38954,1,0,0:0:0:0:
452,158,39061,1,0,0:0:0:0:
482,212,39168,2,0,P|492:263|470:314,1,90.0000034332277
345,245,39489,5,0,0:0:0:0:
307,193,39597,1,0,0:0:0:0:
273,140,39704,2,0,L|224:64,1,90.0000034332277
345,245,40025,5,0,0:0:0:0:
286,267,40132,1,0,0:0:0:0:
224,253,40239,1,0,0:0:0:0:
185,202,40347,1,0,0:0:0:0:
176,139,40454,2,0,P|187:88|219:54,1,90.0000034332277
363,74,40668,6,0,B|392:98|392:98|362:126|362:126|406:167|406:167|356:205,1,180.000006866455
78,216,40989,2,0,B|63:179|63:179|106:170|106:170|64:117|64:117|113:91,1,180.000006866455
173,97,41311,5,0,0:0:0:0:
226,103,41418,1,0,0:0:0:0:
271,132,41525,1,0,0:0:0:0:
306,172,41632,1,0,0:0:0:0:
306,226,41739,2,0,P|263:210|252:157,1,90.0000034332277
388,69,41954,2,0,B|391:265,1,180.000006866455
132,235,42382,5,0,0:0:0:0:
132,235,42489,1,0,0:0:0:0:
51,171,42811,2,2,P|129:138|216:184,2,180.000006866455
455,166,43454,2,2,P|386:135|292:187,2,180.000006866455
252,263,44097,1,0,0:0:0:0:
256,52,44418,5,0,0:0:0:0:
255,87,44525,2,0,L|255:135,1,45.0000017166138
252,263,44739,5,0,0:0:0:0:
253,226,44847,1,0,0:0:0:0:
254,190,44954,2,0,B|254:126,1,45.0000017166138
144,200,45168,5,0,0:0:0:0:
244,350,45382,2,0,P|277:347|332:296,1,90.0000034332277
362,253,45597,1,0,0:0:0:0:
370,181,45704,1,0,0:0:0:0:
339,117,45811,2,0,P|292:77|221:73,1,120
122,147,46097,6,0,P|94:191|86:257,2,67.5000025749208
279,283,46668,1,0,0:0:0:0:
263,26,47097,1,0,0:0:0:0:
402,68,47311,1,0,0:0:0:0:
378,98,47418,1,0,0:0:0:0:
345,124,47525,2,0,P|311:145|222:155,1,90.0000034332277
93,61,47954,6,2,B|64:113|131:98|71:238,1,180.000006866455
203,51,48382,2,2,B|174:103|255:144|173:271,1,210.000002002716
327,50,48811,2,2,B|298:102|379:143|286:319,1,240
289,323,49239,1,0,0:0:0:0:
80,118,49454,5,0,0:0:0:0:
336,71,49668,1,0,0:0:0:0:
369,134,49775,1,0,0:0:0:0:
398,199,49882,1,0,0:0:0:0:
432,261,49989,1,0,0:0:0:0:
285,220,50204,5,0,0:0:0:0:
124,138,50418,1,0,0:0:0:0:
157,201,50525,1,0,0:0:0:0:
186,266,50632,1,0,0:0:0:0:
220,328,50739,1,0,0:0:0:0:
285,220,50954,6,0,P|290:149|266:95,1,120
194,24,51275,2,0,L|164:76,1,60
134,249,51489,2,0,L|163:196,1,60
310,83,51704,2,0,L|280:135,1,60
134,249,51918,2,0,L|81:219,1,60
32,74,52132,2,0,L|84:103,1,60
231,176,52347,5,0,0:0:0:0:
267,144,52454,1,0,0:0:0:0:
301,111,52561,1,0,0:0:0:0:
353,54,52668,6,0,P|377:103|366:146,1,60
161,118,52989,2,0,P|137:167|148:210,1,60
351,204,53311,2,0,P|375:253|364:296,1,60
159,262,53632,2,0,P|135:311|146:354,1,60
219,319,53954,1,0,0:0:0:0:
77,33,54168,5,0,0:0:0:0:
84,83,54275,1,0,0:0:0:0:
91,133,54382,1,0,0:0:0:0:
109,232,54597,5,0,0:0:0:0:
300,80,54811,1,0,0:0:0:0:
349,317,55025,1,0,0:0:0:0:
184,138,55239,1,0,0:0:0:0:
419,74,55454,1,0,0:0:0:0:
236,233,55668,1,0,0:0:0:0:
76,50,55882,1,0,0:0:0:0:
82,293,56097,1,0,0:0:0:0:
168,165,56311,6,0,B|252:165,1,60,2|0,0:0|0:0,0:0:0:0:
319,165,56525,1,0,0:0:0:0:
74,168,56954,1,0,0:0:0:0:
133,266,57382,2,0,B|173:189|244:288|287:188,1,180
254,153,57811,5,0,0:0:0:0:
200,115,57918,1,0,0:0:0:0:
135,102,58025,1,0,0:0:0:0:
70,116,58132,5,0,0:0:0:0:
103,172,58239,1,0,0:0:0:0:
168,177,58346,1,0,0:0:0:0:
233,170,58453,1,0,0:0:0:0:
280,122,58561,2,0,P|287:67|258:23,1,60
70,116,58775,6,0,L|111:211,1,60
200,190,58989,2,0,L|260:278,1,60
343,237,59204,2,0,L|430:318,1,60
454,172,59418,2,0,L|372:107,1,60
280,122,59632,2,0,L|200:66,1,60
134,157,59847,2,0,L|33:115,1,60
107,245,60061,5,0,0:0:0:0:
166,239,60168,1,0,0:0:0:0:
214,203,60275,1,0,0:0:0:0:
107,245,60489,5,0,0:0:0:0:
354,172,60597,2,0,L|395:160,4,30
353,225,60918,1,0,0:0:0:0:
340,277,61025,1,0,0:0:0:0:
302,315,61132,1,0,0:0:0:0:
250,331,61239,2,0,P|207:328|158:298,1,60
79,243,61454,5,0,0:0:0:0:
118,206,61561,1,0,0:0:0:0:
169,188,61668,2,0,P|205:194|244:219,1,60
340,277,61882,5,0,0:0:0:0:
391,292,61989,1,0,0:0:0:0:
443,275,62097,1,0,0:0:0:0:
477,233,62204,2,0,P|489:191|483:147,1,60
263,229,62418,2,0,P|251:271|257:315,1,60
389,184,62632,2,0,P|371:145|327:115,1,60
48,176,62847,6,0,L|112:176,1,60
256,144,63061,2,0,L|176:144,1,60
48,208,63275,2,0,L|128:208,1,60
256,112,63489,2,0,L|160:112,1,60
48,240,63704,2,0,L|128:240,1,60
256,240,63918,2,0,L|256:176,1,60
47,112,64239,2,0,B|63:128|63:128|47:144|47:144|63:160|63:160|47:176|47:176|63:192|63:192|47:208|47:208|63:224|63:224|47:240|47:240|62:256|62:256|47:272|47:272,1,180.000006866455
67,330,64668,5,0,0:0:0:0:
119,318,64775,1,0,0:0:0:0:
163,287,64882,1,0,0:0:0:0:
193,242,64989,2,0,P|217:188|224:138,1,90.0000034332277
99,14,65311,5,0,0:0:0:0:
88,72,65418,1,0,0:0:0:0:
107,128,65525,1,0,0:0:0:0:
152,168,65632,1,0,0:0:0:0:
207,191,65739,1,0,0:0:0:0:
267,194,65846,1,0,0:0:0:0:
324,177,65953,1,0,0:0:0:0:
369,138,66060,1,0,0:0:0:0:
385,74,66168,1,0,0:0:0:0:
352,16,66275,1,0,0:0:0:0:
287,2,66382,1,0,0:0:0:0:
228,31,66489,1,0,0:0:0:0:
212,95,66597,1,0,0:0:0:0:
226,159,66704,2,4,P|227:181|221:206,2,30
199,254,66918,5,0,0:0:0:0:
129,272,67025,1,0,0:0:0:0:
78,220,67132,1,0,0:0:0:0:
86,148,67239,1,0,0:0:0:0:
144,116,67347,1,0,0:0:0:0:
208,127,67454,1,0,0:0:0:0:
234,187,67561,1,0,0:0:0:0:
267,243,67668,1,0,0:0:0:0:
317,275,67775,1,0,0:0:0:0:
376,271,67882,1,0,0:0:0:0:
422,233,67989,1,0,0:0:0:0:
432,173,68097,1,0,0:0:0:0:
409,117,68204,1,0,0:0:0:0:
357,86,68311,1,0,0:0:0:0:
296,88,68418,2,0,P|253:127|232:180,1,90.0000034332277
195,318,68632,5,0,0:0:0:0:
195,318,68739,1,0,0:0:0:0:
151,57,68954,1,0,0:0:0:0:
271,60,69168,5,0,0:0:0:0:
254,111,69275,1,0,0:0:0:0:
218,151,69382,1,0,0:0:0:0:
165,162,69489,1,0,0:0:0:0:
110,159,69597,1,0,0:0:0:0:
66,126,69704,1,0,0:0:0:0:
151,57,69811,5,0,0:0:0:0:
99,266,70025,1,0,0:0:0:0:
336,175,70239,1,0,0:0:0:0:
284,384,70453,1,0,0:0:0:0:
151,57,70668,1,0,0:0:0:0:
292,250,70882,1,0,0:0:0:0:
336,175,70936,2,0,L|357:139,2,30.0000011444092
144,214,71311,1,0,0:0:0:0:
205,39,71525,5,0,0:0:0:0:
261,52,71632,1,0,0:0:0:0:
313,78,71739,1,0,0:0:0:0:
351,122,71847,1,0,0:0:0:0:
383,170,71954,1,0,0:0:0:0:
390,227,72061,1,0,0:0:0:0:
398,284,72168,6,0,L|399:331,2,45.0000017166138
390,227,72489,1,0,0:0:0:0:
386,159,72597,1,0,0:0:0:0:
398,92,72704,1,0,0:0:0:0:
432,34,72811,2,0,P|448:13|469:-3,2,45.0000017166138
308,166,73132,1,0,0:0:0:0:
249,205,73239,2,0,P|213:219|154:219,1,90.0000034332277
133,53,73561,5,0,0:0:0:0:
174,100,73668,1,0,0:0:0:0:
199,147,73775,1,0,0:0:0:0:
214,198,73882,1,0,0:0:0:0:
211,242,73989,1,0,0:0:0:0:
196,284,74096,1,0,0:0:0:0:
179,315,74203,1,0,0:0:0:0:
200,384,74311,6,0,P|126:358|111:282,1,90.0000034332277,0|8,0:0|0:0,0:0:0:0:
91,196,74525,6,0,P|135:200|169:228,1,90.0000034332277,0|8,0:0|0:0,0:0:0:0:
27,321,74739,6,0,L|121:263,1,90.0000034332277
295,131,74954,1,0,0:0:0:0:
196,264,75168,1,0,0:0:0:0:
131,37,75382,1,0,0:0:0:0:
43,259,75597,2,0,L|46:180,2,67.5000025749208
218,301,75918,2,0,P|288:260|333:166,1,180.000006866455
336,120,76239,5,0,0:0:0:0:
309,72,76347,1,0,0:0:0:0:
264,41,76454,1,0,0:0:0:0:
210,35,76561,1,0,0:0:0:0:
158,51,76668,1,0,0:0:0:0:
81,112,76775,6,0,L|41:127,2,30
138,180,76989,2,0,L|107:224,2,30
226,200,77204,2,0,L|224:243,2,30
313,179,77418,2,0,L|336:218,2,30
361,56,77632,2,0,L|406:25,1,30
334,40,77739,2,0,L|350:-5,1,30
301,29,77847,2,0,L|300:-11,1,30
264,34,77954,2,0,P|261:167|401:209,1,270.000010299683
360,101,78382,5,0,0:0:0:0:
55,200,78597,1,0,0:0:0:0:
192,112,78811,1,0,0:0:0:0:
192,165,78918,1,0,0:0:0:0:
192,218,79025,1,0,0:0:0:0:
192,271,79132,1,0,0:0:0:0:
407,273,79347,1,0,0:0:0:0:
298,214,79561,5,0,0:0:0:0:
298,161,79668,1,0,0:0:0:0:
298,108,79775,1,0,0:0:0:0:
298,55,79882,1,0,0:0:0:0:
197,57,80097,1,0,0:0:0:0:
407,114,80311,5,0,0:0:0:0:
407,167,80418,1,0,0:0:0:0:
407,220,80525,1,0,0:0:0:0:
407,273,80632,1,0,0:0:0:0:
298,55,80847,1,2,0:0:0:0:
192,271,81061,1,2,0:0:0:0:
407,273,81275,1,2,0:0:0:0:
298,55,81489,5,0,0:0:0:0:
234,55,81597,1,0,0:0:0:0:
171,52,81704,1,0,0:0:0:0:
108,53,81811,1,0,0:0:0:0:
374,12,82025,1,0,0:0:0:0:
266,87,82239,5,0,0:0:0:0:
214,123,82346,1,0,0:0:0:0:
162,159,82453,1,0,0:0:0:0:
107,190,82560,1,0,0:0:0:0:
281,3,82775,1,0,0:0:0:0:
260,135,82990,5,0,0:0:0:0:
251,197,83097,1,0,0:0:0:0:
242,259,83205,1,0,0:0:0:0:
234,321,83312,1,0,0:0:0:0:
169,34,83525,1,0,0:0:0:0:
292,170,83739,5,0,0:0:0:0:
333,217,83847,1,0,0:0:0:0:
377,261,83954,1,0,0:0:0:0:
420,306,84061,1,0,0:0:0:0:
174,91,84275,1,2,0:0:0:0:
380,101,84489,1,2,0:0:0:0:
182,245,84704,1,2,0:0:0:0:
312,18,84918,5,0,0:0:0:0:
271,65,85025,1,0,0:0:0:0:
279,127,85132,1,0,0:0:0:0:
241,177,85239,1,0,0:0:0:0:
380,101,85454,1,0,0:0:0:0:
82,106,85668,5,0,0:0:0:0:
129,147,85775,1,0,0:0:0:0:
191,139,85882,1,0,0:0:0:0:
241,177,85989,1,0,0:0:0:0:
163,49,86204,1,0,0:0:0:0:
170,336,86418,5,0,0:0:0:0:
208,286,86525,1,0,0:0:0:0:
200,224,86632,1,0,0:0:0:0:
241,177,86739,1,0,0:0:0:0:
103,255,86954,1,0,0:0:0:0:
400,248,87168,5,0,0:0:0:0:
353,207,87275,1,0,0:0:0:0:
291,215,87382,1,0,0:0:0:0:
241,177,87489,1,0,0:0:0:0:
327,309,87704,1,2,0:0:0:0:
415,36,87918,1,2,0:0:0:0:
161,158,88132,1,2,0:0:0:0:
263,32,88347,5,0,0:0:0:0:
229,74,88454,1,0,0:0:0:0:
195,116,88561,1,0,0:0:0:0:
161,158,88668,1,0,0:0:0:0:
51,64,88882,1,0,0:0:0:0:
161,158,89097,5,0,0:0:0:0:
203,192,89204,1,0,0:0:0:0:
245,226,89311,1,0,0:0:0:0:
287,260,89418,1,0,0:0:0:0:
197,372,89632,5,0,0:0:0:0:
287,260,89847,5,0,0:0:0:0:
321,218,89954,1,0,0:0:0:0:
355,176,90061,1,0,0:0:0:0:
389,134,90168,1,0,0:0:0:0:
509,212,90382,1,0,0:0:0:0:
389,134,90597,5,0,0:0:0:0:
347,100,90704,1,0,0:0:0:0:
305,66,90811,1,0,0:0:0:0:
263,32,90918,1,0,0:0:0:0:
392,18,91132,1,2,0:0:0:0:
143,123,91347,1,2,0:0:0:0:
302,261,91561,1,2,0:0:0:0:
134,228,91775,5,0,0:0:0:0:
174,191,91883,1,0,0:0:0:0:
228,184,91990,1,0,0:0:0:0:
274,214,92097,1,0,0:0:0:0:
192,95,92311,1,0,0:0:0:0:
210,269,92525,5,0,0:0:0:0:
257,299,92632,1,0,0:0:0:0:
311,292,92739,1,0,0:0:0:0:
351,255,92847,1,0,0:0:0:0:
297,384,93061,5,0,0:0:0:0:
274,214,93275,5,0,0:0:0:0:
314,177,93383,1,0,0:0:0:0:
368,170,93490,1,0,0:0:0:0:
414,200,93597,1,0,0:0:0:0:
337,84,93811,1,0,0:0:0:0:
350,256,94025,5,0,0:0:0:0:
397,286,94132,1,0,0:0:0:0:
451,279,94239,1,0,0:0:0:0:
491,242,94347,1,0,0:0:0:0:
432,367,94561,5,2,0:0:0:0:
337,84,94775,1,2,0:0:0:0:
256,224,94989,1,2,0:0:0:0:
449,0,95204,5,0,0:0:0:0:
449,65,95311,1,0,0:0:0:0:
449,130,95418,1,0,0:0:0:0:
448,192,95525,6,0,L|448:288,2,60
352,128,95847,2,0,L|352:224,2,60
256,64,96168,2,0,L|256:160,2,60
160,128,96489,2,0,L|160:224,2,60
64,192,96811,2,0,L|64:288,1,60
160,256,97025,6,0,L|160:322,1,60
256,320,97239,2,0,L|256:394,2,60
352,256,97561,2,0,L|352:336,2,60
448,192,97882,2,0,L|448:272,2,60
352,128,98204,2,0,L|352:192,2,60
160,128,98525,2,0,L|64:128,1,60
352,128,98739,2,0,L|432:128,1,60
168,228,98954,5,0,0:0:0:0:
98,204,99061,1,0,0:0:0:0:
64,139,99168,1,0,0:0:0:0:
84,69,99275,1,0,0:0:0:0:
147,31,99382,1,0,0:0:0:0:
218,47,99489,1,0,0:0:0:0:
260,109,99597,1,0,0:0:0:0:
298,169,99704,1,0,0:0:0:0:
369,167,99811,1,0,0:0:0:0:
404,104,99918,1,0,0:0:0:0:
367,43,100025,1,0,0:0:0:0:
296,43,100132,1,0,0:0:0:0:
260,109,100239,6,0,P|225:121|184:111,1,60
164,24,100454,2,0,P|204:34|228:66,1,60
273,188,100668,2,6,B|385:188|417:156|449:140|449:108|449:108|449:76|417:60|385:60|353:76|353:108|353:108|353:140|385:156|417:188|545:188,1,540.000020599366
