osu file format v14

[General]
AudioFilename: audio.mp3
AudioLeadIn: 0
PreviewTime: 96430
Countdown: 0
SampleSet: Soft
StackLeniency: 0.7
Mode: 0
LetterboxInBreaks: 0
WidescreenStoryboard: 0

[Editor]
Bookmarks: 13876,28756,41134,82277,109706,150848,164613
DistanceSpacing: 1.5
BeatDivisor: 16
GridSize: 16
TimelineZoom: 2.899999

[Metadata]
Title:Lemonade (feat. Gunna, Don Toliver & NAV)
TitleUnicode:Lemonade (feat. Gunna, Don Toliver & NAV)
Artist:Internet Money
ArtistUnicode:Internet Money
Creator:Mimari
Version:jamesjan's Insane
Source:
Tags:english hip hop trap rap b4 the storm jamesjan3 mayflower taz taylor nick mira
BeatmapID:2681372
BeatmapSetID:1290613

[Difficulty]
HPDrainRate:5.5
CircleSize:4
OverallDifficulty:8
ApproachRate:9
SliderMultiplier:2
SliderTickRate:1

[Events]
//Background and Video events
0,0,"ahh jamesjan3 is my favorite mapper desu OWO~.png",0,0
//Break Periods
2,68626,81740
2,139111,140026
//Storyboard Layer 0 (Background)
//Storyboard Layer 1 (Fail)
//Storyboard Layer 2 (Pass)
//Storyboard Layer 3 (Foreground)
//Storyboard Layer 4 (Overlay)
//Storyboard Sound Samples

[TimingPoints]
55,428.571428571429,4,2,1,70,1,0
13769,-100,4,2,11,53,0,0
23197,-80,4,2,11,53,0,0
23626,-66.6666666666667,4,2,11,53,0,0
24054,-80,4,2,11,53,0,0
26411,-66.6666666666667,4,2,11,53,0,0
26626,-133.333333333333,4,2,11,53,0,0
27054,-66.6666666666667,4,2,11,53,0,0
27483,-44.4444444444445,4,2,1,70,0,0
27911,-57.1428571428571,4,2,1,70,0,0
28340,-50,4,2,1,49,0,0
28555,-50,4,2,2,70,0,0
28769,-57.1428571428571,4,2,3,70,0,0
29197,-57.1428571428571,4,2,13,70,0,0
29411,-133.333333333333,4,2,13,70,0,0
30054,-80,4,2,13,70,0,0
30911,-50,4,2,13,70,0,0
30912,-50,4,2,4,70,0,0
31769,-50,4,2,1,49,0,0
32197,-57.1428571428571,4,2,5,70,0,0
32626,-50,4,2,5,70,0,0
33483,-66.6666666666667,4,2,1,49,0,0
33697,-50,4,2,1,49,0,0
33912,-50,4,2,5,70,0,0
34340,-50,4,2,2,70,0,0
35197,-66.6666666666667,4,2,1,49,0,0
35626,-50,4,2,6,70,0,0
35840,-66.6666666666667,4,2,6,70,0,0
36912,-66.6666666666667,4,2,1,49,0,0
37126,-44.4444444444445,4,2,6,70,0,0
37340,-44.4444444444445,4,2,1,49,0,0
37769,-44.4444444444445,4,2,4,70,0,0
38626,-66.6666666666667,4,2,1,49,0,0
39054,-50,4,2,1,49,0,0
39055,-50,4,2,5,70,0,0
39269,-66.6666666666667,4,2,5,70,0,0
40340,-66.6666666666667,4,2,1,49,0,0
40554,-50,4,2,1,49,0,0
40769,-33.3333333333333,4,2,5,70,0,0
40983,-66.6666666666667,4,2,5,70,0,0
41197,-66.6666666666667,4,2,13,50,0,0
43769,-111.111111111111,4,2,13,50,0,0
44626,-66.6666666666667,4,2,4,70,0,0
45483,-66.6666666666667,4,2,1,49,0,0
45911,-66.6666666666667,4,2,5,70,0,0
47197,-66.6666666666667,4,2,1,49,0,0
47626,-66.6666666666667,4,2,5,70,0,0
48054,-66.6666666666667,4,2,2,70,0,0
48911,-66.6666666666667,4,2,1,49,0,0
49126,-66.6666666666667,4,2,1,70,0,0
49340,-50,4,2,6,70,0,0
49769,-200,4,2,6,70,0,0
49795,-200,4,2,1,5,0,0
50197,-200,4,2,6,70,0,0
50304,-200,4,2,1,5,0,0
50411,-200,4,2,6,70,0,0
50519,-200,4,2,1,5,0,0
50626,-200,4,2,6,70,0,0
50840,-200,4,2,1,70,0,0
51054,-200,4,2,1,70,0,0
51483,-50,4,2,4,70,0,0
51911,-66.6666666666667,4,2,4,70,0,0
52340,-66.6666666666667,4,2,1,49,0,0
52769,-66.6666666666667,4,2,5,70,0,0
54055,-66.6666666666667,4,2,1,49,0,0
54483,-66.6666666666667,4,2,5,70,0,0
54911,-111.111111111111,4,2,5,70,0,0
55340,-111.111111111111,4,2,13,70,0,0
56197,-200,4,2,13,70,0,0
57483,-66.6666666666667,4,2,1,70,0,0
58340,-66.6666666666667,4,2,5,70,0,0
59197,-66.6666666666667,4,2,1,70,0,0
59625,-66.6666666666667,4,2,5,70,0,0
60911,-66.6666666666667,4,2,1,70,0,0
61340,-66.6666666666667,4,2,5,70,0,0
61768,-66.6666666666667,4,2,2,70,0,0
62625,-66.6666666666667,4,2,1,70,0,0
63054,-50,4,2,6,70,0,0
63376,-47.6190476190476,4,2,6,70,0,0
63697,-66.6666666666667,4,2,6,70,0,0
64340,-66.6666666666667,4,2,1,70,0,0
64554,-66.6666666666667,4,2,6,70,0,0
64768,-66.6666666666667,4,2,1,70,0,0
65197,-66.6666666666667,4,2,4,70,0,0
66054,-66.6666666666667,4,2,1,70,0,0
66483,-66.6666666666667,4,2,5,70,0,0
66885,-400,4,2,13,70,0,0
68626,-400,4,2,12,40,0,0
82340,-100,4,2,11,53,0,0
91769,-80,4,2,11,53,0,0
92197,-66.6666666666667,4,2,11,53,0,0
92840,-80,4,2,11,53,0,0
95197,-133.333333333333,4,2,11,53,0,0
95626,-66.6666666666667,4,2,11,53,0,0
96054,-44.4444444444445,4,2,11,53,0,0
96055,-44.4444444444445,4,2,1,70,0,0
96483,-57.1428571428571,4,2,1,70,0,0
96911,-50,4,2,1,70,0,0
96912,-50,4,2,1,49,0,0
97127,-50,4,2,2,70,0,0
97340,-57.1428571428571,4,2,2,70,0,0
97341,-57.1428571428571,4,2,3,70,0,0
97769,-57.1428571428571,4,2,13,70,0,0
97983,-133.333333333333,4,2,13,70,0,0
98840,-80,4,2,13,70,0,0
99483,-50,4,2,13,70,0,0
99484,-50,4,2,4,70,0,0
100341,-50,4,2,1,49,0,0
100769,-57.1428571428571,4,2,5,70,0,0
101197,-50,4,2,5,70,0,0
102054,-57.1428571428571,4,2,5,70,0,0
102055,-57.1428571428571,4,2,1,49,0,0
102269,-50,4,2,1,49,0,0
102484,-50,4,2,5,70,0,0
102912,-50,4,2,2,70,0,0
103769,-66.6666666666667,4,2,1,49,0,0
104197,-50,4,2,1,49,0,0
104198,-50,4,2,6,70,0,0
104411,-66.6666666666667,4,2,6,70,0,0
104626,-133.333333333333,4,2,6,70,0,0
105484,-133.333333333333,4,2,1,49,0,0
105698,-133.333333333333,4,2,6,70,0,0
105912,-133.333333333333,4,2,1,49,0,0
106340,-50,4,2,1,49,0,0
106341,-50,4,2,4,70,0,0
107197,-66.6666666666667,4,2,4,70,0,0
107198,-66.6666666666667,4,2,1,49,0,0
107626,-50,4,2,1,49,0,0
107627,-50,4,2,5,70,0,0
107840,-66.6666666666667,4,2,5,70,0,0
108912,-66.6666666666667,4,2,1,49,0,0
109126,-50,4,2,1,49,0,0
109340,-66.6666666666667,4,2,1,49,0,0
109341,-66.6666666666667,4,2,5,70,0,0
109554,-100,4,2,5,70,0,0
109769,-50,4,2,1,70,0,0
110626,-50,4,2,1,49,0,0
110840,-50,4,2,2,70,0,0
111055,-50,4,2,3,70,0,0
111483,-66.6666666666667,4,2,3,70,0,0
113197,-66.6666666666667,4,2,3,70,0,0
113198,-66.6666666666667,4,2,4,70,0,0
113626,-50,4,2,4,70,0,0
114055,-50,4,2,1,49,0,0
114483,-50,4,2,5,70,0,0
115769,-50,4,2,1,49,0,0
116198,-50,4,2,5,70,0,0
116411,-66.6666666666667,4,2,5,70,0,0
116626,-66.6666666666667,4,2,2,70,0,0
117054,-57.1428571428571,4,2,2,70,0,0
117483,-57.1428571428571,4,2,1,49,0,0
117698,-57.1428571428571,4,2,1,70,0,0
117912,-57.1428571428571,4,2,6,70,0,0
118019,-133.333333333333,4,2,6,70,0,0
118233,-133.333333333333,4,2,6,5,0,0
118340,-133.333333333333,4,2,6,70,0,0
118662,-133.333333333333,4,2,6,5,0,0
118769,-133.333333333333,4,2,6,70,0,0
119198,-133.333333333333,4,2,1,49,0,0
119412,-133.333333333333,4,2,6,70,0,0
119626,-133.333333333333,4,2,1,49,0,0
120054,-50,4,2,1,49,0,0
120055,-50,4,2,4,70,0,0
120697,-57.1428571428571,4,2,4,70,0,0
120912,-57.1428571428571,4,2,1,49,0,0
121341,-57.1428571428571,4,2,5,70,0,0
121769,-50,4,2,5,70,0,0
122411,-66.6666666666667,4,2,5,70,0,0
122626,-100,4,2,1,49,0,0
123054,-66.6666666666667,4,2,1,49,0,0
123055,-66.6666666666667,4,2,5,70,0,0
123483,-111.111111111111,4,2,5,70,0,0
124769,-200,4,2,5,70,0,0
126054,-66.6666666666667,4,2,5,70,0,0
126055,-66.6666666666667,4,2,1,70,0,0
126911,-50,4,2,1,70,0,0
126912,-50,4,2,4,70,0,0
127554,-66.6666666666667,4,2,4,70,0,0
127769,-66.6666666666667,4,2,1,70,0,0
128197,-50,4,2,5,70,0,0
128769,-66.6666666666667,4,2,5,70,0,0
129483,-100,4,2,1,70,0,0
129911,-66.6666666666667,4,2,1,70,0,0
129912,-66.6666666666667,4,2,5,70,0,0
130126,-57.1428571428571,4,2,5,70,0,0
130340,-50,4,2,2,70,0,0
130983,-66.6666666666667,4,2,2,70,0,0
131197,-66.6666666666667,4,2,1,70,0,0
131626,-50,4,2,6,70,0,0
132269,-66.6666666666667,4,2,6,70,0,0
132912,-66.6666666666667,4,2,1,70,0,0
133126,-66.6666666666667,4,2,6,70,0,0
133340,-57.1428571428571,4,2,1,70,0,0
133769,-50,4,2,4,70,0,0
134411,-66.6666666666667,4,2,4,70,0,0
134626,-66.6666666666667,4,2,1,70,0,0
135055,-66.6666666666667,4,2,5,70,0,0
135483,-57.1428571428571,4,2,5,70,0,0
136340,-57.1428571428571,4,2,1,70,0,0
136769,-57.1428571428571,4,2,5,70,0,0
137197,-333.333333333333,4,2,13,53,0,0
137840,-200,4,2,13,53,0,0
138483,-142.857142857143,4,2,13,53,0,0
140626,-333.333333333333,4,2,13,53,0,0
141269,-200,4,2,13,53,0,0
141912,-142.857142857143,4,2,13,53,0,0
143197,-333.333333333333,4,2,13,53,0,0
144697,-200,4,2,13,53,0,0
145340,-142.857142857143,4,2,13,53,0,0
146626,-333.333333333333,4,2,13,53,0,0
148126,-200,4,2,13,53,0,0
148769,-142.857142857143,4,2,13,53,0,0
149412,-333.333333333333,4,2,13,53,0,0
150912,-333.333333333333,4,2,12,53,0,0
164197,-200,4,2,12,53,0,0
164626,-44.4444444444445,4,2,1,70,0,0
165483,-40,4,2,1,49,0,0
165698,-40,4,2,2,70,0,0
165912,-40,4,2,3,70,0,0
166340,-40,4,2,13,70,0,0
167411,-80,4,2,13,70,0,0
168054,-44.4444444444445,4,2,13,70,0,0
168055,-44.4444444444445,4,2,4,70,0,0
168912,-44.4444444444445,4,2,1,49,0,0
169340,-44.4444444444445,4,2,5,70,0,0
170626,-44.4444444444445,4,2,1,49,0,0
171055,-44.4444444444445,4,2,5,70,0,0
171483,-44.4444444444445,4,2,2,70,0,0
172340,-66.6666666666667,4,2,1,49,0,0
172769,-44.4444444444445,4,2,6,70,0,0
172983,-57.1428571428571,4,2,6,70,0,0
174055,-57.1428571428571,4,2,1,49,0,0
174269,-44.4444444444445,4,2,6,70,0,0
174483,-44.4444444444445,4,2,1,49,0,0
174912,-44.4444444444445,4,2,4,70,0,0
175769,-66.6666666666667,4,2,1,49,0,0
176197,-44.4444444444445,4,2,1,49,0,0
176198,-44.4444444444445,4,2,5,70,0,0
176411,-57.1428571428571,4,2,5,70,0,0
177483,-100,4,2,1,49,0,0
177911,-33.3333333333333,4,2,1,49,0,0
177912,-33.3333333333333,4,2,5,70,0,0
178340,-33.3333333333333,4,2,1,70,0,0
179197,-33.3333333333333,4,2,1,70,0,0
179411,-33.3333333333333,4,2,1,70,0,0
179626,-33.3333333333333,4,2,1,70,0,0
179947,-33.3333333333333,4,2,1,5,0,0
180055,-33.3333333333333,4,2,1,35,0,0
181769,-33.3333333333333,4,2,1,15,0,0
182626,-33.3333333333333,4,2,1,15,0,0
183054,-33.3333333333333,4,2,1,15,0,0
184340,-33.3333333333333,4,2,1,15,0,0
184769,-33.3333333333333,4,2,1,15,0,0
185197,-33.3333333333333,4,2,1,15,0,0
186054,-33.3333333333333,4,2,1,15,0,0
186269,-33.3333333333333,4,2,1,15,0,0
186483,-33.3333333333333,4,2,1,15,0,0
187769,-33.3333333333333,4,2,1,15,0,0
187983,-33.3333333333333,4,2,1,15,0,0
188197,-33.3333333333333,4,2,1,15,0,0
188626,-33.3333333333333,4,2,1,15,0,0
189483,-33.3333333333333,4,2,1,15,0,0
189912,-33.3333333333333,4,2,1,15,0,0
191197,-33.3333333333333,4,2,1,15,0,0
191626,-33.3333333333333,4,2,1,15,0,0

[Colours]
Combo1 : 248,186,224
Combo2 : 249,226,98
Combo3 : 255,164,209
Combo4 : 248,251,106

[HitObjects]
418,230,13769,6,0,B|418:231|396:242,1,25,0|0,0:0|0:0,0:0:0:0:
422,234,13876,2,0,B|413:195|347:200|333:268|360:308,1,150,0|0,0:0|0:0,0:0:0:0:
486,287,14411,1,0,0:0:0:0:
298,364,14626,2,0,P|233:348|164:296,1,150,8|0,0:1|0:0,0:0:0:0:
184,223,15054,2,0,P|173:191|175:165,1,50,0|0,0:0|0:0,0:0:0:0:
231,118,15268,1,0,0:0:0:0:
45,22,15483,6,0,B|128:-7|138:64|220:39,1,175,0|0,0:0|0:0,0:0:0:0:
213,40,15911,1,0,0:0:0:0:
340,89,16126,1,2,0:3:0:0:
422,14,16340,6,0,L|431:69,1,50,8|0,0:1|0:0,0:0:0:0:
399,195,16554,2,0,B|374:233|339:168|390:107|519:183|485:301,1,250,0|0,0:0|0:0,0:0:0:0:
426,341,17197,6,0,P|409:344|398:357,1,25,0|0,0:0|0:0,0:0:0:0:
430,345,17304,2,0,P|350:333|285:344,1,125,0|0,0:0|0:0,0:0:0:0:
306,338,17626,5,0,0:0:0:0:
160,381,17840,1,0,0:0:0:0:
25,303,18054,2,0,P|51:239|126:234,1,150,8|0,0:1|0:0,0:0:0:0:
185,280,18483,6,0,P|209:276|228:260,1,50,0|0,0:0|0:0,0:0:0:0:
213,173,18697,2,0,P|188:169|169:153,1,50,0|0,0:0|0:0,0:0:0:0:
195,65,18912,6,0,B|281:21|282:128|381:81,1,175,0|0,0:0|0:0,0:0:0:0:
358,89,19340,1,0,0:0:0:0:
248,15,19554,1,0,0:0:0:0:
94,30,19769,6,0,L|81:88,1,50,8|0,0:1|0:0,0:0:0:0:
19,131,19983,2,0,P|26:176|62:242,2,100,0|2|0,0:0|0:3|0:0,0:0:0:0:
153,148,20626,6,0,P|170:157|175:171,1,25,0|0,0:0|0:0,0:0:0:0:
157,152,20733,2,0,B|170:125|237:134|210:177|274:165,1,125,0|0,0:0|0:0,0:0:0:0:
270,165,21054,5,0,0:0:0:0:
170,345,21269,1,0,0:0:0:0:
256,249,21483,2,0,P|245:283|280:390,1,150,8|0,0:1|0:0,0:0:0:0:
360,353,21911,5,0,0:0:0:0:
447,212,22126,1,0,0:0:0:0:
375,154,22340,5,0,0:0:0:0:
382,161,22447,1,0,0:0:0:0:
382,161,22554,2,0,P|378:102|354:52,2,100,0|0|2,0:0|0:0|0:3,0:0:0:0:
308,220,23197,6,0,B|209:187|218:319|100:275,1,218.75,8|0,0:1|0:0,0:0:0:0:
90,264,23626,6,0,B|75:230|75:230|94:191,1,75.0000028610231,8|0,0:0|0:0,0:0:0:0:
169,43,23840,1,8,0:0:0:0:
45,125,24055,6,0,P|47:110|62:101,1,31.25,0|0,0:0|0:0,0:0:0:0:
49,129,24161,2,0,B|78:93|187:97|129:189|238:156,1,187.5,0|0,0:0|0:0,0:0:0:0:
288,130,24590,1,0,0:0:0:0:
303,114,24697,2,0,P|303:77|285:47,1,62.5,0|0,0:0|0:0,0:0:0:0:
441,26,24911,6,0,P|411:59|380:202,1,187.5,8|0,0:1|0:0,0:0:0:0:
417,266,25340,5,0,0:0:0:0:
202,234,25554,1,0,0:0:0:0:
420,269,25769,1,0,0:0:0:0:
303,114,25983,5,0,0:0:0:0:
274,140,26090,1,0,0:0:0:0:
236,120,26197,1,0,0:0:0:0:
204,148,26304,1,0,0:0:0:0:
166,128,26411,2,0,P|117:140|88:185,1,75.0000028610231,0|0,0:0|0:0,0:0:0:0:
41,297,26626,6,0,L|161:310,1,112.500004291535,8|0,0:1|0:0,0:0:0:0:
171,302,27054,6,0,B|186:268|186:268|167:229,1,75.0000028610231,8|0,0:1|0:0,0:0:0:0:
79,24,27269,1,8,0:1:0:0:
11,270,27483,6,0,B|61:254|61:254|160:48|160:48|228:36,1,337.500012874604,0|0,3:0|0:0,0:0:0:0:
219,42,27911,6,0,P|256:65|256:128,1,87.500000834465,0|0,0:0|0:0,0:0:0:0:
200,276,28126,2,0,P|210:330|245:352,1,87.500000834465,0|0,3:0|0:0,0:0:0:0:
290,262,28340,6,0,B|298:235|275:189|236:192|225:194|164:165|184:111,1,200,8|0,1:2|3:0,0:0:0:0:
273,113,28626,5,0,0:0:0:0:
273,113,28697,5,0,0:0:0:0:
273,113,28769,6,0,B|310:162|249:218|221:199|215:196|204:191|150:196|114:255|149:300,1,262.500002503395,0|0,3:0|0:0,0:0:0:0:
181,350,29197,6,0,P|214:310|211:264,1,87.500000834465,2|0,0:0|0:0,0:0:0:0:
182,115,29411,2,0,L|166:30,2,75.0000028610231,2|2|2,0:0|0:0|0:0,0:0:0:0:
85,158,30054,5,2,0:0:0:0:
85,158,30269,2,0,B|119:131|181:158|197:215|197:215|204:205|204:205|202:247|266:305|325:262,1,312.5,2|0,0:0|0:0,0:0:0:0:
398,308,30911,6,0,P|392:205|414:2,1,300,0|0,3:0|0:0,0:0:0:0:
488,15,31340,6,0,P|511:60|504:106,1,100,0|0,0:0|0:0,0:0:0:0:
363,188,31554,2,0,P|328:215|320:274,1,100,0|0,3:0|0:0,0:0:0:0:
393,305,31769,6,0,B|433:296|465:255|418:184|405:167|337:142|345:63|393:53,1,300,8|0,1:2|0:0,0:0:0:0:
459,103,32197,2,0,B|472:143|439:185|397:196|386:178|332:148|280:227|320:269,1,262.500002503395,0|0,3:0|0:0,0:0:0:0:
242,296,32626,6,0,P|271:335|319:345,1,100,0|0,0:0|0:0,0:0:0:0:
398,256,32840,1,0,0:0:0:0:
297,52,33054,1,0,0:0:0:0:
112,118,33269,1,0,3:0:0:0:
378,73,33483,6,0,P|379:32|368:-2,1,75.0000028610231,8|0,1:2|0:0,0:0:0:0:
227,7,33697,2,0,B|207:37|215:72|215:72|209:67|209:67|215:72|215:72|227:110|259:130,1,150
253,126,33911,5,2,3:0:0:0:
8,33,34126,1,0,3:0:0:0:
260,133,34340,6,0,B|281:103|281:56|210:30|126:50|101:187|174:258,1,300,0|0,3:0|0:0,0:0:0:0:
185,301,34769,6,0,B|243:320|292:297|306:249|278:197|231:223,1,200,0|0,0:0|3:0,0:0:0:0:
151,223,35090,1,0,0:0:0:0:
82,280,35197,6,0,B|21:295|-7:214|50:182|104:181|148:220,1,225.000008583069,8|0,1:2|0:0,0:0:0:0:
234,221,35626,6,0,P|219:274|178:304,1,100,0|0,3:0|0:0,0:0:0:0:
98,347,35840,2,0,P|79:316|82:280,1,75.0000028610231,0|0,0:0|0:0,0:0:0:0:
165,115,36054,5,0,0:0:0:0:
348,200,36269,1,0,0:0:0:0:
510,69,36483,1,0,0:0:0:0:
390,365,36697,1,2,0:3:0:0:
348,200,36911,6,0,P|373:178|416:187,1,76.5000014591217,8|0,1:2|0:0,0:0:0:0:
348,297,37126,2,0,B|297:264|251:294|251:294|254:286|254:286|251:294|251:294|196:329|136:283,2,225.000008583069,0|8|8,3:0|0:0|0:0,0:0:0:0:
413,37,37769,6,0,B|383:-4|285:17|287:89|311:111|303:192|204:207|167:150,1,337.500012874604,0|0,3:0|0:0,0:0:0:0:
93,116,38197,6,0,B|78:28|117:-10|170:-13|217:33|174:75,1,225.000008583069,0|0,0:0|3:0,0:0:0:0:
169,149,38519,5,0,0:0:0:0:
80,192,38626,2,0,B|39:223|82:274|135:276|178:240|170:152,1,225.000008583069,8|0,0:0|0:0,0:0:0:0:
257,118,39054,6,0,P|203:126|171:176,1,100,0|0,3:0|0:0,0:0:0:0:
80,192,39269,2,0,P|70:237|82:269,1,75.0000028610231,0|0,0:0|0:0,0:0:0:0:
194,369,39483,5,0,0:0:0:0:
291,197,39696,1,0,0:0:0:0:
175,14,39911,1,0,0:0:0:0:
80,192,40126,2,0,L|154:200,1,75.0000028610231,0|0,3:0|0:0,0:0:0:0:
291,197,40339,6,0,P|323:179|332:143,1,75.0000028610231,8|0,1:2|0:0,0:0:0:0:
450,18,40554,2,0,P|414:49|404:102,1,100
388,234,40769,6,0,B|381:258|381:258|438:322|438:322|477:246|477:246|459:221,1,225.000008583069,2|0,3:0|0:0,0:0:0:0:
459,222,40983,1,0,3:0:0:0:
72,134,43769,6,0,B|64:108|64:108|150:80|150:80|175:160|175:160|158:187|158:187|184:278,1,314.999990386963,2|0,0:0|0:0,0:0:0:0:
198,278,44626,2,0,B|179:196|179:196|195:169|195:169|157:48,1,225.000008583069,0|0,3:0|0:0,0:0:0:0:
220,8,45054,6,0,B|307:22|307:22|287:178,1,225.000008583069,0|0,0:0|0:0,0:0:0:0:
289,157,45483,2,0,L|275:241,1,75.0000028610231,8|0,1:2|0:0,0:0:0:0:
173,344,45697,2,0,B|128:352|128:352|101:235,2,150.000005722046,0|0|0,0:0|3:0|0:0,0:0:0:0:
276,230,46340,5,0,0:0:0:0:
150,198,46554,1,0,0:0:0:0:
113,323,46769,1,0,0:0:0:0:
239,360,46983,1,0,3:0:0:0:
150,198,47197,6,0,B|159:162|159:162|67:39|67:39|79:-12,1,225.000008583069,8|0,1:2|0:0,0:0:0:0:
153,27,47626,2,0,B|210:105,1,75.0000028610231,2|0,3:0|0:0,0:0:0:0:
31,119,47840,2,0,B|75:179,1,75.0000028610231,0|0,3:0|0:0,0:0:0:0:
228,241,48054,6,0,B|334:218|334:218|339:229|339:229|450:207,1,225.000008583069,0|0,3:0|0:0,0:0:0:0:
512,174,48483,5,0,0:0:0:0:
403,13,48697,1,0,3:0:0:0:
256,119,48912,2,0,L|309:111,2,50.0000019073487,8|0|0,1:2|0:0|0:0,0:0:0:0:
381,103,49126,1,0,0:0:0:0:
157,236,49340,6,0,B|168:214|168:214|145:133,1,100,0|0,3:0|0:0,0:0:0:0:
161,16,49555,1,0,0:0:0:0:
161,16,49769,6,2,B|157:115|157:115|162:119|162:119|158:122|158:122|155:161|155:161|150:167|150:167|154:173|154:173|151:210|151:210|161:226|161:226|154:381,1,375,0|0,0:0|0:0,0:1:0:0:
42,203,51483,6,0,B|67:221|67:221|299:163|299:163|338:182,1,300,0|0,3:0|0:0,0:0:0:0:
326,176,51912,6,0,L|393:213,1,75.0000028610231,0|0,0:0|0:0,0:0:0:0:
353,72,52126,2,0,B|315:53|315:53|161:94,2,150.000005722046,0|8|0,3:0|0:0|0:0,0:0:0:0:
487,214,52769,5,0,3:0:0:0:
347,337,52983,1,0,0:0:0:0:
310,154,53197,2,0,B|395:191|395:191|407:271|407:271|508:320,1,262.500010013581,0|0,0:0|0:0,0:0:0:0:
486,309,53626,5,0,0:0:0:0:
306,237,53840,1,0,3:0:0:0:
133,342,54054,6,0,B|94:286|94:286|136:230|136:230|201:253|201:253|203:315,1,262.500010013581,8|0,1:2|0:0,0:0:0:0:
202,308,54483,2,0,L|118:349,1,75.0000028610231,2|0,3:0|0:0,0:0:0:0:
29,384,54697,1,0,3:0:0:0:
87,175,54911,6,0,B|122:144|122:144|261:190|261:190|303:160,1,224.999993133545,0|0,0:0|0:0,0:0:0:0:
288,172,55554,2,0,B|244:156|244:156|214:12|214:12|167:-8,1,224.999993133545,2|0,0:0|0:0,0:0:0:0:
185,0,56197,2,0,B|193:45|193:45|84:143|84:143|89:194,1,224.999993133545,2|0,0:0|0:0,0:0:0:0:
385,278,57483,6,0,L|389:235,1,37.5000014305115,0|0,1:0|0:0,0:0:0:0:
385,278,57911,6,0,B|397:293|397:293|391:352,1,75.0000028610231,0|0,0:0|0:0,0:0:0:0:
68,88,58340,6,0,B|86:50|86:50|196:58|196:58|212:72|212:72|282:81,1,225.000008583069,0|0,3:0|0:0,0:0:0:0:
342,88,58769,1,0,0:0:0:0:
430,182,58983,2,0,L|346:194,1,75.0000028610231,0|0,3:0|0:0,0:0:0:0:
222,254,59197,6,0,B|293:253|293:253|316:331,1,150.000005722046,0|0,1:2|0:0,0:0:0:0:
252,372,59519,1,0,0:0:0:0:
252,372,59626,2,0,B|216:372|216:372|205:334,1,75.0000028610231,0|0,3:0|0:0,0:0:0:0:
170,180,59840,1,0,0:0:0:0:
40,19,60054,6,0,B|73:27|73:27|91:148,1,150.000005722046,0|0,0:0|0:0,0:0:0:0:
17,192,60376,1,0,0:0:0:0:
15,177,60483,1,0,0:0:0:0:
14,164,60590,2,0,L|2:72,1,75.0000028610231,0|0,0:0|3:0,0:0:0:0:
318,42,60912,6,0,L|338:83,1,38.2500007295609,0|0,1:2|0:0,0:0:0:0:
318,42,61340,6,0,B|300:62|300:62|293:124,1,75.0000028610231,2|0,3:0|0:0,0:0:0:0:
374,271,61554,2,0,B|383:291|383:291|376:357,1,75.0000028610231,0|0,3:0|0:0,0:0:0:0:
444,196,61769,6,0,B|345:183|345:183|331:198|331:198|212:182,1,225.000008583069,0|0,3:0|0:0,0:0:0:0:
154,137,62197,6,0,B|178:182|178:182|151:234,1,100.000003814697,0|0,0:0|0:0,0:0:0:0:
8,147,62483,2,0,B|35:103|35:103|93:100,1,100.000003814697,0|0,0:0|1:2,0:0:0:0:
91,266,62769,2,0,B|39:264|39:264|8:214,1,100.000003814697,0|0,0:0|0:0,0:0:0:0:
87,180,63054,6,0,B|331:167,1,200,0|0,3:0|0:0,0:0:0:0:
286,169,63376,2,0,B|175:145|175:145|73:181,1,209.999993591309,0|0,0:0|0:0,0:0:0:0:
13,223,63697,6,0,L|4:317,1,75.0000028610231,0|0,0:0|0:0,0:0:0:0:
60,365,63911,1,0,0:0:0:0:
229,310,64126,1,2,0:3:0:0:
415,249,64340,6,0,B|394:259|394:259|377:325,1,75.0000028610231,0|0,1:0|0:0,0:0:0:0:
435,365,64554,2,0,B|455:354|455:354|472:288,1,75.0000028610231,0|0,3:0|0:0,0:0:0:0:
373,171,64769,1,8,0:0:0:0:
278,356,64983,6,0,B|264:266,1,75.0000028610231,8|0,0:0|0:0,0:0:0:0:
373,171,65197,2,0,B|304:207,1,75.0000028610231,0|0,3:0|0:0,0:0:0:0:
184,275,65411,5,0,0:0:0:0:
184,275,65519,1,0,0:0:0:0:
184,275,65626,1,0,0:0:0:0:
271,134,65840,2,0,B|286:98|286:98|268:47,1,75.0000028610231,0|0,3:0|0:0,0:0:0:0:
115,49,66054,6,0,L|23:42,1,76.5000014591217,0|0,1:0|0:0,0:0:0:0:
274,64,66269,2,0,L|362:73,1,75.0000028610231,0|0,0:0|0:0,0:0:0:0:
202,1,66483,6,0,B|190:117|190:117|186:117|186:117|175:227,1,225.000008583069,0|0,3:0|0:0,0:0:0:0:
175,220,66885,6,2,L|173:245,6,25
387,292,82340,5,0,0:0:0:0:
423,294,82447,1,0,0:0:0:0:
451,326,82554,1,0,0:0:0:0:
290,318,82769,6,0,P|256:284|255:224,1,100,0|0,0:0|0:0,0:0:0:0:
359,77,83197,2,0,B|398:64|424:109|417:115|432:170|474:155,1,150,8|0,0:1|0:0,0:0:0:0:
493,82,83626,2,0,P|477:52|457:31,1,50,0|0,0:0|0:0,0:0:0:0:
395,0,83840,1,0,0:0:0:0:
217,11,84054,6,0,P|208:76|207:198,1,175,0|0,0:0|0:0,0:0:0:0:
206,185,84483,1,0,0:0:0:0:
266,339,84697,1,2,0:3:0:0:
199,272,84911,6,0,L|132:259,1,50,8|0,0:1|0:0,0:0:0:0:
0,232,85126,2,0,B|-25:211|48:162|108:220|95:289|24:301|39:372|91:384,1,250,0|0,0:0|0:0,0:0:0:0:
150,343,85769,5,0,0:0:0:0:
181,347,85876,1,0,0:0:0:0:
206,373,85983,1,0,0:0:0:0:
281,160,86197,5,0,0:0:0:0:
108,125,86411,1,0,0:0:0:0:
277,243,86626,6,0,L|324:233,4,33.3333333333333,8|0|0|0|0,0:1|0:0|0:0|0:0|0:0,0:0:0:0:
374,185,87054,6,0,P|392:227|389:252,1,50,0|0,0:0|0:0,0:0:0:0:
445,310,87269,2,0,P|466:297|481:277,1,50,0|0,0:0|0:0,0:0:0:0:
499,141,87483,6,0,B|464:141|443:71|474:-32,1,150,0|0,0:0|0:0,0:0:0:0:
467,0,87911,1,0,0:0:0:0:
293,42,88126,1,0,0:0:0:0:
381,23,88340,6,0,P|381:49|369:84,1,50,8|0,0:1|0:0,0:0:0:0:
243,146,88554,2,0,P|232:199|242:247,2,100,0|2|0,0:0|0:3|0:0,0:0:0:0:
141,0,89197,5,0,0:0:0:0:
178,10,89304,1,0,0:0:0:0:
205,39,89411,1,0,0:0:0:0:
114,143,89626,5,0,0:0:0:0:
7,257,89840,1,0,0:0:0:0:
57,73,90054,2,0,B|105:100|34:191|96:217,1,150,8|0,0:1|0:0,0:0:0:0:
107,294,90483,5,0,0:0:0:0:
282,248,90697,1,0,0:0:0:0:
314,339,90911,5,0,0:0:0:0:
314,339,91019,1,0,0:0:0:0:
314,339,91126,2,0,P|253:338|218:354,2,100,0|0|2,0:0|0:0|0:3,0:0:0:0:
497,272,91769,6,0,P|454:250|483:132,1,187.5,8|0,0:1|0:0,0:0:0:0:
498,133,92197,6,0,B|521:168|521:168|504:213,1,75.0000028610231,8|0,0:0|0:0,0:0:0:0:
453,384,92411,1,8,0:0:0:0:
257,297,92626,5,0,0:0:0:0:
277,331,92733,1,0,0:0:0:0:
314,339,92840,2,0,P|330:290|327:202,1,125,0|0,0:0|0:0,0:0:0:0:
381,151,93161,1,0,0:0:0:0:
385,133,93269,2,0,P|373:96|351:71,1,62.5,0|0,0:0|0:0,0:0:0:0:
162,51,93483,6,0,B|122:62|133:135|228:161|268:53,1,187.5,8|0,0:1|0:0,0:0:0:0:
223,0,93911,5,0,0:0:0:0:
82,159,94126,1,0,0:0:0:0:
226,3,94340,1,0,0:0:0:0:
230,251,94554,5,0,0:0:0:0:
181,242,94661,1,0,0:0:0:0:
149,205,94769,1,0,0:0:0:0:
163,156,94876,1,0,0:0:0:0:
209,138,94983,2,0,L|191:220,1,62.5,0|0,0:0|0:0,0:0:0:0:
54,367,95197,6,0,P|29:354|33:270,1,112.500004291535,8|0,0:1|0:0,0:0:0:0:
22,262,95626,6,0,B|61:250|61:250|93:276,1,75.0000028610231,8|0,0:1|0:0,0:0:0:0:
257,376,95840,1,8,0:1:0:0:
54,367,96054,6,0,B|107:377|107:377|273:243|273:243|342:258,1,337.500012874604,0|0,3:0|0:0,0:0:0:0:
379,189,96483,6,0,P|407:211|421:267,1,87.500000834465,0|0,0:0|0:0,0:0:0:0:
257,376,96697,2,0,P|224:349|220:290,1,87.500000834465,0|0,3:0|0:0,0:0:0:0:
95,168,96911,6,0,B|102:150|161:142|163:178|143:209|180:243|244:249|255:193,1,200,8|0,1:2|3:0,0:0:0:0:
235,110,97197,5,0,0:0:0:0:
235,110,97269,5,0,0:0:0:0:
235,110,97340,6,0,B|218:73|136:121|158:167|203:192|173:258|95:287|54:218,1,262.500002503395,0|0,3:0|0:0,0:0:0:0:
22,182,97769,6,0,P|68:154|104:182,1,87.500000834465,2|0,0:0|0:0,0:0:0:0:
306,182,97983,1,2,0:0:0:0:
221,183,98197,1,2,0:0:0:0:
182,140,98411,1,2,0:0:0:0:
180,109,98626,1,2,0:0:0:0:
184,98,98840,6,0,B|197:174|146:157|168:234|168:234|175:232|175:232|163:237|163:237|169:236|169:236|190:309|128:311|154:386,1,312.5,2|0,0:0|0:0,0:0:0:0:
154,379,99483,6,0,B|132:412|27:377|43:215|167:187,1,300,0|0,3:0|0:0,0:0:0:0:
184,98,99911,6,0,P|241:118|266:172,1,100,0|0,0:0|0:0,0:0:0:0:
383,189,100126,2,0,P|338:206|309:252,1,100,0|0,3:0|0:0,0:0:0:0:
239,322,100340,6,0,B|280:333|325:286|257:122|265:73|334:66,1,300,8|0,1:2|0:0,0:0:0:0:
261,149,100769,2,0,B|272:243|323:349|366:365|391:342,1,262.500002503395,0|0,3:0|0:0,0:0:0:0:
463,380,101197,6,0,P|483:371|492:301,1,100,0|0,0:0|0:0,0:0:0:0:
422,113,101411,1,0,0:0:0:0:
297,258,101626,1,0,0:0:0:0:
114,184,101840,1,0,3:0:0:0:
216,35,102054,6,0,P|232:94|221:123,1,87.500000834465,8|0,1:2|0:0,0:0:0:0:
42,224,102269,2,0,B|21:257|21:257|11:260|11:260|20:258|20:258|0:300|29:378,1,150,0|0,0:0|0:0,0:0:0:0:
19,347,102483,5,2,3:0:0:0:
283,337,102697,1,0,3:0:0:0:
27,354,102911,6,0,B|40:383|95:368|118:332|57:294|134:208|259:199|254:294,1,300,0|0,3:0|0:0,0:0:0:0:
283,337,103340,6,0,B|294:386|223:353|208:274|326:223,1,200,0|0,0:0|3:0,0:0:0:0:
397,218,103661,1,0,0:0:0:0:
432,337,103769,6,0,B|410:387|493:364|524:282|400:222,1,225.000008583069,8|0,1:2|0:0,0:0:0:0:
315,232,104197,6,0,P|288:243|257:312,1,100,0|0,3:0|0:0,0:0:0:0:
121,347,104411,2,0,P|101:309|101:278,1,75.0000028610231,0|0,0:0|0:0,0:0:0:0:
121,347,104626,5,0,0:0:0:0:
413,134,106340,6,0,B|434:112|413:67|302:61|323:140|287:221|173:189|164:120,1,300,0|0,3:0|0:0,0:0:0:0:
64,77,106769,6,0,B|40:62|46:8|108:-56|156:17|143:82|116:87,1,200,0|0,0:0|3:0,0:0:0:0:
87,150,107090,1,0,0:0:0:0:
45,218,107197,6,0,B|26:227|20:276|61:316|68:350|77:315|130:285|136:231|113:216,1,225.000008583069,8|0,0:0|0:0,0:0:0:0:
177,150,107626,6,0,P|169:103|120:84,1,100,0|0,3:0|0:0,0:0:0:0:
271,0,107840,2,0,P|257:46|253:97,1,75.0000028610231,0|0,0:0|0:0,0:0:0:0:
297,305,108054,5,0,0:0:0:0:
501,201,108269,1,0,0:0:0:0:
240,197,108483,1,0,0:0:0:0:
138,367,108697,2,0,L|228:373,1,75.0000028610231,0|0,3:0|0:0,0:0:0:0:
406,350,108911,6,0,P|418:306|408:235,1,75.0000028610231,8|0,0:0|0:0,0:0:0:0:
401,49,109126,2,0,B|369:61|361:89|361:89|350:97|350:97|357:109|357:109|349:138|378:174,1,150
373,168,109340,5,2,3:0:0:0:
209,55,109554,2,0,P|247:63|262:89,1,50,0|0,3:0|0:0,0:0:0:0:
373,168,109769,6,0,B|371:246|281:272|281:272|246:176|304:126,1,300,0|0,3:0|0:0,0:0:0:0:
383,166,110197,5,0,0:0:0:0:
295,124,110304,2,0,P|262:118|299:101,2,100,0|0|0,0:0|3:0|0:0,0:0:0:0:
50,146,110626,6,0,P|38:44|111:142,1,300,8|0,1:2|0:0,0:0:0:0:
50,158,111054,5,0,3:0:0:0:
134,140,111161,1,0,0:0:0:0:
134,140,111483,6,0,B|110:98|147:33|226:61|227:107|217:134|217:134|195:205|248:320|442:274|448:98|340:44|264:81|264:81|365:309,1,862.500032901765,0|0,0:0|0:0,0:0:0:0:
360,274,112769,6,0,P|345:297|355:272,1,75.0000028610231,0|0,0:0|0:0,0:0:0:0:
50,240,113197,6,0,B|63:286|40:347|40:347|63:287|125:271,1,225.000008583069,0|0,3:0|0:0,0:0:0:0:
48,231,113625,5,0,0:0:0:0:
131,268,113732,2,0,P|169:283|209:238,1,100,0|0,0:0|3:0,0:0:0:0:
503,153,114054,6,0,P|387:141|472:243,1,300,8|0,1:2|0:0,0:0:0:0:
508,160,114483,5,0,3:0:0:0:
441,243,114590,2,0,P|389:210|396:146,1,100,0|0,0:0|0:0,0:0:0:0:
118,106,114911,6,0,P|152:24|185:143,1,300,0|0,0:0|0:0,0:0:0:0:
123,112,115340,5,0,0:0:0:0:
121,214,115447,2,0,P|140:245|137:209,1,100,0|0,0:0|3:0,0:0:0:0:
434,37,115769,6,0,P|392:122|456:40,1,300,8|0,1:2|0:0,0:0:0:0:
414,107,116197,6,0,P|448:114|438:66,1,100,2|0,3:0|0:0,0:0:0:0:
279,28,116411,6,0,P|292:7|283:32,1,75.0000028610231,0|0,3:0|0:0,0:0:0:0:
208,131,116626,6,0,B|190:149|190:149|201:191|182:233|182:233|134:211|120:169|120:169|95:167,1,225.000008583069,0|0,3:0|0:0,0:0:0:0:
40,115,117054,6,0,P|18:159|28:210,1,87.500000834465,0|0,0:0|0:0,0:0:0:0:
87,349,117269,2,0,P|93:301|20:297,1,131.250001251698,0|0,3:0|0:0,0:0:0:0:
28,293,117483,6,0,L|18:339,2,43.7500004172325,8|0|0,1:2|0:0|0:0,0:0:0:0:
167,377,117697,2,0,P|215:375|242:344,1,87.500000834465,0|0,0:0|0:0,0:0:0:0:
308,172,117911,5,0,3:0:0:0:
257,243,118019,2,0,P|269:264|260:240,1,75.0000028610231,0|0,0:0|0:0,0:0:0:0:
269,250,118340,6,0,L|152:237,1,112.500004291535,0|0,0:0|0:0,0:0:0:0:
100,184,118769,5,0,0:0:0:0:
147,247,118911,1,0,0:0:0:0:
491,141,119197,5,0,0:0:0:0:
43,26,119626,5,0,0:0:0:0:
449,297,120054,6,0,B|458:273|458:273|456:245|422:209|422:209|389:230|368:257|368:257|370:293,1,200,0|0,3:0|0:0,0:0:0:0:
453,307,120376,5,0,0:0:0:0:
363,289,120483,2,0,P|321:281|277:336,1,100,0|0,0:0|0:0,0:0:0:0:
112,340,120697,2,0,P|168:318|201:369,1,131.250001251698,0|0,3:0|0:0,0:0:0:0:
201,369,120911,1,8,1:2:0:0:
37,171,121126,6,0,P|41:256|89:231,2,175.00000166893,0|0|0,0:0|3:0|0:0,0:0:0:0:
188,38,121769,2,0,P|167:161|120:60,1,300,0|0,0:0|0:0,0:0:0:0:
194,33,122197,6,0,P|238:76|241:115,1,100,0|0,0:0|0:0,0:0:0:0:
268,186,122411,2,0,P|312:167|317:140,1,75.0000028610231,0|0,3:0|0:0,0:0:0:0:
421,16,122626,6,0,P|418:72|433:18,1,150,8|0,1:2|0:0,0:0:0:0:
422,45,123054,6,0,P|435:104|461:139,1,75.0000028610231,2|0,3:0|0:0,0:0:0:0:
415,194,123269,2,0,P|393:245|357:271,1,75.0000028610231,0|0,3:0|0:0,0:0:0:0:
406,337,123483,6,0,P|365:286|211:303,1,224.999993133545,0|0,0:0|0:0,0:0:0:0:
218,295,124126,2,0,P|282:284|344:143,1,224.999993133545,0|0,0:0|0:0,0:0:0:0:
346,151,124769,2,0,P|322:212|414:336,1,224.999993133545,0|0,0:0|0:0,0:0:0:0:
225,30,126054,6,0,L|184:23,1,37.5000014305115,0|0,1:0|0:0,0:0:0:0:
225,30,126483,6,0,P|205:73|226:95,1,75.0000028610231,8|0,0:0|0:0,0:0:0:0:
162,155,126697,2,0,P|196:187|223:175,1,75.0000028610231,8|0,0:0|0:0,0:0:0:0:
388,294,126911,6,0,P|432:247|297:234,1,300,0|0,3:0|0:0,0:0:0:0:
377,288,127340,5,0,0:0:0:0:
409,269,127447,1,0,0:0:0:0:
423,237,127554,2,0,P|430:188|475:151,1,100.000003814697,0|0,3:0|0:0,0:0:0:0:
343,22,127769,2,0,P|389:31|407:84,1,100.000003814697,0|0,1:2|0:0,0:0:0:0:
408,76,127983,1,0,0:0:0:0:
186,222,128197,6,0,P|175:269|192:224,2,133.333333333333,0|0|0,3:0|0:0|0:0,0:0:0:0:
262,77,128626,1,0,0:0:0:0:
242,163,128769,2,0,P|216:93|109:84,1,150.000005722046,0|0,0:0|0:0,0:0:0:0:
149,69,129054,6,0,P|115:121|74:127,1,100.000003814697,0|0,0:0|0:0,0:0:0:0:
12,99,129269,2,0,P|53:94|89:116,1,75.0000028610231,0|0,3:0|0:0,0:0:0:0:
186,222,129483,6,0,B|193:254|193:254|163:377,1,150,0|0,1:2|0:0,0:0:0:0:
169,371,129911,6,0,P|123:333|130:303,1,75.0000028610231,2|0,3:0|0:0,0:0:0:0:
261,177,130126,2,0,P|267:143|250:167,1,87.500000834465,0|0,3:0|0:0,0:0:0:0:
186,222,130340,6,0,P|68:248|119:139,1,300,0|0,3:0|0:0,0:0:0:0:
195,217,130769,5,0,0:0:0:0:
228,240,130876,1,0,0:0:0:0:
241,272,130983,2,0,P|246:312|236:353,1,75.0000028610231,0|0,3:0|0:0,0:0:0:0:
55,369,131197,6,0,P|31:367|28:343,2,50.0000019073487,0|0|0,1:2|0:0|0:0,0:0:0:0:
97,299,131411,1,0,0:0:0:0:
117,105,131626,6,0,P|80:58|9:65,2,133.333333333333,0|0|0,3:0|0:0|0:0,0:0:0:0:
137,187,132054,2,0,P|170:129|251:133,1,133.333333333333,0|0,0:0|0:0,0:0:0:0:
231,123,132269,2,0,P|261:164|299:166,1,75.0000028610231,0|0,0:0|0:0,0:0:0:0:
317,272,132483,5,0,0:0:0:0:
352,243,132590,1,0,0:0:0:0:
396,254,132697,1,2,0:3:0:0:
423,106,132911,5,0,1:0:0:0:
461,137,133019,1,0,0:0:0:0:
503,113,133126,1,0,3:0:0:0:
452,33,133340,6,0,P|356:64|357:144,1,175.00000166893,8|8,0:0|0:0,0:0:0:0:
363,125,133769,6,0,B|349:101|342:62|399:17|449:43|449:43|425:96|353:99|329:41,1,300,0|0,3:0|0:0,0:0:0:0:
260,44,134197,6,0,P|189:30|159:84,1,133.333333333333
165,77,134411,2,0,P|207:104|198:163,1,75.0000028610231,0|0,3:0|0:0,0:0:0:0:
230,225,134626,5,0,1:0:0:0:
79,269,134769,1,0,0:0:0:0:
189,373,134911,1,0,0:0:0:0:
161,294,135054,6,0,P|122:254|-10:340,1,225.000008583069,0|0,3:0|0:0,0:0:0:0:
0,314,135483,6,0,B|14:252|74:239|117:242|150:280|148:301|148:301|98:305|92:256,1,262.500002503395,0|0,0:0|0:0,0:0:0:0:
32,173,135912,6,0,P|43:134|46:167,2,116.666667779287,0|0|0,0:0|0:0|0:0,0:0:0:0:
130,179,136340,5,0,1:0:0:0:
273,158,136483,1,0,0:0:0:0:
301,298,136626,1,0,0:0:0:0:
323,83,136769,5,0,3:0:0:0:
170,313,136983,5,0,3:0:0:0:
326,86,137197,6,0,P|323:64|316:85,1,59.9999981689454,2|2,3:2|0:2,0:0:0:0:
128,150,137840,6,0,P|98:132|123:158,1,100,0|0,3:2|0:0,0:0:0:0:
138,340,138483,6,0,P|94:354|143:351,1,139.999995727539,2|2,3:2|0:2,0:0:0:0:
457,274,140626,6,0,P|456:302|431:311,1,59.9999981689454,2|2,3:2|0:2,0:0:0:0:
296,122,141269,6,0,P|296:96|235:78,1,100,0|0,3:2|0:0,0:0:0:0:
148,281,141912,6,0,P|143:318|51:340,2,139.999995727539,2|2|2,3:2|0:2|0:2,0:0:0:0:
85,224,142983,2,0,L|79:184,1,34.9999989318848,0|0,3:0|0:0,0:0:0:0:
126,30,143197,6,0,L|133:-4,2,29.9999990844727,10|0|2,0:2|0:0|3:2,0:0:0:0:
57,79,143840,1,0,3:2:0:0:
322,46,144054,6,0,B|339:42|350:53|350:53|338:62|320:51,1,59.9999981689454,2|2,3:2|0:2,0:0:0:0:
187,164,144697,6,0,B|161:154|140:175|140:175|164:190|187:171,1,100,0|0,3:2|0:0,0:0:0:0:
385,250,145340,6,0,B|417:230|447:266|447:266|409:287|382:256,2,139.999995727539,2|2|2,3:2|0:2|0:2,0:0:0:0:
308,226,146411,2,0,L|271:238,1,34.9999989318848
106,355,146626,6,0,L|68:347,2,29.9999990844727,10|0|6,0:2|0:0|0:2,0:0:0:0:
164,300,147269,1,4,0:0:0:0:
71,118,147483,6,0,B|61:107|44:107|44:107|32:116|35:134,1,59.9999981689454,2|2,3:2|0:2,0:0:0:0:
251,181,148126,6,0,B|246:207|225:223|225:223|193:216|183:196,1,100,0|0,3:2|0:0,0:0:0:0:
459,138,148769,6,0,B|462:106|421:85|421:85|379:94|368:130,1,139.999995727539,2|0,3:2|0:0,0:0:0:0:
349,363,149412,6,0,L|394:355,1,44.999998626709
396,357,149840,2,0,L|400:340,1,14.9999995422363,0|0,3:0|0:0,0:0:0:0:
459,138,150054,6,0,B|451:117|451:117|453:140,1,44.999998626709,10|0,0:2|0:0,0:0:0:0:
476,217,150483,5,2,3:2:0:0:
90,25,150911,5,6,0:0:0:0:
79,42,151340,1,2,0:0:0:0:
120,171,151554,1,2,0:3:0:0:
68,304,151769,1,2,0:0:0:0:
81,287,152197,1,2,0:0:0:0:
97,289,152304,1,0,0:0:0:0:
112,298,152411,1,2,0:3:0:0:
258,254,152626,1,2,0:0:0:0:
274,266,153054,1,2,0:0:0:0:
254,349,153269,1,2,0:3:0:0:
382,246,153483,1,2,0:0:0:0:
392,256,153590,1,0,0:0:0:0:
378,259,153697,1,2,0:3:0:0:
497,170,153911,1,2,0:0:0:0:
254,349,154340,1,2,0:0:0:0:
242,364,154769,5,2,0:0:0:0:
175,226,154983,1,2,0:3:0:0:
241,83,155197,1,2,0:0:0:0:
254,98,155626,1,2,0:0:0:0:
267,106,155733,1,0,0:0:0:0:
285,109,155840,1,2,0:3:0:0:
300,106,155947,1,0,0:0:0:0:
313,97,156054,1,2,0:0:0:0:
327,110,156483,1,2,0:0:0:0:
404,90,156697,1,2,0:3:0:0:
322,239,156911,1,2,0:0:0:0:
317,224,157125,1,2,0:3:0:0:
299,230,157340,1,2,0:0:0:0:
304,245,157554,1,2,0:3:0:0:
449,337,157769,1,2,0:0:0:0:
437,354,158197,5,2,0:0:0:0:
261,367,158411,1,2,0:3:0:0:
182,209,158626,1,2,0:0:0:0:
195,196,159054,1,2,0:0:0:0:
300,225,159269,1,2,0:3:0:0:
405,168,159483,1,2,0:0:0:0:
395,161,159590,1,0,0:0:0:0:
382,163,159697,1,2,0:3:0:0:
427,265,159911,1,2,0:0:0:0:
512,169,160126,1,2,0:3:0:0:
304,314,160340,1,2,0:0:0:0:
47,29,160769,1,2,0:0:0:0:
304,314,161197,1,2,0:0:0:0:
287,318,161519,5,0,0:0:0:0:
273,307,161626,1,2,0:0:0:0:
265,289,161733,1,0,0:0:0:0:
265,271,161840,1,2,0:3:0:0:
201,218,162054,1,2,0:0:0:0:
327,79,162376,1,0,0:0:0:0:
317,91,162483,1,2,0:0:0:0:
491,60,162697,1,2,0:3:0:0:
321,95,162911,1,2,0:0:0:0:
428,186,163126,1,2,0:3:0:0:
410,186,163233,1,0,0:0:0:0:
407,199,163340,1,2,0:0:0:0:
391,204,163447,1,0,0:0:0:0:
391,221,163554,1,2,0:3:0:0:
484,296,163769,1,2,0:0:0:0:
495,292,164197,6,0,P|470:304|488:283,1,74.9999977111817,2|0,0:0|0:0,0:0:0:0:
484,296,164626,6,0,B|425:281|425:281|393:62|393:62|332:48,1,337.500012874604,0|0,3:0|0:0,0:0:0:0:
267,10,165054,6,0,P|230:32|215:112,1,112.500004291535,0|0,0:0|0:0,0:0:0:0:
305,195,165269,2,0,P|327:248|282:299,1,112.500004291535,0|0,3:0|0:0,0:0:0:0:
228,348,165483,6,0,B|181:309|211:178|314:285|331:138|262:87,1,250,8|0,1:2|3:0,0:0:0:0:
210,95,165769,5,0,0:0:0:0:
192,97,165840,5,0,0:0:0:0:
178,109,165911,6,0,B|152:135|152:181|160:274|255:213|325:202|389:285|330:367,1,375,0|0,3:0|0:0,0:0:0:0:
332,364,166340,5,2,0:0:0:0:
132,164,166554,5,2,0:0:0:0:
359,160,166769,5,2,0:0:0:0:
161,307,166983,5,2,0:0:0:0:
248,75,167197,5,2,0:0:0:0:
248,75,167411,2,0,B|267:36|228:9|228:9|238:2|238:2|172:-6|123:101|179:157|241:168,1,312.5,2|0,0:0|0:0,0:0:0:0:
251,78,168054,6,0,P|144:159|28:344,1,337.500012874604,0|0,3:0|0:0,0:0:0:0:
109,376,168483,6,0,P|171:358|171:289,1,112.500004291535,0|0,0:0|0:0,0:0:0:0:
217,161,168697,2,0,P|215:206|260:269,1,112.500004291535,0|0,3:0|0:0,0:0:0:0:
302,366,168911,6,0,B|346:384|403:333|393:277|355:209|365:115|437:98|455:119,1,337.500012874604,8|0,1:2|0:0,0:0:0:0:
479,208,169340,2,0,B|463:237|394:250|320:198|280:91|319:9,1,337.500012874604,0|0,3:0|0:0,0:0:0:0:
405,12,169769,6,0,P|434:56|447:118,1,112.500004291535,0|0,0:0|0:0,0:0:0:0:
325,284,169983,1,0,0:0:0:0:
228,169,170197,1,0,0:0:0:0:
465,323,170411,1,0,3:0:0:0:
189,383,170626,6,0,P|131:332|146:279,1,112.500004291535,8|0,1:2|0:0,0:0:0:0:
16,114,170840,2,0,B|41:125|52:150|52:150|58:142|58:142|52:150|52:150|73:198|43:264,1,168.750006437302,0|0,0:0|0:0,0:0:0:0:
51,245,171054,5,2,3:0:0:0:
211,63,171269,1,0,3:0:0:0:
58,254,171483,6,0,B|64:178|181:153|232:189|197:294|295:284|343:256,1,337.500012874604,0|0,3:0|0:0,0:0:0:0:
388,196,171911,6,0,B|426:136|439:82|361:51|319:48|297:125|354:145,1,225.000008583069,0|0,0:0|3:0,0:0:0:0:
388,196,172233,1,0,0:0:0:0:
425,282,172340,6,0,B|454:293|401:354|365:333|307:272|342:229|401:190,1,225.000008583069,8|0,1:2|0:0,0:0:0:0:
463,156,172769,6,0,P|448:102|403:71,1,112.500004291535,0|0,3:0|0:0,0:0:0:0:
298,6,172983,2,0,P|251:30|241:87,1,87.500000834465,0|0,0:0|0:0,0:0:0:0:
129,164,173197,5,0,0:0:0:0:
372,264,173411,1,0,0:0:0:0:
162,249,173626,1,0,0:0:0:0:
428,187,173840,1,0,0:0:0:0:
287,335,174054,6,0,P|269:310|287:251,1,87.500000834465,8|0,1:2|0:0,0:0:0:0:
366,82,174269,2,0,B|325:89|303:142|303:142|319:139|319:139|303:143|303:143|282:182|247:190|203:168,2,225.000008583069,0|8|8,3:0|0:0|0:0,0:0:0:0:
162,17,174911,6,0,B|103:-8|26:67|49:235|221:139|125:301,1,337.500012874604,0|0,3:0|0:0,0:0:0:0:
62,252,175340,6,0,B|110:161|209:191|225:266|158:296|121:273,1,225.000008583069,0|0,0:0|3:0,0:0:0:0:
62,252,175661,1,0,0:0:0:0:
0,191,175769,6,0,B|-19:186|-18:113|56:98|122:177|58:257,1,225.000008583069,8|0,0:0|0:0,0:0:0:0:
25,323,176197,6,0,P|57:368|125:383,1,112.500004291535,0|0,3:0|0:0,0:0:0:0:
280,186,176411,2,0,P|239:199|224:239,1,87.500000834465,0|0,0:0|0:0,0:0:0:0:
238,343,176626,5,0,0:0:0:0:
248,66,176840,1,0,0:0:0:0:
327,293,177054,1,0,0:0:0:0:
153,72,177269,2,0,P|127:102|136:153,1,87.500000834465,0|0,3:0|0:0,0:0:0:0:
280,186,177483,6,0,B|304:195|304:195|432:165,1,150,8|0,0:0|0:0,0:0:0:0:
489,117,177911,6,0,B|463:79|485:9|485:9|463:78|405:90,1,225.000008583069,2|0,3:0|0:0,0:0:0:0:
411,88,178126,1,0,3:0:0:0:
