osu file format v14

[General]
AudioFilename: audio.mp3
AudioLeadIn: 0
PreviewTime: 96430
Countdown: 0
SampleSet: Soft
StackLeniency: 0.7
Mode: 0
LetterboxInBreaks: 0
WidescreenStoryboard: 1

[Editor]
Bookmarks: 13769,27483,41197,44626,54912,58340,68626,82340,96055,109769,116626,123483,126912,137197,150912,164626,178126,181769
DistanceSpacing: 1.5
BeatDivisor: 6
GridSize: 16
TimelineZoom: 1.7

[Metadata]
Title:Lemonade (feat. Gunna, Don Toliver & NAV)
TitleUnicode:Lemonade (feat. Gunna, Don Toliver & NAV)
Artist:Internet Money
ArtistUnicode:Internet Money
Creator:Mimari
Version:Summer
Source:
Tags:english hip hop trap rap b4 the storm jamesjan3 mayflower taz taylor nick mira
BeatmapID:2679078
BeatmapSetID:1290613

[Difficulty]
HPDrainRate:6
CircleSize:4.3
OverallDifficulty:8.2
ApproachRate:9.2
SliderMultiplier:2
SliderTickRate:1

[Events]
//Background and Video events
0,0,"ahh jamesjan3 is my favorite mapper desu OWO~.png",0,0
//Break Periods
2,29397,30342
2,68826,81770
2,97969,98913
2,104826,105770
2,151112,163769
2,166541,167485
//Storyboard Layer 0 (Background)
//Storyboard Layer 1 (Fail)
//Storyboard Layer 2 (Pass)
//Storyboard Layer 3 (Foreground)
//Storyboard Layer 4 (Overlay)
//Storyboard Sound Samples

[TimingPoints]
55,428.571428571429,4,2,1,70,1,0
13769,-100,4,2,11,53,0,0
13876,-100,4,2,11,53,0,0
14626,-111.111111111111,4,2,11,53,0,0
15483,-125,4,2,11,53,0,0
17197,-100,4,2,11,53,0,0
18055,-111.111111111111,4,2,11,53,0,0
18912,-125,4,2,11,53,0,0
19769,-100,4,2,11,53,0,0
19983,-111.111111111111,4,2,11,53,0,0
20197,-125,4,2,11,53,0,0
20733,-100,4,2,11,53,0,0
21912,-111.111111111111,4,2,11,53,0,0
23197,-90.9090909090909,4,2,11,53,0,0
23626,-71.4285714285714,4,2,11,53,0,0
24055,-100,4,2,11,53,0,0
24912,-111.111111111111,4,2,11,53,0,0
25340,-100,4,2,11,53,0,0
27055,-83.3333333333333,4,2,11,53,0,0
27269,-71.4285714285714,4,2,11,53,0,0
27483,-50,4,2,1,70,0,0
28340,-62.5,4,2,1,49,0,0
28555,-62.5,4,2,2,70,0,0
28769,-50,4,2,3,70,0,0
29197,-50,4,2,13,70,0,0
30912,-50,4,2,4,70,0,0
31769,-62.5,4,2,1,49,0,0
32197,-50,4,2,5,70,0,0
33483,-50,4,2,1,49,0,0
33697,-71.4285714285714,4,2,1,49,0,0
33912,-71.4285714285714,4,2,5,70,0,0
34340,-50,4,2,2,70,0,0
34769,-62.5,4,2,2,70,0,0
35197,-50,4,2,1,49,0,0
35626,-50,4,2,6,70,0,0
36055,-62.5,4,2,6,70,0,0
36697,-50,4,2,6,70,0,0
36912,-50,4,2,1,49,0,0
37126,-50,4,2,6,70,0,0
37340,-50,4,2,1,49,0,0
37769,-50,4,2,4,70,0,0
38197,-62.5,4,2,4,70,0,0
38626,-50,4,2,1,49,0,0
39055,-50,4,2,5,70,0,0
40340,-62.5,4,2,1,49,0,0
40769,-71.4285714285714,4,2,5,70,0,0
40983,-41.6666666666667,4,2,5,70,0,0
41197,-41.6666666666667,4,2,13,50,0,0
43769,-250,4,2,13,50,0,0
44626,-55.5555555555556,4,2,4,70,0,0
45055,-66.6666666666667,4,2,4,70,0,0
45483,-58.8235294117647,4,2,1,49,0,0
45911,-58.8235294117647,4,2,5,70,0,0
46769,-66.6666666666667,4,2,5,70,0,0
47197,-60.6060606060606,4,2,1,49,0,0
47626,-60.6060606060606,4,2,5,70,0,0
47840,-51.2820512820513,4,2,5,70,0,0
48054,-51.2820512820513,4,2,2,70,0,0
48055,-55.5555555555556,4,2,2,70,0,0
48911,-55.5555555555556,4,2,1,49,0,0
48912,-66.6666666666667,4,2,1,49,0,0
49126,-66.6666666666667,4,2,1,70,0,0
49340,-58.8235294117647,4,2,6,70,0,0
49769,-222.222222222221,4,2,6,70,0,0
50626,-222.222222222221,4,2,1,49,0,0
50840,-222.222222222221,4,2,6,70,0,0
51054,-222.222222222221,4,2,1,49,0,0
51483,-55.5555555555556,4,2,4,70,0,0
52340,-55.5555555555556,4,2,1,49,0,0
52769,-58.8235294117647,4,2,5,70,0,0
53626,-66.6666666666667,4,2,5,70,0,0
54054,-66.6666666666667,4,2,1,49,0,0
54055,-55.5555555555556,4,2,1,49,0,0
54483,-67.5675675675676,4,2,5,70,0,0
54697,-100,4,2,5,70,0,0
54912,-142.857142857143,4,2,5,70,0,0
55340,-142.857142857143,4,2,13,70,0,0
57483,-55.5555555555556,4,2,1,70,0,0
57912,-111.111111111111,4,2,1,70,0,0
58340,-58.8235294117647,4,2,5,70,0,0
59197,-76.9230769230769,4,2,1,70,0,0
59625,-76.9230769230769,4,2,5,70,0,0
60911,-76.9230769230769,4,2,1,70,0,0
60912,-58.8235294117647,4,2,1,70,0,0
61340,-66.6666666666667,4,2,5,70,0,0
61768,-66.6666666666667,4,2,2,70,0,0
61769,-58.8235294117647,4,2,2,70,0,0
62625,-58.8235294117647,4,2,1,70,0,0
63054,-58.8235294117647,4,2,6,70,0,0
63055,-66.6666666666667,4,2,6,70,0,0
64340,-58.8235294117647,4,2,1,70,0,0
64554,-58.8235294117647,4,2,6,70,0,0
64768,-58.8235294117647,4,2,1,70,0,0
64983,-66.6666666666667,4,2,1,70,0,0
65197,-55.5555555555556,4,2,4,70,0,0
66054,-55.5555555555556,4,2,1,70,0,0
66055,-58.8235294117647,4,2,1,70,0,0
66483,-55.5555555555556,4,2,5,70,0,0
66885,-250,4,2,13,70,0,0
68626,-250,4,2,12,40,0,0
82340,-100,4,2,11,53,0,0
82769,-111.111111111111,4,2,11,53,0,0
84055,-125,4,2,11,53,0,0
85769,-100,4,2,11,53,0,0
86626,-111.111111111111,4,2,11,53,0,0
87483,-125,4,2,11,53,0,0
88340,-100,4,2,11,53,0,0
88555,-111.111111111111,4,2,11,53,0,0
88769,-125,4,2,11,53,0,0
89197,-100,4,2,11,53,0,0
90483,-111.111111111111,4,2,11,53,0,0
91769,-90.9090909090908,4,2,11,53,0,0
92197,-71.4285714285714,4,2,11,53,0,0
92626,-100,4,2,11,53,0,0
93483,-111.111111111111,4,2,11,53,0,0
93912,-100,4,2,11,53,0,0
95626,-83.3333333333333,4,2,11,53,0,0
95840,-71.4285714285714,4,2,11,53,0,0
96055,-50,4,2,1,70,0,0
96912,-62.5,4,2,1,49,0,0
97127,-62.5,4,2,2,70,0,0
97340,-50,4,2,2,70,0,0
97341,-50,4,2,3,70,0,0
97769,-50,4,2,13,70,0,0
99484,-50,4,2,4,70,0,0
100340,-62.5,4,2,4,70,0,0
100341,-62.5,4,2,1,49,0,0
100769,-50,4,2,5,70,0,0
102055,-50,4,2,1,49,0,0
102269,-71.4285714285714,4,2,1,49,0,0
102484,-71.4285714285714,4,2,5,70,0,0
102912,-50,4,2,2,70,0,0
103340,-62.5,4,2,2,70,0,0
103769,-50,4,2,1,49,0,0
104198,-50,4,2,6,70,0,0
105484,-50,4,2,1,49,0,0
105698,-50,4,2,6,70,0,0
105912,-50,4,2,1,49,0,0
106341,-50,4,2,4,70,0,0
106769,-62.5,4,2,4,70,0,0
107197,-50,4,2,4,70,0,0
107198,-50,4,2,1,49,0,0
107627,-50,4,2,5,70,0,0
108912,-62.5,4,2,1,49,0,0
109340,-71.4285714285714,4,2,1,49,0,0
109341,-71.4285714285714,4,2,5,70,0,0
109555,-41.6666666666667,4,2,5,70,0,0
109769,-50,4,2,1,70,0,0
110412,-66.6666666666667,4,2,1,70,0,0
110626,-50,4,2,1,49,0,0
110840,-50,4,2,2,70,0,0
111055,-50,4,2,3,70,0,0
111483,-125,4,2,3,70,0,0
112769,-66.6666666666667,4,2,3,70,0,0
113197,-50,4,2,3,70,0,0
113198,-50,4,2,4,70,0,0
113733,-66.6666666666667,4,2,4,70,0,0
114055,-50,4,2,1,49,0,0
114483,-50,4,2,5,70,0,0
114590,-66.6666666666667,4,2,5,70,0,0
114912,-50,4,2,5,70,0,0
115447,-66.6666666666667,4,2,5,70,0,0
115769,-50,4,2,1,49,0,0
116198,-50,4,2,5,70,0,0
116412,-41.6666666666667,4,2,5,70,0,0
116626,-50,4,2,2,70,0,0
117055,-66.6666666666667,4,2,2,70,0,0
117483,-66.6666666666667,4,2,1,49,0,0
117698,-66.6666666666667,4,2,1,70,0,0
117912,-66.6666666666667,4,2,6,70,0,0
118340,-125,4,2,6,70,0,0
118662,-125,4,2,6,5,0,0
118769,-125,4,2,6,70,0,0
119198,-125,4,2,1,49,0,0
119412,-125,4,2,6,70,0,0
119626,-125,4,2,1,49,0,0
120055,-50,4,2,4,70,0,0
120483,-66.6666666666667,4,2,4,70,0,0
120697,-50,4,2,4,70,0,0
120912,-50,4,2,1,49,0,0
121341,-50,4,2,5,70,0,0
122197,-66.6666666666667,4,2,5,70,0,0
122626,-50,4,2,1,49,0,0
123055,-50,4,2,5,70,0,0
123269,-41.6666666666667,4,2,5,70,0,0
123483,-125,4,2,5,70,0,0
124769,-166.666666666667,4,2,5,70,0,0
126055,-66.6666666666667,4,2,1,70,0,0
126697,-50,4,2,1,70,0,0
126912,-50,4,2,4,70,0,0
127555,-66.6666666666667,4,2,4,70,0,0
127769,-66.6666666666667,4,2,1,70,0,0
128197,-50,4,2,5,70,0,0
128769,-66.6666666666667,4,2,5,70,0,0
129055,-50,4,2,5,70,0,0
129483,-50,4,2,1,70,0,0
129912,-50,4,2,5,70,0,0
130340,-50,4,2,2,70,0,0
130983,-66.6666666666667,4,2,2,70,0,0
131197,-66.6666666666667,4,2,1,70,0,0
131626,-66.6666666666667,4,2,6,70,0,0
132055,-50,4,2,6,70,0,0
132912,-66.6666666666667,4,2,1,70,0,0
133126,-50,4,2,6,70,0,0
133340,-50,4,2,1,70,0,0
133555,-41.6666666666667,4,2,1,70,0,0
133769,-50,4,2,4,70,0,0
134626,-50,4,2,1,70,0,0
135055,-66.6666666666667,4,2,5,70,0,0
135483,-50,4,2,5,70,0,0
136340,-50,4,2,1,70,0,0
136769,-50,4,2,5,70,0,0
137197,-250,4,2,13,53,0,0
137840,-200,4,2,13,53,0,0
138483,-166.666666666667,4,2,13,53,0,0
140626,-250,4,2,13,53,0,0
141269,-200,4,2,13,53,0,0
141912,-166.666666666667,4,2,13,53,0,0
144055,-250.000000000001,4,2,13,53,0,0
144697,-200,4,2,13,53,0,0
145340,-166.666666666667,4,2,13,53,0,0
147483,-250.000000000001,4,2,13,53,0,0
148126,-200,4,2,13,53,0,0
148769,-166.666666666667,4,2,13,53,0,0
150912,-166.666666666667,4,2,12,53,0,0
164626,-45.4545454545455,4,2,1,70,0,0
165483,-55.5555555555556,4,2,1,49,0,0
165698,-55.5555555555556,4,2,2,70,0,0
165912,-45.4545454545455,4,2,3,70,0,0
166340,-45.4545454545455,4,2,13,70,0,0
168055,-45.4545454545455,4,2,4,70,0,0
168912,-55.5555555555556,4,2,1,49,0,0
169340,-45.4545454545455,4,2,5,70,0,0
170626,-45.4545454545455,4,2,1,49,0,0
170840,-62.5,4,2,1,49,0,0
171055,-62.5,4,2,5,70,0,0
171483,-45.4545454545455,4,2,2,70,0,0
171912,-55.5555555555556,4,2,2,70,0,0
172340,-45.4545454545455,4,2,1,49,0,0
172769,-45.4545454545455,4,2,6,70,0,0
173197,-55.5555555555556,4,2,6,70,0,0
173840,-45.4545454545455,4,2,6,70,0,0
174055,-45.4545454545455,4,2,1,49,0,0
174269,-45.4545454545455,4,2,6,70,0,0
174483,-45.4545454545455,4,2,1,49,0,0
174912,-45.4545454545455,4,2,4,70,0,0
175340,-55.5555555555556,4,2,4,70,0,0
175769,-45.4545454545455,4,2,1,49,0,0
176198,-45.4545454545455,4,2,5,70,0,0
177483,-55.5555555555556,4,2,1,49,0,0
177912,-41.6666666666667,4,2,5,70,0,0
178126,-35.7142857142857,4,2,5,70,0,0
178340,-35.7142857142857,4,2,1,70,0,0
179947,-35.7142857142857,4,2,1,5,0,0
180055,-35.7142857142857,4,2,1,35,0,0
181769,-35.7142857142857,4,2,1,15,0,0

[Colours]
Combo1 : 227,228,220
Combo2 : 233,225,169
Combo3 : 162,201,234

[HitObjects]
57,63,13769,5,0,0:0:0:0:
55,68,13822,1,0,0:0:0:0:
53,73,13876,6,0,B|98:49|125:89|114:95|144:143|222:97,1,150,0|0,0:0|0:0,0:0:0:0:
278,36,14412,1,0,0:0:0:0:
302,148,14626,2,0,P|244:161|209:237,1,134.999995880127,8|0,0:1|0:0,0:0:0:0:
155,289,15054,5,0,0:0:0:0:
155,289,15161,1,0,0:0:0:0:
155,289,15268,2,0,P|168:309|169:337,1,44.999998626709,0|0,0:0|0:0,0:0:0:0:
209,224,15483,6,0,B|164:200|135:245|146:254|112:297|36:248,1,160,0|0,0:0|0:0,0:0:0:0:
1,189,16126,1,2,0:3:0:0:
79,244,16340,2,0,B|114:255|140:233|127:226|155:194|201:212,1,120,8|0,0:1|0:0,0:0:0:0:
198,218,16769,1,8,0:0:0:0:
172,299,16983,1,8,0:0:0:0:
52,59,17197,6,0,B|114:34|146:83|126:92|169:156|250:107,1,200,0|0,0:0|0:0,0:0:0:0:
318,63,17840,1,0,0:0:0:0:
424,14,18055,2,0,P|364:10|315:82,1,134.999995880127,8|0,0:1|0:0,0:0:0:0:
371,124,18483,5,0,0:0:0:0:
371,124,18590,1,0,0:0:0:0:
371,124,18697,2,0,L|417:116,1,44.999998626709,0|0,0:0|0:0,0:0:0:0:
357,203,18912,6,0,B|381:158|336:129|327:140|284:106|333:30,1,160,0|0,0:0|0:0,0:0:0:0:
243,0,19554,1,0,0:0:0:0:
192,89,19769,6,0,P|192:113|201:136,1,50,8|0,0:1|0:0,0:0:0:0:
277,208,19983,2,0,P|276:232|256:277,1,44.999998626709,0|0,0:0|0:0,0:0:0:0:
180,81,20197,2,0,P|178:120|199:154,1,80,2|0,0:3|0:0,0:0:0:0:
349,271,20626,5,0,0:0:0:0:
351,276,20679,1,0,0:0:0:0:
353,281,20733,6,0,B|308:257|281:297|292:303|262:351|184:305,1,150,0|0,0:0|0:0,0:0:0:0:
130,233,21269,1,0,0:0:0:0:
104,377,21483,6,0,P|116:366|119:345,1,25,8|0,0:1|0:0,0:0:0:0:
81,94,21912,6,0,P|51:120|47:187,1,89.9999972534181,0|0,0:0|0:0,0:0:0:0:
87,246,22340,5,0,0:0:0:0:
87,246,22447,1,0,0:0:0:0:
87,246,22554,2,0,P|110:236|154:232,1,44.999998626709,0|0,0:0|0:0,0:0:0:0:
224,115,22769,6,0,P|184:112|134:158,1,89.9999972534181,0|2,0:0|0:3,0:0:0:0:
301,377,23197,6,0,B|271:335|310:293|317:311|360:269|304:203,1,165.000005035401,8|0,0:1|0:0,0:0:0:0:
305,154,23626,2,0,P|381:182|391:258,1,139.999995727539,8|8,0:0|0:0,0:0:0:0:
211,321,24055,6,0,B|166:297|139:337|150:343|120:391|42:345,1,150,0|0,0:0|0:0,0:0:0:0:
41,296,24483,1,0,0:0:0:0:
41,296,24590,1,0,0:0:0:0:
41,296,24697,6,0,L|31:224,1,50,0|0,0:0|0:0,0:0:0:0:
151,86,24912,2,0,P|139:156|127:228,1,134.999995880127,8|0,0:1|0:0,0:0:0:0:
200,245,25340,2,0,P|241:238|269:166,1,100,0|0,0:0|0:0,0:0:0:0:
151,86,25769,6,0,P|106:86|66:35,1,100,0|0,0:0|0:0,0:0:0:0:
120,0,26090,1,0,0:0:0:0:
120,0,26197,2,0,L|183:16,1,50,0|0,0:0|0:0,0:0:0:0:
58,151,26412,2,0,L|9:163,1,50,0|0,0:0|0:0,0:0:0:0:
202,353,26626,6,0,P|213:343|215:319,1,25,8|0,0:1|0:0,0:0:0:0:
195,364,27055,6,0,L|205:298,1,59.9999981689454,8|0,0:1|0:0,0:0:0:0:
242,100,27269,6,0,L|257:192,1,69.9999978637696,8|0,0:1|0:0,0:0:0:0:
419,311,27483,6,0,B|411:259|594:253|470:96|425:130|378:199|440:274,1,300,0|0,3:0|0:0,0:0:0:0:
512,384,27911,5,0,0:0:0:0:
260,262,28126,2,0,P|312:245|350:271,1,100,0|0,3:0|0:0,0:0:0:0:
301,382,28340,6,0,B|244:318|318:264|328:284|386:216|285:130,1,240,8|0,1:2|0:0,0:0:0:0:
378,58,28769,6,0,B|311:143|415:184|396:203|507:243|373:387,1,300,0|0,3:0|0:0,0:0:0:0:
375,384,29197,1,2,0:0:0:0:
86,105,30912,6,0,B|114:138|30:218|-53:21|100:-16|190:21|211:112,1,300,0|0,3:0|0:0,0:0:0:0:
138,228,31340,5,0,0:0:0:0:
138,20,31555,2,0,P|184:36|210:96,1,100,0|0,3:0|0:0,0:0:0:0:
29,223,31769,6,0,B|53:197|85:203|85:203|178:269|178:269|223:289|280:218,1,240,8|0,1:2|0:0,0:0:0:0:
346,284,32197,6,0,B|315:257|280:264|280:264|175:362|175:362|124:381|78:321,1,300,0|0,3:0|0:0,0:0:0:0:
15,300,32626,1,0,0:0:0:0:
253,186,32840,1,0,0:0:0:0:
156,374,33055,5,0,0:0:0:0:
158,365,33108,1,0,0:0:0:0:
160,357,33162,1,0,0:0:0:0:
158,267,33269,2,0,P|112:283|86:343,1,100,0|0,3:0|0:0,0:0:0:0:
163,347,33483,1,8,1:2:0:0:
262,109,33697,6,0,P|301:120|325:161,1,69.9999978637696,0|0,0:0|0:0,0:0:0:0:
253,186,33912,1,2,3:0:0:0:
0,106,34126,1,0,3:0:0:0:
155,5,34340,6,0,B|276:39|262:152|154:231|86:62|209:64,1,300,0|0,3:0|0:0,0:0:0:0:
301,36,34769,2,0,B|348:9|432:72|342:135|433:193|513:149,1,240,0|0,0:0|0:0,0:0:0:0:
512,97,35197,6,0,B|459:46|347:82|424:186|323:231|241:173,1,300,8|0,1:2|0:0,0:0:0:0:
226,127,35626,1,0,3:0:0:0:
512,237,35840,1,0,0:0:0:0:
283,335,36055,6,0,P|282:309|282:335,1,80,0|0,0:0|0:0,0:0:0:0:
353,227,36269,2,0,P|333:235|351:226,1,80,0|0,0:0|0:0,0:0:0:0:
406,359,36483,1,0,0:0:0:0:
165,199,36697,6,0,P|126:210|90:278,1,100,2|0,0:3|0:0,0:0:0:0:
166,285,36912,1,8,1:2:0:0:
177,277,37019,1,0,0:0:0:0:
166,276,37126,1,0,3:0:0:0:
310,66,37340,6,0,P|271:55|235:-13,1,100,8|0,0:0|0:0,0:0:0:0:
450,60,37555,2,0,P|389:91|353:159,1,100,8|0,0:0|0:0,0:0:0:0:
475,352,37769,6,0,B|407:322|385:230|385:230|398:324|336:377,1,300,0|0,3:0|0:0,0:0:0:0:
270,338,38197,2,0,B|403:286|403:286|476:277|483:375,1,240,0|0,0:0|0:0,0:0:0:0:
508,186,38626,6,0,B|515:273|436:287|436:287|291:215,1,300,8|0,0:0|0:0,0:0:0:0:
265,143,39055,1,0,3:0:0:0:
293,138,39162,1,0,0:0:0:0:
322,149,39269,1,0,0:0:0:0:
141,275,39483,5,0,0:0:0:0:
97,26,39697,1,0,0:0:0:0:
291,222,39912,5,0,0:0:0:0:
289,227,39965,1,0,0:0:0:0:
287,233,40019,1,0,0:0:0:0:
265,143,40126,6,0,P|219:159|193:219,1,100,0|0,3:0|0:0,0:0:0:0:
214,279,40340,2,0,P|198:213|275:152,1,160,8|0,1:2|0:0,0:0:0:0:
491,79,40769,6,0,P|476:93|491:80,1,69.9999978637696,2|0,3:0|0:0,0:0:0:0:
393,15,40983,6,0,P|400:30|395:17,1,119.999996337891,0|0,3:0|0:0,0:0:0:0:
313,18,43769,6,0,B|334:53|326:81|317:75|305:97|324:136,1,120,2|0,0:0|0:0,0:0:0:0:
425,126,44626,6,0,B|329:148|329:148|309:202|309:202|179:234,1,269.999991760254,0|0,3:0|0:0,0:0:0:0:
150,173,45055,2,0,B|192:147|237:154|260:177|260:177|265:172|265:172|260:177|260:177|278:195|295:229|269:303,1,225.000008583069,0|0,0:0|0:0,0:0:0:0:
162,384,45483,6,0,B|154:340|154:340|156:341|156:341|139:256,1,85.0000016212464,8|0,1:2|0:0,0:0:0:0:
92,252,45697,1,0,0:0:0:0:
319,360,45912,5,0,3:0:0:0:
463,320,46126,1,0,0:0:0:0:
298,110,46340,5,0,0:0:0:0:
241,327,46554,1,0,0:0:0:0:
452,356,46769,2,0,L|470:291,2,37.5000014305115,0|0|0,0:0|0:0|0:0,0:0:0:0:
388,384,46983,1,0,3:0:0:0:
251,216,47197,6,0,B|221:180|182:198|182:198|119:272|119:272|69:299|26:209,1,247.500002360344,8|0,1:2|0:0,0:0:0:0:
98,157,47626,6,0,P|97:176|97:156,1,82.5000007867813,2|0,3:0|0:0,0:0:0:0:
202,99,47840,6,0,P|171:95|202:98,1,97.500000371933,0|0,3:0|0:0,0:0:0:0:
5,35,48055,6,0,B|121:14|121:14|128:20|137:23|137:23|279:-2,1,269.999991760254,0|0,3:0|0:0,0:0:0:0:
355,33,48483,5,0,0:0:0:0:
318,296,48697,1,0,3:0:0:0:
100,159,48912,2,0,L|37:183,2,37.5000014305115,8|0|0,1:2|0:0|0:0,0:0:0:0:
168,129,49126,1,0,0:0:0:0:
242,304,49340,6,0,B|231:337|231:337|233:347|233:347|210:409,1,85.0000016212464,0|0,3:0|0:0,0:0:0:0:
168,129,49555,1,0,0:0:0:0:
301,381,49769,5,0,0:0:0:0:
488,63,51483,6,0,B|399:35|399:35|334:94|334:94|378:110|378:110|420:66,1,269.999991760254,0|0,3:0|0:0,0:0:0:0:
326,4,51912,1,0,0:0:0:0:
464,139,52126,1,0,3:0:0:0:
362,295,52340,2,0,B|349:330|349:330|350:340|350:340|339:385,1,89.9999972534181,8|0,0:0|0:0,0:0:0:0:
465,269,52555,1,0,0:0:0:0:
252,163,52769,6,0,P|211:163|176:204,1,85.0000016212464,0|0,3:0|0:0,0:0:0:0:
247,260,52983,1,0,0:0:0:0:
305,41,53197,5,0,0:0:0:0:
117,257,53412,1,0,0:0:0:0:
34,16,53626,2,0,L|-23:-6,2,37.5000014305115,0|0|0,0:0|0:0|0:0,0:0:0:0:
107,0,53840,1,0,3:0:0:0:
75,303,54055,6,0,B|102:247|102:247|65:179|65:179|2:229|2:229|5:300,1,269.999991760254,8|0,1:2|0:0,0:0:0:0:
5,279,54483,6,0,L|88:305,1,74.0000018066407,2|0,3:0|0:0,0:0:0:0:
135,384,54697,2,0,L|207:365,1,50,0|0,3:0|0:0,0:0:0:0:
251,306,54912,6,0,P|281:243|245:157,1,139.999995727539,0|2,0:0|0:0,0:0:0:0:
160,100,55555,2,0,P|198:158|290:171,1,139.999995727539,2|0,0:0|0:0,0:0:0:0:
382,128,56197,2,0,P|312:131|253:203,1,139.999995727539,2|0,0:0|0:0,0:0:0:0:
262,176,56733,1,0,0:0:0:0:
489,367,57483,6,0,L|502:295,1,44.999998626709,0|0,1:0|0:0,0:0:0:0:
477,374,57912,6,0,L|500:220,1,134.999995880127,0|0,0:0|0:0,0:0:0:0:
470,169,58340,6,0,B|421:193|421:193|357:162|357:162|301:201|301:201|214:168,1,255.000004863739,0|0,3:0|0:0,0:0:0:0:
174,143,58769,1,0,0:0:0:0:
375,263,58983,1,0,3:0:0:0:
188,363,59197,6,0,B|133:326|133:326|67:354,1,129.999994049073,0|0,1:2|0:0,0:0:0:0:
4,370,59519,1,0,0:0:0:0:
4,370,59626,2,0,B|19:289,1,64.9999970245363,0|0,3:0|0:0,0:0:0:0:
28,227,59840,1,0,0:0:0:0:
286,162,60055,6,0,B|222:182|222:182|167:137,1,129.999994049073,0|0,0:0|0:0,0:0:0:0:
106,100,60377,1,0,0:0:0:0:
106,100,60484,2,0,B|85:130|85:130|105:178,1,64.9999970245363,0|0,0:0|0:0,0:0:0:0:
144,221,60698,1,0,3:0:0:0:
8,0,60912,6,0,L|-3:55,1,42.5000008106232,0|0,1:2|0:0,0:0:0:0:
13,14,61340,6,0,B|20:51|20:51|25:55|25:55|36:113,1,75.0000028610231,2|0,3:0|0:0,0:0:0:0:
144,221,61555,2,0,B|137:258|137:258|132:262|132:262|121:320,1,75.0000028610231,0|0,3:0|0:0,0:0:0:0:
0,159,61769,6,0,B|124:143|124:143|120:149|120:149|281:123,1,255.000004863739,0|0,3:0|0:0,0:0:0:0:
296,20,62197,1,0,0:0:0:0:
241,24,62305,1,0,0:0:0:0:
207,61,62412,1,0,3:0:0:0:
389,257,62626,6,0,B|430:217|430:217|503:232,2,127.50000243187,0|0|0,1:2|0:0|0:0,0:0:0:0:
237,367,63055,6,0,B|256:311|256:311|243:272|243:272|265:177,1,150.000005722046,0|0,3:0|0:0,0:0:0:0:
303,99,63376,2,0,B|393:62|393:62|469:151,1,187.500007152558,0|0,0:0|0:0,0:0:0:0:
437,150,63697,6,0,B|398:170|398:170|361:137,1,75.0000028610231,0|0,0:0|0:0,0:0:0:0:
303,99,63911,1,0,0:0:0:0:
512,257,64126,1,2,0:3:0:0:
273,366,64340,6,0,B|236:358|236:358|216:364|216:364|165:354,1,85.0000016212464,0|0,1:0|0:0,0:0:0:0:
377,241,64555,2,0,B|340:249|340:249|320:243|320:243|269:253,1,85.0000016212464,0|0,3:0|0:0,0:0:0:0:
179,161,64769,1,8,0:0:0:0:
420,378,64983,6,0,P|428:337|442:273,1,75.0000028610231,8|0,0:0|0:0,0:0:0:0:
267,178,65197,2,0,B|247:87,1,89.9999972534181,0|0,3:0|0:0,0:0:0:0:
319,23,65411,5,0,0:0:0:0:
379,19,65519,1,0,0:0:0:0:
424,50,65626,1,0,0:0:0:0:
266,283,65840,1,0,3:0:0:0:
129,93,66055,6,0,L|151:-22,1,85.0000016212464,0|0,1:0|0:0,0:0:0:0:
95,272,66269,2,0,L|72:380,1,85.0000016212464,0|0,0:0|0:0,0:0:0:0:
0,168,66483,6,0,B|57:152|57:152|181:215|181:215|268:180,1,269.999991760254,0|0,3:0|0:0,0:0:0:0:
265,183,66885,6,2,L|303:194,5,40,0|0|0|0|0|0,0:0|0:0|0:0|0:0|0:0|0:0,0:0:0:0:
259,182,68197,5,2,0:0:0:0:
503,376,68626,5,6,0:0:0:0:
461,373,82340,6,0,P|422:331|467:237,1,150,0|0,0:0|0:0,0:0:0:0:
469,253,82769,6,0,P|506:230|513:179,1,89.9999972534181,0|0,0:0|0:0,0:0:0:0:
415,96,83197,2,0,P|369:131|288:121,1,134.999995880127,8|0,0:1|0:0,0:0:0:0:
237,78,83625,5,0,0:0:0:0:
237,78,83732,1,0,0:0:0:0:
237,78,83839,2,0,P|239:55|252:37,1,44.999998626709,0|0,0:0|0:0,0:0:0:0:
296,126,84055,6,0,B|251:102|222:147|233:156|199:199|123:150,1,160,0|0,0:0|0:0,0:0:0:0:
52,118,84697,1,2,0:3:0:0:
173,181,84911,2,0,B|208:192|234:170|221:163|249:131|295:149,1,120,8|0,0:1|0:0,0:0:0:0:
289,160,85340,1,8,0:0:0:0:
257,249,85554,1,8,0:0:0:0:
468,313,85769,6,0,B|406:288|374:337|394:346|351:410|270:361,1,200,0|0,0:0|0:0,0:0:0:0:
191,296,86411,1,0,0:0:0:0:
98,359,86626,2,0,P|166:351|184:272,1,134.999995880127,8|0,0:1|0:0,0:0:0:0:
141,233,87054,5,0,0:0:0:0:
141,233,87161,1,0,0:0:0:0:
141,233,87268,2,0,P|111:235|81:266,1,44.999998626709,0|0,0:0|0:0,0:0:0:0:
190,295,87483,6,0,B|166:250|211:221|220:232|263:198|214:122,1,160,0|0,0:0|0:0,0:0:0:0:
181,22,88125,1,0,0:0:0:0:
113,126,88340,6,0,P|91:137|48:143,1,50,8|0,0:1|0:0,0:0:0:0:
244,75,88555,2,0,P|270:84|317:84,1,44.999998626709,0|0,0:0|0:0,0:0:0:0:
104,115,88769,2,0,P|64:135|10:138,1,80,2|0,0:3|0:0,0:0:0:0:
246,201,89197,6,0,B|308:176|340:225|320:234|363:298|444:249,1,200,0|0,0:0|0:0,0:0:0:0:
499,171,89840,1,0,0:0:0:0:
412,85,90054,6,0,P|402:92|396:103,1,25,8|0,0:1|0:0,0:0:0:0:
473,291,90483,6,0,P|503:317|507:384,1,89.9999972534181,0|0,0:0|0:0,0:0:0:0:
437,361,90911,5,0,0:0:0:0:
437,361,91018,1,0,0:0:0:0:
437,361,91125,2,0,P|413:355|370:347,1,44.999998626709,0|0,0:0|0:0,0:0:0:0:
307,293,91340,2,0,P|354:282|410:260,1,89.9999972534181,0|2,0:0|0:3,0:0:0:0:
180,368,91769,6,0,P|222:303|164:212,1,165.000005035401,8|0,0:1|0:0,0:0:0:0:
185,152,92197,2,0,P|118:211|145:284,1,139.999995727539,8|8,0:0|0:0,0:0:0:0:
307,293,92626,6,0,B|352:269|379:309|368:315|398:363|476:317,1,150,0|0,0:0|0:0,0:0:0:0:
493,276,93054,1,0,0:0:0:0:
493,276,93161,1,0,0:0:0:0:
493,276,93268,6,0,P|501:253|492:203,1,50,0|0,0:0|0:0,0:0:0:0:
438,105,93483,2,0,B|459:146|431:173|421:164|398:187|429:258,1,134.999995880127,8|0,0:1|0:0,0:0:0:0:
374,292,93912,2,0,P|335:265|256:299,1,100,0|0,0:0|0:0,0:0:0:0:
136,177,94340,6,0,P|194:173|226:121,1,100,0|0,0:0|0:0,0:0:0:0:
246,75,94661,1,0,0:0:0:0:
246,75,94768,2,0,L|234:18,1,50,0|0,0:0|0:0,0:0:0:0:
348,197,94983,2,0,L|337:245,1,50,0|0,0:0|0:0,0:0:0:0:
130,65,95197,6,0,P|115:57|92:60,1,25,8|0,0:1|0:0,0:0:0:0:
134,48,95626,6,0,L|63:65,1,59.9999981689454,8|0,0:1|0:0,0:0:0:0:
0,264,95840,6,0,L|88:283,1,69.9999978637696,8|0,0:1|0:0,0:0:0:0:
246,109,96055,6,0,B|187:48|107:170|237:230|288:195|306:163|376:101|257:36,1,300,0|0,3:0|0:0,0:0:0:0:
197,0,96483,5,0,0:0:0:0:
257,251,96697,2,0,P|305:243|342:210,1,100,0|0,3:0|0:0,0:0:0:0:
512,115,96912,6,0,B|478:69|498:0|498:0|475:68|423:95,1,240,8|0,1:2|0:0,0:0:0:0:
342,209,97340,6,0,B|394:154|370:66|370:66|399:153|475:177,1,300,0|0,3:0|0:0,0:0:0:0:
423,272,97769,1,2,0:0:0:0:
423,272,99483,6,0,B|269:228|269:228|233:256|223:312|280:345,1,300,0|0,3:0|0:0,0:0:0:0:
384,384,99912,5,0,0:0:0:0:
292,154,100127,2,0,P|244:151|206:182,1,100,0|0,3:0|0:0,0:0:0:0:
467,357,100340,6,0,B|386:326|425:243|444:257|463:169|334:141,1,240,8|0,1:2|0:0,0:0:0:0:
470,84,100769,6,0,B|364:108|421:205|394:208|457:308|262:339,1,300,0|0,3:0|0:0,0:0:0:0:
256,356,101198,1,0,0:0:0:0:
511,259,101412,1,0,0:0:0:0:
293,155,101627,5,0,0:0:0:0:
287,154,101680,1,0,0:0:0:0:
281,153,101734,1,0,0:0:0:0:
371,258,101841,2,0,P|331:229|282:234,1,100,0|0,3:0|0:0,0:0:0:0:
312,303,102055,1,8,1:2:0:0:
470,84,102269,6,0,B|478:116|478:116|481:119|481:119|487:152,1,69.9999978637696,0|0,0:0|0:0,0:0:0:0:
347,31,102484,1,2,3:0:0:0:
312,303,102698,1,0,3:0:0:0:
136,58,102912,6,0,B|178:30|226:30|273:73|273:73|267:77|267:77|312:119|356:131|436:82,1,300,0|0,3:0|0:0,0:0:0:0:
431,24,103340,2,0,P|323:50|312:208,1,240,0|0,0:0|0:0,0:0:0:0:
110,165,103769,6,0,P|214:154|307:324,1,300,8|0,1:2|0:0,0:0:0:0:
259,384,104198,1,0,3:0:0:0:
171,105,104412,1,0,0:0:0:0:
289,163,104626,1,0,0:0:0:0:
289,163,106340,6,0,B|220:128|259:34|349:61|378:125|277:311,1,300,0|0,3:0|0:0,0:0:0:0:
398,333,106769,2,0,B|383:276|324:284|324:284|191:336,1,240,0|0,0:0|0:0,0:0:0:0:
72,190,107198,6,0,B|215:261|215:261|297:249|287:160,1,300,8|0,0:0|0:0,0:0:0:0:
237,99,107627,1,0,3:0:0:0:
216,128,107734,1,0,0:0:0:0:
211,167,107841,1,0,0:0:0:0:
335,6,108055,5,0,0:0:0:0:
42,59,108269,1,0,0:0:0:0:
288,162,108484,5,0,0:0:0:0:
285,157,108537,1,0,0:0:0:0:
282,151,108591,1,0,0:0:0:0:
249,0,108697,6,0,P|243:50|233:120,1,100,0|0,3:0|0:0,0:0:0:0:
390,68,108912,2,0,B|281:63|354:109|196:97,1,160,8|0,0:0|0:0,0:0:0:0:
43,222,109341,6,0,P|28:236|43:223,1,69.9999978637696,2|0,3:0|0:0,0:0:0:0:
70,312,109555,6,0,P|81:324|72:313,1,119.999996337891,0|0,3:0|0:0,0:0:0:0:
168,352,109769,6,0,P|284:304|480:281,1,300,0|0,3:0|0:0,0:0:0:0:
512,233,110197,5,0,0:0:0:0:
469,355,110305,1,0,0:0:0:0:
386,255,110412,2,0,P|424:261|460:284,1,75.0000028610231,0|0,3:0|0:0,0:0:0:0:
224,242,110626,6,0,B|141:125|258:3|322:96|312:153|253:197,1,300,8|0,1:2|0:0,0:0:0:0:
300,245,111054,5,0,3:0:0:0:
180,304,111162,1,0,0:0:0:0:
180,304,111483,6,0,B|103:289|103:289|67:300|67:300|2:288|2:288|20:210|20:210|59:220|59:220|89:206|89:206|183:227|183:227|172:186,1,460,0|0,0:0|0:0,0:0:0:0:
188,192,112769,6,0,B|194:209|194:209|194:214|194:214|204:245,1,37.5000014305115,0|0,0:0|0:0,0:0:0:0:
0,34,113197,6,0,B|45:-32|134:-3|98:74|131:55|133:140|184:166|298:57,1,300,0|0,3:0|0:0,0:0:0:0:
316,105,113625,5,0,0:0:0:0:
266,42,113733,2,0,P|241:73|233:133,1,75.0000028610231,0|0,0:0|3:0,0:0:0:0:
478,155,114055,6,0,B|546:64|494:-23|427:-4|377:61|419:162,1,300,8|0,1:2|0:0,0:0:0:0:
414,208,114483,5,0,3:0:0:0:
478,155,114590,2,0,P|503:186|511:246,1,75.0000028610231,0|0,0:0|0:0,0:0:0:0:
373,374,114912,6,0,P|280:335|67:332,1,300,0|0,0:0|0:0,0:0:0:0:
15,282,115340,5,0,0:0:0:0:
83,328,115447,2,0,P|119:335|149:356,1,75.0000028610231,0|0,0:0|3:0,0:0:0:0:
160,48,115769,6,0,P|135:153|229:78,1,300,8|0,1:2|0:0,0:0:0:0:
54,13,116197,6,0,P|30:36|60:18,1,100,2|0,3:0|0:0,0:0:0:0:
1,114,116412,6,0,P|19:150|8:110,1,119.999996337891,0|0,3:0|0:0,0:0:0:0:
113,223,116626,6,0,B|63:176|0:206|0:284|44:331|132:352|192:252,1,300,0|0,3:0|0:0,0:0:0:0:
200,217,117055,6,0,P|175:247|168:285,1,75.0000028610231,0|0,0:0|0:0,0:0:0:0:
346,320,117269,2,0,P|371:350|378:388,1,75.0000028610231,0|0,3:0|0:0,0:0:0:0:
243,279,117483,1,8,1:2:0:0:
250,275,117537,1,0,0:0:0:0:
257,273,117590,1,0,0:0:0:0:
396,251,117697,2,0,P|361:236|324:240,1,75.0000028610231,0|0,0:0|0:0,0:0:0:0:
224,88,117911,5,0,3:0:0:0:
276,357,118019,1,0,0:0:0:0:
274,362,118340,6,0,B|243:353|243:353|185:378|185:378|142:365,1,120,0|0,0:0|0:0,0:0:0:0:
134,304,118769,5,0,0:0:0:0:
161,370,118911,1,0,0:0:0:0:
298,23,119197,5,0,0:0:0:0:
19,246,119626,5,0,0:0:0:0:
161,209,119840,1,0,0:0:0:0:
367,144,120055,6,0,P|427:152|401:234,1,100,0|0,3:0|0:0,0:0:0:0:
506,227,120269,1,0,0:0:0:0:
460,253,120376,1,0,0:0:0:0:
447,308,120483,2,0,P|462:344|476:395,1,75.0000028610231,0|0,0:0|0:0,0:0:0:0:
340,149,120697,6,0,P|394:123|417:205,1,100,0|0,3:0|0:0,0:0:0:0:
298,288,120911,1,8,1:2:0:0:
225,10,121126,1,0,0:0:0:0:
113,212,121340,5,0,3:0:0:0:
119,210,121394,1,0,0:0:0:0:
124,208,121447,1,0,0:0:0:0:
257,165,121555,1,0,0:0:0:0:
33,360,121769,6,0,P|130:287|347:266,1,300,0|0,0:0|0:0,0:0:0:0:
371,294,122197,6,0,P|344:324|347:378,1,75.0000028610231,0|0,0:0|0:0,0:0:0:0:
124,208,122412,2,0,P|118:171|92:144,1,75.0000028610231,0|0,3:0|0:0,0:0:0:0:
334,2,122626,6,0,B|326:51|326:51|324:49|324:49|310:137,1,100,8|0,1:2|0:0,0:0:0:0:
309,103,123055,6,0,P|303:137|318:105,1,100,2|0,3:0|0:0,0:0:0:0:
412,54,123270,6,0,P|430:90|419:50,1,119.999996337891,0|0,0:0|0:0,0:0:0:0:
334,2,123483,6,0,B|272:-17|266:31|240:21|234:59|164:40,1,160,0|0,0:0|0:0,0:0:0:0:
62,79,124126,2,0,B|124:60|130:108|156:98|162:136|232:117,1,160,0|0,0:0|0:0,0:0:0:0:
127,3,124769,6,0,P|89:95|90:255,1,239.999992675781,0|0,0:0|0:0,0:0:0:0:
85,233,126055,6,0,L|35:224,1,37.5000014305115,0|0,1:0|0:0,0:0:0:0:
38,239,126483,6,0,P|75:227|169:215,1,75.0000028610231,8|0,0:0|0:0,0:0:0:0:
220,336,126697,2,0,P|254:343|315:364,1,100,8|0,0:0|0:0,0:0:0:0:
464,110,126912,6,0,B|348:102|309:203|309:203|338:148|423:148,1,300,0|0,3:0|0:0,0:0:0:0:
462,186,127340,5,0,0:0:0:0:
486,241,127447,1,0,0:0:0:0:
468,301,127555,2,0,P|438:327|370:320,1,75.0000028610231,0|0,3:0|0:0,0:0:0:0:
309,199,127769,6,0,P|362:213|408:277,1,100.000003814697,0|0,1:2|0:0,0:0:0:0:
324,277,127983,1,0,0:0:0:0:
238,145,128197,2,0,P|237:92|321:32,2,133.333333333333,0|0|0,3:0|0:0|0:0,0:0:0:0:
260,357,128626,5,0,0:0:0:0:
191,281,128769,2,0,P|140:301|94:349,1,100.000003814697,0|0,0:0|0:0,0:0:0:0:
11,128,129055,6,0,P|75:127|110:180,1,133.333333333333,0|0,0:0|0:0,0:0:0:0:
18,240,129269,2,0,P|-16:185|11:127,1,133.333333333333,0|0,3:0|0:0,0:0:0:0:
110,180,129483,5,0,1:2:0:0:
18,240,129626,1,0,0:0:0:0:
10,127,129769,1,0,0:0:0:0:
115,185,129912,5,2,3:0:0:0:
0,384,130126,1,0,3:0:0:0:
97,81,130340,6,0,B|182:17|248:101|194:130|277:228|389:119,1,300,0|0,3:0|0:0,0:0:0:0:
408,107,130769,5,0,0:0:0:0:
354,75,130876,1,0,0:0:0:0:
296,91,130983,2,0,P|288:131|334:192,1,75.0000028610231,0|0,3:0|0:0,0:0:0:0:
418,266,131197,6,0,L|471:250,2,37.5000014305115,0|0|0,1:2|0:0|0:0,0:0:0:0:
369,335,131412,2,0,L|268:317,1,75.0000028610231,0|0,0:0|0:0,0:0:0:0:
171,209,131626,5,0,3:0:0:0:
301,245,131769,1,0,0:0:0:0:
208,358,131912,1,0,0:0:0:0:
215,281,132055,6,0,L|386:244,2,133.333333333333,0|0|0,0:0|0:0|0:0,0:0:0:0:
132,342,132483,5,0,0:0:0:0:
78,334,132590,1,0,0:0:0:0:
23,327,132697,1,2,0:3:0:0:
313,85,132912,6,0,P|346:103|386:103,2,75.0000028610231,0|0|0,1:0|0:0|3:0,0:0:0:0:
207,15,133340,6,0,P|209:50|219:16,1,100,8|0,0:0|0:0,0:0:0:0:
157,136,133555,6,0,P|139:173|166:142,1,119.999996337891,8|0,0:0|0:0,0:0:0:0:
60,1,133769,6,0,P|15:148|20:364,1,300,0|0,3:0|0:0,0:0:0:0:
25,384,134197,5,0,0:0:0:0:
97,326,134340,1,0,0:0:0:0:
9,293,134483,1,0,0:0:0:0:
212,92,134626,5,0,1:0:0:0:
82,173,134769,1,0,0:0:0:0:
218,254,134911,1,0,0:0:0:0:
180,175,135055,6,0,P|50:180|24:289,1,225.000008583069,0|0,3:0|0:0,0:0:0:0:
34,101,135483,6,0,P|184:201|288:122,1,300,0|0,0:0|0:0,0:0:0:0:
261,56,135912,5,0,0:0:0:0:
180,110,136055,1,0,0:0:0:0:
270,150,136197,1,0,0:0:0:0:
162,14,136340,5,0,1:0:0:0:
378,131,136483,1,0,0:0:0:0:
166,264,136626,1,0,0:0:0:0:
162,14,136769,5,0,3:0:0:0:
512,166,136983,5,0,3:0:0:0:
179,342,137197,6,0,L|164:251,1,80,2|2,3:2|0:2,0:0:0:0:
289,356,137840,6,0,L|317:242,1,100,0|0,3:2|0:0,0:0:0:0:
401,383,138483,6,0,L|522:336,1,119.999996337891,2|2,3:2|0:2,0:0:0:0:
120,47,140626,6,0,B|91:54|91:54|83:59|83:59|42:72,1,80,2|2,3:2|0:2,0:0:0:0:
204,100,141269,6,0,B|254:112|254:112|258:118|258:118|306:131,1,100,0|0,3:2|0:0,0:0:0:0:
134,227,141912,6,0,B|78:240|78:240|72:249|72:249|17:265,1,119.999996337891,2|2,3:2|0:2,0:0:0:0:
22,263,142983,5,0,3:0:0:0:
83,320,143197,2,0,P|117:303|159:298,1,59.9999981689454,10|0,0:2|0:0,0:0:0:0:
205,337,143626,2,0,P|239:354|281:359,1,59.9999981689454,2|0,3:2|0:0,0:0:0:0:
338,318,144055,6,0,L|360:224,1,80,2|2,3:2|0:2,0:0:0:0:
257,203,144697,6,0,L|231:93,1,100,0|0,3:2|0:0,0:0:0:0:
396,121,145340,6,0,L|424:-7,1,119.999996337891,2|2,3:2|0:2,0:0:0:0:
421,3,146626,6,0,P|377:7|366:24,1,59.9999981689454,10|0,0:2|0:0,0:0:0:0:
421,78,147055,2,0,P|465:82|476:99,1,59.9999981689454,6|0,0:2|0:0,0:0:0:0:
512,169,147483,6,0,B|468:164|468:164|430:200,1,80,2|2,3:2|0:2,0:0:0:0:
338,108,148126,6,0,B|374:148|374:148|362:209,1,100,0|0,3:2|0:0,0:0:0:0:
196,274,148769,6,0,B|201:213|201:213|281:182,1,119.999996337891,2|0,3:2|0:0,0:0:0:0:
256,192,149305,12,2,150483,3:2:0:0:
256,192,150912,5,6,0:0:0:0:
495,32,164626,6,0,B|446:-4|374:-1|349:75|395:92|349:182|277:201|178:92,1,330.000010070801,0|0,3:0|0:0,0:0:0:0:
194,30,165055,5,0,0:0:0:0:
423,190,165269,2,0,P|454:146|419:66,1,110.000003356934,0|0,3:0|0:0,0:0:0:0:
120,175,165483,6,0,P|261:173|395:116,1,269.999991760254,8|0,1:2|0:0,0:0:0:0:
303,29,165912,6,0,P|207:152|192:331,1,330.000010070801,0|0,3:0|0:0,0:0:0:0:
253,383,166341,1,2,0:0:0:0:
0,118,168055,6,0,B|87:111|114:11|114:11|87:117|204:186,1,330.000010070801,0|0,3:0|0:0,0:0:0:0:
75,231,168484,5,0,0:0:0:0:
274,12,168697,2,0,P|209:17|195:96,1,110.000003356934,0|0,3:0|0:0,0:0:0:0:
244,316,168912,6,0,B|311:285|308:180|193:223|181:111|314:42,1,269.999991760254,8|0,1:2|0:0,0:0:0:0:
387,1,169340,6,0,B|437:59|383:174|300:80|241:205|325:298,1,330.000010070801,0|0,3:0|0:0,0:0:0:0:
373,349,169770,1,0,0:0:0:0:
257,84,169984,1,0,0:0:0:0:
475,257,170197,5,0,0:0:0:0:
484,259,170251,1,0,0:0:0:0:
492,261,170305,1,0,0:0:0:0:
452,180,170412,2,0,P|406:220|429:320,1,110.000003356934,0|0,3:0|0:0,0:0:0:0:
503,384,170626,1,8,1:2:0:0:
231,297,170840,6,0,L|335:270,1,80,0|0,0:0|0:0,0:0:0:0:
91,105,171056,1,0,0:0:0:0:
26,379,171270,1,0,0:0:0:0:
255,165,171483,6,0,B|240:103|456:98|313:-82|261:-42|207:36|279:122,1,330.000010070801,0|0,3:0|0:0,0:0:0:0:
405,147,171912,2,0,B|255:90|255:90|183:82|175:179,1,269.999991760254,0|0,0:0|0:0,0:0:0:0:
16,252,172340,6,0,B|184:171|184:171|273:187|256:272,1,330.000010070801,8|0,1:2|0:0,0:0:0:0:
183,335,172770,1,0,0:0:0:0:
233,12,172984,1,0,0:0:0:0:
373,237,173197,5,0,0:0:0:0:
407,249,173305,1,0,0:0:0:0:
438,261,173412,1,0,0:0:0:0:
256,102,173626,1,0,0:0:0:0:
332,375,173840,1,0,0:0:0:0:
478,76,174056,5,0,0:0:0:0:
434,41,174163,1,0,0:0:0:0:
383,45,174270,1,0,0:0:0:0:
134,206,174483,6,0,P|195:209|210:127,1,110.000003356934,8|0,0:0|0:0,0:0:0:0:
343,134,174697,2,0,P|308:94|256:101,1,110.000003356934,8|0,0:0|0:0,0:0:0:0:
83,15,174912,6,0,P|45:245|20:349,1,330.000010070801,0|0,3:0|0:0,0:0:0:0:
90,371,175340,2,0,P|206:349|198:172,1,269.999991760254,0|0,0:0|0:0,0:0:0:0:
418,223,175769,6,0,P|288:236|226:42,1,330.000010070801,8|0,0:0|0:0,0:0:0:0:
218,3,176197,1,0,3:0:0:0:
269,25,176305,1,0,0:0:0:0:
282,79,176412,1,0,0:0:0:0:
154,374,176627,5,0,0:0:0:0:
90,61,176841,1,0,0:0:0:0:
343,221,177056,5,0,0:0:0:0:
341,226,177109,1,0,0:0:0:0:
339,232,177163,1,0,0:0:0:0:
250,151,177269,6,0,P|210:185|114:153,1,110.000003356934,0|0,3:0|0:0,0:0:0:0:
353,326,177483,2,0,P|459:327|507:391,1,179.999994506836,8|0,0:0|0:0,0:0:0:0:
358,44,177912,6,0,P|364:11|362:48,1,119.999996337891,2|0,3:0|0:0,0:0:0:0:
220,159,178126,6,0,P|227:200|224:155,1,139.999995727539,0|0,3:0|0:0,0:0:0:0:
284,79,178340,5,0,0:0:0:0:
