osu file format v14

[General]
AudioFilename: audio.mp3
AudioLeadIn: 0
PreviewTime: 96430
Countdown: 0
SampleSet: Soft
StackLeniency: 0.7
Mode: 0
LetterboxInBreaks: 0
WidescreenStoryboard: 1

[Editor]
Bookmarks: 13769,27483,41197,44626,54912,58340,59197,68626,82340,96055,96697,109769,123483,126912,137197,150912,164626,178126
DistanceSpacing: 1.5
BeatDivisor: 4
GridSize: 16
TimelineZoom: 1

[Metadata]
Title:Lemonade (feat. Gunna, Don Toliver & NAV)
TitleUnicode:Lemonade (feat. Gunna, Don Toliver & NAV)
Artist:Internet Money
ArtistUnicode:Internet Money
Creator:Mimari
Version:Normal
Source:
Tags:english hip hop trap rap b4 the storm jamesjan3 mayflower taz taylor nick mira
BeatmapID:2679092
BeatmapSetID:1290613

[Difficulty]
HPDrainRate:4
CircleSize:3.5
OverallDifficulty:3.5
ApproachRate:5.5
SliderMultiplier:1.2
SliderTickRate:1

[Events]
//Background and Video events
0,0,"ahh jamesjan3 is my favorite mapper desu OWO~.png",0,0
//Break Periods
2,41197,43501
2,55340,56358
2,68626,81215
2,123912,125787
2,150912,163501
//Storyboard Layer 0 (Background)
//Storyboard Layer 1 (Fail)
//Storyboard Layer 2 (Pass)
//Storyboard Layer 3 (Foreground)
//Storyboard Layer 4 (Overlay)
//Storyboard Sound Samples

[TimingPoints]
55,428.571428571429,4,2,1,70,1,0
13769,-100,4,2,11,53,0,0
27483,-90.9090909090909,4,2,1,70,0,0
28340,-90.9090909090909,4,2,1,49,0,0
28555,-90.9090909090909,4,2,2,70,0,0
28769,-90.9090909090909,4,2,3,70,0,0
29197,-90.9090909090909,4,2,13,70,0,0
30912,-90.9090909090909,4,2,4,70,0,0
31769,-90.9090909090909,4,2,1,49,0,0
32197,-90.9090909090909,4,2,5,70,0,0
33483,-90.9090909090909,4,2,1,49,0,0
33912,-90.9090909090909,4,2,5,70,0,0
34340,-90.9090909090909,4,2,2,70,0,0
35197,-90.9090909090909,4,2,1,49,0,0
35626,-90.9090909090909,4,2,6,70,0,0
36912,-90.9090909090909,4,2,1,49,0,0
37126,-90.9090909090909,4,2,6,70,0,0
37340,-90.9090909090909,4,2,1,49,0,0
37769,-90.9090909090909,4,2,4,70,0,0
38626,-90.9090909090909,4,2,1,49,0,0
39055,-90.9090909090909,4,2,5,70,0,0
40340,-90.9090909090909,4,2,1,49,0,0
40769,-90.9090909090909,4,2,5,70,0,0
41197,-90.9090909090909,4,2,13,50,0,0
44626,-90.9090909090909,4,2,4,70,0,0
45483,-90.9090909090909,4,2,1,49,0,0
45911,-90.9090909090909,4,2,5,70,0,0
47197,-90.9090909090909,4,2,1,49,0,0
47626,-90.9090909090909,4,2,5,70,0,0
48054,-90.9090909090909,4,2,2,70,0,0
48911,-90.9090909090909,4,2,1,49,0,0
49126,-90.9090909090909,4,2,1,70,0,0
49340,-90.9090909090909,4,2,6,70,0,0
50626,-90.9090909090909,4,2,1,49,0,0
50840,-90.9090909090909,4,2,6,70,0,0
51054,-90.9090909090909,4,2,1,49,0,0
51483,-90.9090909090909,4,2,4,70,0,0
52340,-90.9090909090909,4,2,1,49,0,0
52769,-90.9090909090909,4,2,5,70,0,0
54054,-90.9090909090909,4,2,1,49,0,0
54483,-90.9090909090909,4,2,5,70,0,0
55340,-90.9090909090909,4,2,13,70,0,0
57483,-100,4,2,1,70,0,0
58340,-100,4,2,5,70,0,0
59197,-100,4,2,1,70,0,0
59625,-100,4,2,5,70,0,0
60911,-100,4,2,1,70,0,0
61340,-100,4,2,5,70,0,0
61768,-100,4,2,2,70,0,0
62625,-100,4,2,1,70,0,0
63054,-100,4,2,6,70,0,0
64340,-100,4,2,1,70,0,0
64554,-100,4,2,6,70,0,0
64768,-100,4,2,1,70,0,0
65197,-100,4,2,4,70,0,0
66054,-100,4,2,1,70,0,0
66483,-100,4,2,5,70,0,0
66885,-100,4,2,13,70,0,0
66912,-100,4,2,13,70,0,0
68626,-100,4,2,12,40,0,0
82340,-100,4,2,11,53,0,0
96055,-90.9090909090909,4,2,1,70,0,0
96912,-90.9090909090909,4,2,1,49,0,0
97127,-90.9090909090909,4,2,2,70,0,0
97341,-90.9090909090909,4,2,3,70,0,0
97769,-90.9090909090909,4,2,13,70,0,0
99484,-90.9090909090909,4,2,4,70,0,0
100341,-90.9090909090909,4,2,1,49,0,0
100769,-90.9090909090909,4,2,5,70,0,0
102055,-90.9090909090909,4,2,1,49,0,0
102484,-90.9090909090909,4,2,5,70,0,0
102912,-90.9090909090909,4,2,2,70,0,0
103769,-90.9090909090909,4,2,1,49,0,0
104198,-90.9090909090909,4,2,6,70,0,0
105484,-90.9090909090909,4,2,1,49,0,0
105698,-90.9090909090909,4,2,6,70,0,0
105912,-90.9090909090909,4,2,1,49,0,0
106341,-90.9090909090909,4,2,4,70,0,0
107198,-90.9090909090909,4,2,1,49,0,0
107627,-90.9090909090909,4,2,5,70,0,0
108912,-90.9090909090909,4,2,1,49,0,0
109341,-90.9090909090909,4,2,5,70,0,0
109769,-90.9090909090909,4,2,1,70,0,0
110626,-90.9090909090909,4,2,1,49,0,0
110840,-90.9090909090909,4,2,2,70,0,0
111055,-90.9090909090909,4,2,3,70,0,0
113198,-90.9090909090909,4,2,4,70,0,0
114055,-90.9090909090909,4,2,1,49,0,0
114483,-90.9090909090909,4,2,5,70,0,0
115769,-90.9090909090909,4,2,1,49,0,0
116198,-90.9090909090909,4,2,5,70,0,0
116626,-90.9090909090909,4,2,2,70,0,0
117483,-90.9090909090909,4,2,1,49,0,0
117698,-90.9090909090909,4,2,1,70,0,0
117912,-90.9090909090909,4,2,6,70,0,0
119198,-90.9090909090909,4,2,1,49,0,0
119412,-90.9090909090909,4,2,6,70,0,0
119626,-90.9090909090909,4,2,1,49,0,0
120055,-90.9090909090909,4,2,4,70,0,0
120912,-90.9090909090909,4,2,1,49,0,0
121341,-90.9090909090909,4,2,5,70,0,0
122626,-90.9090909090909,4,2,1,49,0,0
123055,-90.9090909090909,4,2,5,70,0,0
126055,-90.9090909090909,4,2,1,70,0,0
126912,-95.2380952380952,4,2,4,70,0,0
127769,-95.2380952380952,4,2,1,70,0,0
128197,-95.2380952380952,4,2,5,70,0,0
129483,-95.2380952380952,4,2,1,70,0,0
129912,-95.2380952380952,4,2,5,70,0,0
130340,-95.2380952380952,4,2,2,70,0,0
131197,-95.2380952380952,4,2,1,70,0,0
131626,-95.2380952380952,4,2,6,70,0,0
132912,-95.2380952380952,4,2,1,70,0,0
133126,-95.2380952380952,4,2,6,70,0,0
133340,-95.2380952380952,4,2,1,70,0,0
133769,-95.2380952380952,4,2,4,70,0,0
134626,-95.2380952380952,4,2,1,70,0,0
135055,-95.2380952380952,4,2,5,70,0,0
136340,-95.2380952380952,4,2,1,70,0,0
136769,-95.2380952380952,4,2,5,70,0,0
137197,-111.111111111111,4,2,13,53,0,0
150912,-111.111111111111,4,2,12,53,0,0
164626,-90.9090909090909,4,2,1,70,0,0
165483,-90.9090909090909,4,2,1,49,0,0
165698,-90.9090909090909,4,2,2,70,0,0
165912,-90.9090909090909,4,2,3,70,0,0
166340,-90.9090909090909,4,2,13,70,0,0
168055,-90.9090909090909,4,2,4,70,0,0
168912,-90.9090909090909,4,2,1,49,0,0
169340,-90.9090909090909,4,2,5,70,0,0
170626,-90.9090909090909,4,2,1,49,0,0
171055,-90.9090909090909,4,2,5,70,0,0
171483,-90.9090909090909,4,2,2,70,0,0
172340,-90.9090909090909,4,2,1,49,0,0
172769,-90.9090909090909,4,2,6,70,0,0
174055,-90.9090909090909,4,2,1,49,0,0
174269,-90.9090909090909,4,2,6,70,0,0
174483,-90.9090909090909,4,2,1,49,0,0
174912,-90.9090909090909,4,2,4,70,0,0
175769,-90.9090909090909,4,2,1,49,0,0
176198,-90.9090909090909,4,2,5,70,0,0
177483,-90.9090909090909,4,2,1,49,0,0
177912,-90.9090909090909,4,2,5,70,0,0
178340,-90.9090909090909,4,2,1,70,0,0
179197,-90.9090909090909,4,2,1,70,0,0
179411,-90.9090909090909,4,2,1,70,0,0
179626,-90.9090909090909,4,2,1,70,0,0
179947,-90.9090909090909,4,2,1,5,0,0
180055,-90.9090909090909,4,2,1,35,0,0
181769,-90.9090909090909,4,2,1,15,0,0
182626,-90.9090909090909,4,2,1,15,0,0
183054,-90.9090909090909,4,2,1,15,0,0
184340,-90.9090909090909,4,2,1,15,0,0
184769,-90.9090909090909,4,2,1,15,0,0
185197,-90.9090909090909,4,2,1,15,0,0
186054,-90.9090909090909,4,2,1,15,0,0
186269,-90.9090909090909,4,2,1,15,0,0
186483,-90.9090909090909,4,2,1,15,0,0
187769,-90.9090909090909,4,2,1,15,0,0
187983,-90.9090909090909,4,2,1,15,0,0
188197,-90.9090909090909,4,2,1,15,0,0
188626,-90.9090909090909,4,2,1,15,0,0
189483,-90.9090909090909,4,2,1,15,0,0
189912,-90.9090909090909,4,2,1,15,0,0
191197,-90.9090909090909,4,2,1,15,0,0
191626,-90.9090909090909,4,2,1,15,0,0

[Colours]
Combo1 : 227,228,220
Combo2 : 233,225,169
Combo3 : 162,201,234

[HitObjects]
471,337,13769,6,0,P|416:305|343:329,1,120,0|0,0:0|0:0,0:0:0:0:
322,349,14412,1,0,0:0:0:0:
322,349,14626,1,8,0:1:0:0:
223,303,15055,1,0,0:0:0:0:
130,358,15483,6,0,P|81:332|66:266,1,120,0|0,0:0|0:0,0:0:0:0:
85,223,16126,1,2,0:3:0:0:
85,223,16340,1,8,0:1:0:0:
119,120,16769,2,0,L|44:109,1,60,8|8,0:0|0:0,0:0:0:0:
26,68,17197,6,0,P|58:21|131:22,1,120,0|0,0:0|0:0,0:0:0:0:
168,30,17840,1,0,0:0:0:0:
168,30,18055,1,8,0:1:0:0:
239,110,18483,1,0,0:0:0:0:
199,211,18912,6,0,L|218:339,1,120,0|0,0:0|0:0,0:0:0:0:
248,373,19555,1,0,0:0:0:0:
248,373,19769,1,8,0:1:0:0:
344,325,20197,1,2,0:3:0:0:
445,361,20626,6,0,P|473:306|455:240,1,120,0|0,0:0|0:0,0:0:0:0:
437,208,21269,1,0,0:0:0:0:
437,208,21483,1,8,0:1:0:0:
496,117,21912,1,0,0:0:0:0:
416,39,22340,6,0,B|348:31|367:72|275:51,1,120,0|0,0:0|0:0,0:0:0:0:
246,41,22983,1,2,0:3:0:0:
246,41,23197,1,8,0:1:0:0:
190,133,23626,2,0,L|203:202,1,60,8|8,0:0|0:0,0:0:0:0:
208,245,24055,6,0,L|77:223,1,120,0|0,0:0|0:0,0:0:0:0:
40,247,24697,1,0,0:0:0:0:
40,247,24912,1,8,0:1:0:0:
80,347,25340,1,0,0:0:0:0:
185,370,25769,6,0,P|244:375|303:332,1,120,0|0,0:0|0:0,0:0:0:0:
321,297,26412,1,0,0:0:0:0:
312,243,26626,5,8,0:1:0:0:
253,152,27055,1,8,0:1:0:0:
266,99,27269,1,8,0:1:0:0:
280,47,27483,6,0,B|339:16|339:16|422:40,1,132.00000402832,0|0,3:0|0:0,0:0:0:0:
457,58,28126,1,0,3:0:0:0:
446,116,28340,1,8,1:2:0:0:
480,229,28769,2,0,L|466:371,1,132.00000402832,0|2,3:0|0:0,0:0:0:0:
464,356,30912,6,0,P|403:358|349:288,1,132.00000402832,0|0,3:0|0:0,0:0:0:0:
331,256,31555,1,0,3:0:0:0:
358,203,31769,1,8,1:2:0:0:
317,91,32197,1,0,3:0:0:0:
213,32,32626,6,0,B|166:31|166:31|132:50|132:50|79:49,1,132.00000402832,0|0,0:0|0:0,0:0:0:0:
26,50,33269,1,0,3:0:0:0:
6,106,33483,1,8,1:2:0:0:
80,198,33912,1,2,3:0:0:0:
94,255,34126,1,0,3:0:0:0:
110,312,34340,6,0,P|67:352|-7:334,2,132.00000402832,0|0|8,3:0|0:0|1:2,0:0:0:0:
201,236,35626,2,0,L|277:256,1,66.0000020141602,0|0,3:0|0:0,0:0:0:0:
324,257,36055,2,0,P|356:289|350:380,2,132.00000402832,0|0|8,0:0|0:0|1:2,0:0:0:0:
281,146,37340,1,8,0:0:0:0:
223,130,37555,1,8,0:0:0:0:
165,115,37769,6,0,L|24:146,2,132.00000402832,0|0|8,3:0|0:0|0:0,0:0:0:0:
239,22,39055,2,0,P|278:21|317:44,1,66.0000020141602,0|0,3:0|0:0,0:0:0:0:
345,71,39483,2,0,B|355:126|355:126|345:145|345:145|357:219,2,132.00000402832,0|0|8,0:0|0:0|1:2,0:0:0:0:
454,25,40769,1,2,3:0:0:0:
503,57,40983,1,0,3:0:0:0:
503,57,44626,6,0,B|440:47|451:114|365:90,1,132.00000402832,0|0,3:0|0:0,0:0:0:0:
282,28,45483,2,0,P|249:32|221:63,1,66.0000020141602,8|0,1:2|0:0,0:0:0:0:
235,112,45912,1,0,3:0:0:0:
310,203,46340,6,0,B|377:221|377:221|452:164,2,132.00000402832,0|0|8,0:0|0:0|1:2,0:0:0:0:
201,251,47626,1,2,3:0:0:0:
142,241,47840,1,0,3:0:0:0:
107,192,48055,6,0,P|51:199|2:263,1,132.00000402832,0|0,3:0|0:0,0:0:0:0:
5,313,48697,1,0,3:0:0:0:
5,313,48912,1,8,1:2:0:0:
108,371,49340,2,0,L|191:355,1,66.0000020141602,0|0,3:0|0:0,0:0:0:0:
230,345,49769,1,0,0:0:0:0:
230,345,51483,6,0,B|263:281|214:273|244:199,1,132.00000402832,0|0,3:0|0:0,0:0:0:0:
272,169,52126,1,0,3:0:0:0:
272,169,52340,1,8,0:0:0:0:
175,99,52769,2,0,L|101:116,1,66.0000020141602,0|0,3:0|0:0,0:0:0:0:
51,114,53197,6,0,P|28:64|70:-9,2,132.00000402832,0|0|8,0:0|0:0|1:2,0:0:0:0:
123,201,54483,1,2,3:0:0:0:
150,253,54697,1,0,3:0:0:0:
131,309,54912,1,0,0:0:0:0:
132,310,57483,6,0,B|180:303|180:303|202:312|202:312|272:301,1,120,0|0,1:0|0:0,0:0:0:0:
345,353,58340,6,0,B|376:298|376:298|339:235,1,120,0|0,3:0|0:0,0:0:0:0:
316,204,58983,1,0,3:0:0:0:
316,204,59197,2,0,B|296:149|296:149|332:80,1,120,0|0,1:2|3:0,0:0:0:0:
411,29,60055,6,0,L|516:46,2,90,0|0|0,0:0|0:0|3:0,0:0:0:0:
366,59,60912,1,0,1:2:0:0:
272,10,61340,2,0,L|204:26,1,60,2|0,3:0|3:0,0:0:0:0:
160,15,61769,6,0,B|129:70|129:70|166:133,1,120,0|0,3:0|0:0,0:0:0:0:
189,164,62412,1,0,3:0:0:0:
189,164,62626,1,0,1:2:0:0:
110,238,63055,2,0,L|6:215,1,90,0|0,3:0|0:0,0:0:0:0:
12,298,63697,6,0,L|91:319,1,60,0|0,0:0|0:0,0:0:0:0:
115,342,64126,1,2,0:3:0:0:
115,342,64340,2,0,B|176:359|176:359|241:317,1,120,0|8,1:0|0:0,0:0:0:0:
272,302,64983,1,8,0:0:0:0:
272,302,65197,1,0,3:0:0:0:
369,349,65626,6,0,L|486:305,1,120,0|0,0:0|1:0,0:0:0:0:
502,256,66269,1,0,0:0:0:0:
502,256,66483,2,0,P|476:222|510:134,1,120,0|2,3:0|0:0,0:0:0:0:
26,78,82340,6,0,L|154:55,1,120,0|0,0:0|0:0,0:0:0:0:
189,26,82983,1,0,0:0:0:0:
189,26,83197,1,8,0:1:0:0:
285,74,83626,1,0,0:0:0:0:
387,39,84054,6,0,P|436:65|451:131,1,120,0|0,0:0|0:0,0:0:0:0:
426,161,84697,1,2,0:3:0:0:
426,161,84911,1,8,0:1:0:0:
394,264,85340,2,0,P|414:300|412:332,1,60,8|8,0:0|0:0,0:0:0:0:
392,367,85768,6,0,L|260:333,1,120,0|0,0:0|0:0,0:0:0:0:
253,293,86411,1,0,0:0:0:0:
253,293,86626,1,8,0:1:0:0:
310,201,87054,1,0,0:0:0:0:
267,101,87483,6,0,P|199:109|144:61,1,120,0|0,0:0|0:0,0:0:0:0:
139,37,88126,1,0,0:0:0:0:
139,37,88340,1,8,0:1:0:0:
31,23,88768,1,2,0:3:0:0:
65,125,89197,6,0,P|73:182|55:246,1,120,0|0,0:0|0:0,0:0:0:0:
35,294,89840,1,0,0:0:0:0:
35,294,90054,1,8,0:1:0:0:
111,369,90483,1,0,0:0:0:0:
198,305,90911,6,0,P|256:299|321:341,1,120,0|0,0:0|0:0,0:0:0:0:
318,384,91554,1,2,0:3:0:0:
318,384,91768,1,8,0:1:0:0:
406,322,92197,2,0,L|393:253,1,60,8|8,0:0|0:0,0:0:0:0:
378,211,92626,6,0,L|509:233,1,120,0|0,0:0|0:0,0:0:0:0:
509,178,93268,1,0,0:0:0:0:
509,178,93483,1,8,0:1:0:0:
486,72,93911,1,0,0:0:0:0:
378,80,94340,6,0,B|305:67|328:109|249:100,1,120,0|0,0:0|0:0,0:0:0:0:
208,102,94983,1,0,0:0:0:0:
175,145,95197,5,8,0:1:0:0:
250,222,95626,1,8,0:1:0:0:
258,275,95840,1,8,0:1:0:0:
245,333,96055,6,0,B|201:330|201:330|174:347|174:347|99:337,1,132.00000402832,0|0,3:0|0:0,0:0:0:0:
59,332,96697,1,0,3:0:0:0:
1,346,96911,1,8,1:2:0:0:
4,223,97340,2,0,B|11:170|11:170|17:157|17:157|27:90,1,132.00000402832,0|2,3:0|0:0,0:0:0:0:
29,96,99483,6,0,P|86:134|161:116,1,132.00000402832,0|0,3:0|0:0,0:0:0:0:
201,99,100126,1,0,3:0:0:0:
213,40,100340,1,8,1:2:0:0:
328,14,100768,1,0,3:0:0:0:
437,60,101197,6,0,P|424:130|420:194,1,132.00000402832,0|0,0:0|0:0,0:0:0:0:
440,246,101840,1,0,3:0:0:0:
472,295,102054,1,8,1:2:0:0:
379,369,102483,1,2,3:0:0:0:
322,351,102697,1,0,3:0:0:0:
298,296,102912,6,0,L|315:151,2,132.00000402832,0|0|0,3:0|0:0|0:0,0:0:0:0:
192,350,104197,2,0,P|163:365|114:354,2,66.0000020141602,0|0|0,3:0|0:0|0:0,0:0:0:0:
192,350,106341,6,0,L|52:319,2,132.00000402832,0|0|0,3:0|0:0|0:0,0:0:0:0:
299,300,107626,2,0,L|365:290,1,66.0000020141602,0|0,3:0|0:0,0:0:0:0:
421,275,108055,2,0,B|448:228|413:203|452:142,2,132.00000402832,0|0|0,0:0|0:0|0:0,0:0:0:0:
352,371,109340,1,2,3:0:0:0:
293,359,109554,1,0,3:0:0:0:
237,336,109769,6,0,B|199:340|199:340|150:364|150:364|98:371,1,132.00000402832,0|0,3:0|0:0,0:0:0:0:
52,360,110412,1,0,3:0:0:0:
15,313,110626,1,8,1:2:0:0:
70,208,111055,2,0,L|61:124,1,66.0000020141602,0|0,3:0|0:0,0:0:0:0:
33,91,111483,1,0,0:0:0:0:
28,82,113197,6,0,B|94:54|94:54|163:96,1,132.00000402832,0|0,3:0|0:0,0:0:0:0:
188,126,113840,1,0,3:0:0:0:
246,113,114055,1,8,1:2:0:0:
278,227,114483,2,0,L|264:302,1,66.0000020141602,0|0,3:0|0:0,0:0:0:0:
276,350,114912,1,0,0:0:0:0:
392,370,115340,2,0,P|455:369|489:289,1,132.00000402832,0|8,0:0|1:2,0:0:0:0:
443,207,116197,2,0,L|430:127,1,66.0000020141602,2|0,3:0|3:0,0:0:0:0:
448,84,116626,6,0,L|301:47,1,132.00000402832,0|0,3:0|0:0,0:0:0:0:
269,34,117269,1,0,3:0:0:0:
269,34,117483,2,0,L|282:105,1,66.0000020141602,8|0,1:2|0:0,0:0:0:0:
318,144,117912,2,0,L|305:215,1,66.0000020141602,0|0,3:0|0:0,0:0:0:0:
283,260,118340,1,0,0:0:0:0:
279,261,120055,6,0,B|215:251|219:312|137:283,1,132.00000402832,0|0,3:0|0:0,0:0:0:0:
101,272,120697,1,0,3:0:0:0:
101,272,120912,1,8,1:2:0:0:
13,352,121340,2,0,L|86:371,1,66.0000020141602,0|0,3:0|0:0,0:0:0:0:
136,366,121769,6,0,P|194:338|279:362,1,132.00000402832,0|0,0:0|0:0,0:0:0:0:
312,373,122412,1,0,3:0:0:0:
312,373,122626,1,8,1:2:0:0:
410,306,123055,1,2,3:0:0:0:
468,314,123269,1,0,3:0:0:0:
495,366,123483,1,0,0:0:0:0:
348,81,126912,6,0,P|299:41|229:50,1,125.999996154785,0|0,3:0|0:0,0:0:0:0:
185,63,127555,1,0,3:0:0:0:
185,63,127769,1,0,1:2:0:0:
230,166,128197,2,0,L|214:244,1,62.9999980773926,0|0,3:0|0:0,0:0:0:0:
192,278,128626,6,0,L|116:290,2,62.9999980773926,0|0|0,0:0|0:0|0:0,0:0:0:0:
235,322,129269,1,0,3:0:0:0:
235,322,129483,1,0,1:2:0:0:
339,277,129912,2,0,L|416:296,1,62.9999980773926,2|0,3:0|0:0,0:0:0:0:
456,296,130340,6,0,P|487:245|463:172,1,125.999996154785,0|0,3:0|0:0,0:0:0:0:
438,138,130983,1,0,3:0:0:0:
438,138,131197,1,0,1:2:0:0:
482,33,131626,2,0,L|422:13,1,62.9999980773926,0|0,3:0|0:0,0:0:0:0:
368,33,132055,6,0,L|277:12,2,62.9999980773926,0|0|0,0:0|0:0|0:0,0:0:0:0:
383,87,132697,1,2,0:3:0:0:
383,87,132912,1,0,1:0:0:0:
320,181,133340,2,0,L|337:260,1,62.9999980773926,8|8,0:0|0:0,0:0:0:0:
355,295,133769,6,0,B|289:289|302:329|222:317,1,125.999996154785,0|0,3:0|0:0,0:0:0:0:
181,311,134412,1,0,3:0:0:0:
181,311,134626,1,0,1:0:0:0:
72,344,135055,1,0,3:0:0:0:
18,244,135483,6,0,P|18:169|52:105,1,125.999996154785,0|0,0:0|0:0,0:0:0:0:
73,78,136126,1,0,3:0:0:0:
73,78,136340,1,0,1:0:0:0:
169,137,136769,2,0,L|247:153,1,62.9999980773926,0|0,3:0|0:0,0:0:0:0:
270,177,137197,6,0,B|326:184|326:184|365:163|365:163|433:176,2,161.999995056153,2|0|2,3:2|3:2|3:2,0:0:0:0:
270,177,140626,6,0,P|240:254|266:340,2,161.999995056153,2|0|2,3:2|3:2|3:2,0:0:0:0:
270,177,143197,6,0,B|208:171|225:209|155:197,1,107.999996704102,10|2,0:2|3:2,0:0:0:0:
120,183,143840,1,0,3:2:0:0:
120,183,144055,6,0,B|75:224|75:224|120:340,2,161.999995056153,2|0|2,3:2|3:2|3:2,0:0:0:0:
120,183,146626,2,0,L|100:70,1,107.999996704102,10|6,0:2|0:2,0:0:0:0:
122,32,147269,1,4,0:0:0:0:
122,32,147483,6,0,B|205:15|186:86|289:60,2,161.999995056153,2|0|2,3:2|3:2|3:2,0:0:0:0:
256,192,148983,12,2,150483,3:2:0:0:
280,337,164626,6,0,B|356:321|336:382|422:356,1,132.00000402832,0|0,3:0|0:0,0:0:0:0:
459,336,165269,1,0,3:0:0:0:
481,281,165483,1,8,1:2:0:0:
480,162,165912,2,0,L|466:20,1,132.00000402832,0|2,3:0|0:0,0:0:0:0:
467,30,168055,6,0,P|406:28|352:98,1,132.00000402832,0|0,3:0|0:0,0:0:0:0:
331,128,168698,1,0,3:0:0:0:
361,178,168912,1,8,1:2:0:0:
320,289,169340,1,0,3:0:0:0:
218,351,169769,6,0,B|84:334,1,132.00000402832,0|0,0:0|0:0,0:0:0:0:
27,328,170412,1,0,3:0:0:0:
2,274,170626,1,8,1:2:0:0:
78,183,171055,1,2,3:0:0:0:
94,126,171269,1,0,3:0:0:0:
109,68,171483,6,0,P|66:28|-8:46,2,132.00000402832,0|0|0,3:0|0:0|0:0,0:0:0:0:
203,140,172769,2,0,P|221:187|204:229,1,66.0000020141602,0|0,3:0|0:0,0:0:0:0:
192,254,173197,2,0,L|45:281,2,132.00000402832,0|0|8,0:0|0:0|1:2,0:0:0:0:
286,326,174483,1,8,0:0:0:0:
341,348,174697,1,8,0:0:0:0:
400,354,174912,6,0,P|435:304|429:221,2,132.00000402832,0|0|0,3:0|0:0|0:0,0:0:0:0:
286,326,176198,2,0,P|255:337|222:335,1,66.0000020141602,0|0,3:0|0:0,0:0:0:0:
190,285,176626,2,0,B|200:230|200:230|190:211|190:211|202:137,2,132.00000402832,0|0|0,0:0|0:0|0:0,0:0:0:0:
94,355,177912,1,2,3:0:0:0:
39,330,178126,1,0,3:0:0:0:
