osu file format v14

[General]
AudioFilename: audio.mp3
AudioLeadIn: 0
PreviewTime: 96430
Countdown: 0
SampleSet: Soft
StackLeniency: 0.7
Mode: 0
LetterboxInBreaks: 0
WidescreenStoryboard: 1

[Editor]
Bookmarks: 13876,28756,41134,44626,54912,66912,82277,109706,123483,137197,150848,164613,178126
DistanceSpacing: 1.5
BeatDivisor: 4
GridSize: 16
TimelineZoom: 1.8

[Metadata]
Title:Lemonade (feat. Gunna, Don Toliver & NAV)
TitleUnicode:Lemonade (feat. Gunna, Don Toliver & NAV)
Artist:Internet Money
ArtistUnicode:Internet Money
Creator:Mimari
Version:Hard
Source:
Tags:english hip hop trap rap b4 the storm jamesjan3 mayflower taz taylor nick mira
BeatmapID:2681400
BeatmapSetID:1290613

[Difficulty]
HPDrainRate:5
CircleSize:3.8
OverallDifficulty:6
ApproachRate:8
SliderMultiplier:1.8
SliderTickRate:1

[Events]
//Background and Video events
0,0,"ahh jamesjan3 is my favorite mapper desu OWO~.png",0,0
//Break Periods
2,41290,43019
2,55340,56733
2,68626,81590
2,123912,125305
2,151112,163876
//Storyboard Layer 0 (Background)
//Storyboard Layer 1 (Fail)
//Storyboard Layer 2 (Pass)
//Storyboard Layer 3 (Foreground)
//Storyboard Layer 4 (Overlay)
//Storyboard Sound Samples

[TimingPoints]
55,428.571428571429,4,2,1,70,1,0
13769,-111.111111111111,4,2,11,53,0,0
27055,-99.9999999999999,4,2,11,53,0,0
27483,-90.9090909090909,4,2,1,70,0,0
28340,-90.9090909090909,4,2,1,49,0,0
28555,-90.9090909090909,4,2,2,70,0,0
28769,-90.9090909090909,4,2,3,70,0,0
29197,-90.9090909090909,4,2,13,70,0,0
30912,-90.9090909090909,4,2,4,70,0,0
31769,-90.9090909090909,4,2,1,49,0,0
32197,-90.9090909090909,4,2,5,70,0,0
33483,-90.9090909090909,4,2,1,49,0,0
33912,-90.9090909090909,4,2,5,70,0,0
34340,-90.9090909090909,4,2,2,70,0,0
35197,-83.3333333333333,4,2,1,49,0,0
35626,-83.3333333333333,4,2,6,70,0,0
36055,-90.9090909090909,4,2,6,70,0,0
36912,-90.9090909090909,4,2,1,49,0,0
37126,-90.9090909090909,4,2,6,70,0,0
37340,-90.9090909090909,4,2,1,49,0,0
37769,-90.9090909090909,4,2,4,70,0,0
38626,-83.3333333333333,4,2,1,49,0,0
39055,-83.3333333333333,4,2,5,70,0,0
39483,-90.9090909090909,4,2,5,70,0,0
40340,-90.9090909090909,4,2,1,49,0,0
40769,-90.9090909090909,4,2,5,70,0,0
41197,-90.9090909090909,4,2,13,50,0,0
43769,-125,4,2,13,50,0,0
44626,-95.2380952380952,4,2,4,70,0,0
45483,-95.2380952380952,4,2,1,49,0,0
45911,-95.2380952380952,4,2,5,70,0,0
47197,-95.2380952380952,4,2,1,49,0,0
47626,-95.2380952380952,4,2,5,70,0,0
48054,-95.2380952380952,4,2,2,70,0,0
48911,-95.2380952380952,4,2,1,49,0,0
49126,-95.2380952380952,4,2,1,70,0,0
49340,-95.2380952380952,4,2,6,70,0,0
50626,-95.2380952380952,4,2,1,49,0,0
50840,-95.2380952380952,4,2,6,70,0,0
51054,-95.2380952380952,4,2,1,49,0,0
51483,-95.2380952380952,4,2,4,70,0,0
52340,-95.2380952380952,4,2,1,49,0,0
52769,-95.2380952380952,4,2,5,70,0,0
54054,-95.2380952380952,4,2,1,49,0,0
54483,-95.2380952380952,4,2,5,70,0,0
55340,-95.2380952380952,4,2,13,70,0,0
57483,-111.111111111111,4,2,1,70,0,0
58340,-95.2380952380951,4,2,5,70,0,0
59197,-95.2380952380951,4,2,1,70,0,0
59625,-95.2380952380951,4,2,5,70,0,0
60911,-95.2380952380951,4,2,1,70,0,0
61340,-95.2380952380951,4,2,5,70,0,0
61768,-95.2380952380951,4,2,2,70,0,0
62625,-95.2380952380951,4,2,1,70,0,0
63054,-95.2380952380951,4,2,6,70,0,0
64340,-95.2380952380951,4,2,1,70,0,0
64554,-95.2380952380951,4,2,6,70,0,0
64768,-95.2380952380951,4,2,1,70,0,0
65197,-95.2380952380951,4,2,4,70,0,0
66054,-95.2380952380951,4,2,1,70,0,0
66483,-95.2380952380951,4,2,5,70,0,0
66885,-95.2380952380951,4,2,13,70,0,0
66912,-95.2380952380951,4,2,13,70,0,0
68626,-95.2380952380951,4,2,12,40,0,0
82340,-111.111111111111,4,2,11,53,0,0
95626,-100,4,2,11,53,0,0
96055,-90.9090909090909,4,2,1,70,0,0
96912,-90.9090909090909,4,2,1,49,0,0
97127,-90.9090909090909,4,2,2,70,0,0
97341,-90.9090909090909,4,2,3,70,0,0
97769,-90.9090909090909,4,2,13,70,0,0
99484,-90.9090909090909,4,2,4,70,0,0
100341,-90.9090909090909,4,2,1,49,0,0
100769,-90.9090909090909,4,2,5,70,0,0
102055,-90.9090909090909,4,2,1,49,0,0
102484,-90.9090909090909,4,2,5,70,0,0
102912,-90.9090909090909,4,2,2,70,0,0
103769,-83.3333333333333,4,2,1,49,0,0
104198,-83.3333333333333,4,2,6,70,0,0
105484,-83.3333333333333,4,2,1,49,0,0
105698,-83.3333333333333,4,2,6,70,0,0
105912,-83.3333333333333,4,2,1,49,0,0
106340,-90.9090909090909,4,2,1,49,0,0
106341,-90.9090909090909,4,2,4,70,0,0
107197,-83.3333333333333,4,2,4,70,0,0
107198,-83.3333333333333,4,2,1,49,0,0
107627,-83.3333333333333,4,2,5,70,0,0
108055,-90.9090909090909,4,2,5,70,0,0
108912,-90.9090909090909,4,2,1,49,0,0
109341,-90.9090909090909,4,2,5,70,0,0
109769,-95.2380952380951,4,2,1,70,0,0
110626,-95.2380952380951,4,2,1,49,0,0
110840,-95.2380952380951,4,2,2,70,0,0
111055,-95.2380952380951,4,2,3,70,0,0
113198,-95.2380952380951,4,2,4,70,0,0
114055,-95.2380952380951,4,2,1,49,0,0
114483,-95.2380952380951,4,2,5,70,0,0
115769,-95.2380952380951,4,2,1,49,0,0
116198,-95.2380952380951,4,2,5,70,0,0
116626,-95.2380952380951,4,2,2,70,0,0
117483,-95.2380952380951,4,2,1,49,0,0
117698,-95.2380952380951,4,2,1,70,0,0
117912,-95.2380952380951,4,2,6,70,0,0
119198,-95.2380952380951,4,2,1,49,0,0
119412,-95.2380952380951,4,2,6,70,0,0
119626,-95.2380952380951,4,2,1,49,0,0
120055,-95.2380952380951,4,2,4,70,0,0
120912,-95.2380952380951,4,2,1,49,0,0
121341,-95.2380952380951,4,2,5,70,0,0
122626,-95.2380952380951,4,2,1,49,0,0
123055,-95.2380952380951,4,2,5,70,0,0
126055,-95.2380952380951,4,2,1,70,0,0
126912,-95.2380952380951,4,2,4,70,0,0
127769,-95.2380952380951,4,2,1,70,0,0
128197,-95.2380952380951,4,2,5,70,0,0
129483,-95.2380952380951,4,2,1,70,0,0
129912,-95.2380952380951,4,2,5,70,0,0
130340,-95.2380952380951,4,2,2,70,0,0
131197,-95.2380952380951,4,2,1,70,0,0
131626,-95.2380952380951,4,2,6,70,0,0
132912,-95.2380952380951,4,2,1,70,0,0
133126,-95.2380952380951,4,2,6,70,0,0
133340,-95.2380952380951,4,2,1,70,0,0
133769,-95.2380952380951,4,2,4,70,0,0
134626,-95.2380952380951,4,2,1,70,0,0
135055,-95.2380952380951,4,2,5,70,0,0
136340,-95.2380952380951,4,2,1,70,0,0
136769,-95.2380952380951,4,2,5,70,0,0
137197,-95.2380952380951,4,2,13,53,0,0
138483,-133.333333333333,4,2,13,53,0,0
150912,-133.333333333333,4,2,12,53,0,0
164626,-90.9090909090909,4,2,1,70,0,0
165483,-90.9090909090909,4,2,1,49,0,0
165698,-90.9090909090909,4,2,2,70,0,0
165912,-90.9090909090909,4,2,3,70,0,0
166340,-90.9090909090909,4,2,13,70,0,0
168055,-90.9090909090909,4,2,4,70,0,0
168912,-90.9090909090909,4,2,1,49,0,0
169340,-90.9090909090909,4,2,5,70,0,0
170626,-90.9090909090909,4,2,1,49,0,0
171055,-90.9090909090909,4,2,5,70,0,0
171483,-90.9090909090909,4,2,2,70,0,0
172340,-83.3333333333333,4,2,1,49,0,0
172769,-83.3333333333333,4,2,6,70,0,0
173197,-90.9090909090909,4,2,6,70,0,0
174055,-90.9090909090909,4,2,1,49,0,0
174269,-90.9090909090909,4,2,6,70,0,0
174483,-90.9090909090909,4,2,1,49,0,0
174912,-90.9090909090909,4,2,4,70,0,0
175769,-83.3333333333333,4,2,1,49,0,0
176198,-83.3333333333333,4,2,5,70,0,0
176626,-90.9090909090909,4,2,5,70,0,0
177483,-90.9090909090909,4,2,1,49,0,0
177912,-90.9090909090909,4,2,5,70,0,0
178340,-90.9090909090909,4,2,1,70,0,0
179197,-90.9090909090909,4,2,1,70,0,0
179411,-90.9090909090909,4,2,1,70,0,0
179626,-90.9090909090909,4,2,1,70,0,0
179947,-90.9090909090909,4,2,1,5,0,0
180055,-90.9090909090909,4,2,1,35,0,0
181769,-90.9090909090909,4,2,1,15,0,0
182626,-90.9090909090909,4,2,1,15,0,0
183054,-90.9090909090909,4,2,1,15,0,0
184340,-90.9090909090909,4,2,1,15,0,0
184769,-90.9090909090909,4,2,1,15,0,0
185197,-90.9090909090909,4,2,1,15,0,0
186054,-90.9090909090909,4,2,1,15,0,0
186269,-90.9090909090909,4,2,1,15,0,0
186483,-90.9090909090909,4,2,1,15,0,0
187769,-90.9090909090909,4,2,1,15,0,0
187983,-90.9090909090909,4,2,1,15,0,0
188197,-90.9090909090909,4,2,1,15,0,0
188626,-90.9090909090909,4,2,1,15,0,0
189483,-90.9090909090909,4,2,1,15,0,0
189912,-90.9090909090909,4,2,1,15,0,0
191197,-90.9090909090909,4,2,1,15,0,0
191626,-90.9090909090909,4,2,1,15,0,0

[Colours]
Combo1 : 227,228,220
Combo2 : 233,225,169
Combo3 : 162,201,234

[HitObjects]
44,296,13769,6,0,B|136:279|99:365|216:328,1,161.999995056153,0|0,0:0|0:0,0:0:0:0:
297,294,14411,1,0,0:0:0:0:
251,193,14626,2,0,P|185:190|150:239,1,121.499996292114,8|0,0:1|0:0,0:0:0:0:
135,239,15055,2,0,P|140:264|145:303,1,40.4999987640381,0|0,0:0|0:0,0:0:0:0:
136,297,15268,1,0,0:0:0:0:
47,214,15483,6,0,B|30:122|116:159|79:42,1,161.999995056153,0|0,0:0|0:0,0:0:0:0:
20,2,16126,1,2,0:3:0:0:
85,64,16340,2,0,P|134:62|174:95,1,80.9999975280763,8|0,0:1|0:0,0:0:0:0:
179,101,16662,1,0,0:0:0:0:
179,101,16769,1,8,0:0:0:0:
132,187,16983,1,8,0:0:0:0:
205,261,17197,6,0,B|265:283|317:244|317:244|298:223|288:182,1,161.999995056153,0|0,0:0|0:0,0:0:0:0:
246,141,17840,1,0,0:0:0:0:
315,80,18055,2,0,B|390:76|351:112|452:108,1,121.499996292114,8|0,0:1|0:0,0:0:0:0:
447,97,18483,2,0,P|451:77|462:47,1,40.4999987640381,0|0,0:0|0:0,0:0:0:0:
453,40,18697,1,0,0:0:0:0:
374,132,18912,6,0,B|357:224|443:187|406:304,1,161.999995056153,0|0,0:0|0:0,0:0:0:0:
461,361,19554,1,0,0:0:0:0:
412,281,19769,2,0,B|310:271|310:271|292:308|333:343,2,161.999995056153,8|2|0,0:1|0:3|0:0,0:0:0:0:
234,287,21054,5,0,0:0:0:0:
317,326,21269,1,0,0:0:0:0:
236,373,21483,2,0,B|148:336|148:336|79:372,1,161.999995056153,8|0,0:1|0:0,0:0:0:0:
26,307,22126,1,0,0:0:0:0:
71,235,22340,6,0,L|125:255,1,40.4999987640381,0|0,0:0|0:0,0:0:0:0:
132,238,22555,1,0,0:0:0:0:
99,157,22769,2,0,P|54:152|13:183,1,80.9999975280763,0|2,0:0|0:3,0:0:0:0:
57,74,23197,6,0,P|120:71|186:132,1,121.499996292114,8|0,0:1|0:0,0:0:0:0:
185,123,23626,1,8,0:0:0:0:
275,76,23840,1,8,0:0:0:0:
371,103,24055,6,0,B|360:125|341:130|341:130|368:218,1,121.499996292114,0|0,0:0|0:0,0:0:0:0:
357,219,24483,2,0,L|346:277,1,40.4999987640381,0|0,0:0|0:0,0:0:0:0:
357,275,24697,1,0,0:0:0:0:
450,333,24912,6,0,B|358:316|395:402|278:365,1,161.999995056153,8|0,0:1|0:0,0:0:0:0:
230,311,25554,1,0,0:0:0:0:
143,340,25769,6,0,P|97:338|60:300,1,80.9999975280763,0|0,0:0|0:0,0:0:0:0:
68,291,26090,1,0,0:0:0:0:
68,291,26197,1,0,0:0:0:0:
43,201,26412,1,0,0:0:0:0:
106,136,26626,6,0,L|165:154,1,40.4999987640381,8|0,0:1|0:0,0:0:0:0:
112,150,27055,6,0,L|180:168,1,45,8|0,0:1|0:0,0:0:0:0:
220,219,27269,2,0,L|285:201,1,45,8|0,0:1|0:0,0:0:0:0:
332,116,27483,6,0,B|421:111|375:178|494:163,1,148.50000453186,0|0,3:0|0:0,0:0:0:0:
487,152,27912,1,0,0:0:0:0:
438,259,28126,1,0,3:0:0:0:
503,370,28340,2,0,B|485:348|457:346|457:346|387:373,1,99.0000030212403,8|0,1:2|3:0,0:0:0:0:
318,211,28769,2,0,B|323:300|256:254|271:373,1,148.50000453186,0|0,3:0|0:0,0:0:0:0:
282,365,29197,1,2,0:0:0:0:
282,365,30911,6,0,P|307:295|262:203,1,148.50000453186,0|0,3:0|0:0,0:0:0:0:
266,218,31340,1,0,0:0:0:0:
353,133,31555,1,0,3:0:0:0:
281,55,31769,2,0,P|225:53|197:96,1,99.0000030212403,8|0,1:2|0:0,0:0:0:0:
84,26,32197,2,0,B|118:58|118:58|141:115|78:171,1,148.50000453186,0|0,3:0|0:0,0:0:0:0:
85,165,32626,6,0,L|24:156,1,49.5000015106202,0|0,0:0|0:0,0:0:0:0:
14,172,32840,1,0,0:0:0:0:
107,242,33054,1,0,0:0:0:0:
1,310,33269,1,0,3:0:0:0:
91,368,33483,2,0,P|116:361|163:354,1,49.5000015106202,8|0,1:2|0:0,0:0:0:0:
155,367,33697,1,0,0:0:0:0:
264,384,33912,5,2,3:0:0:0:
207,259,34126,1,0,3:0:0:0:
325,304,34340,6,0,B|414:299|368:366|487:351,1,148.50000453186,0|0,3:0|0:0,0:0:0:0:
472,344,34769,2,0,P|474:295|503:175,1,148.50000453186,0|0,0:0|0:0,0:0:0:0:
467,207,35197,6,0,P|465:158|436:27,1,161.999995056153,8|0,1:2|0:0,0:0:0:0:
447,23,35626,5,0,3:0:0:0:
339,4,35840,1,0,0:0:0:0:
374,108,36055,6,0,P|370:160|352:221,1,99.0000030212403,0|0,0:0|0:0,0:0:0:0:
253,228,36483,1,0,0:0:0:0:
273,118,36697,1,2,0:3:0:0:
358,205,36911,6,0,P|374:221|383:265,1,49.5000015106202,8|0,1:2|0:0,0:0:0:0:
348,277,37126,2,0,L|320:385,2,99.0000030212403,0|8|8,3:0|0:0|0:0,0:0:0:0:
207,165,37769,6,0,B|130:138|151:217|54:179,1,148.50000453186,0|0,3:0|0:0,0:0:0:0:
38,155,38197,2,0,P|19:106|86:33,1,148.50000453186,0|0,0:0|0:0,0:0:0:0:
97,41,38626,6,0,P|145:20|221:91,1,161.999995056153,8|0,0:0|0:0,0:0:0:0:
209,110,39055,1,0,3:0:0:0:
139,232,39269,1,0,0:0:0:0:
258,305,39483,6,0,B|305:301|305:301|315:303|315:303|357:294,1,99.0000030212403,0|0,0:0|0:0,0:0:0:0:
449,370,39911,1,0,0:0:0:0:
512,278,40126,2,0,L|495:214,1,49.5000015106202,0|0,3:0|0:0,0:0:0:0:
504,212,40340,1,8,1:2:0:0:
397,159,40555,1,0,0:0:0:0:
488,76,40769,6,0,L|474:142,1,49.5000015106202,2|0,3:0|0:0,0:0:0:0:
478,58,40983,2,0,L|464:124,1,49.5000015106202,0|0,3:0|0:0,0:0:0:0:
467,106,43769,6,0,B|406:101|406:101|322:187|322:187|244:180,1,252,2|0,0:0|0:0,0:0:0:0:
244,161,44626,6,0,P|337:171|347:240,1,141.749995674133,0|0,3:0|0:0,0:0:0:0:
368,219,45055,2,0,L|336:335,1,94.499997116089,0|0,0:0|3:0,0:0:0:0:
258,379,45483,1,8,1:2:0:0:
241,269,45697,1,0,0:0:0:0:
342,310,45912,2,0,P|382:334|451:322,1,94.499997116089,0|0,3:0|0:0,0:0:0:0:
489,231,46340,5,0,0:0:0:0:
408,259,46554,1,0,0:0:0:0:
383,174,46769,1,0,0:0:0:0:
464,146,46983,1,0,3:0:0:0:
395,84,47197,6,0,B|344:79|344:79|314:91|314:91|248:82,1,141.749995674133,8|0,1:2|0:0,0:0:0:0:
247,66,47626,2,0,L|185:79,1,47.2499985580445,2|0,3:0|0:0,0:0:0:0:
177,80,47840,1,0,3:0:0:0:
68,25,48055,6,0,B|102:68|102:68|66:152,1,141.749995674133,0|0,3:0|0:0,0:0:0:0:
51,153,48483,2,0,B|33:176|33:176|66:257,1,94.499997116089,0|0,0:0|3:0,0:0:0:0:
108,317,48912,1,8,1:2:0:0:
154,233,49126,1,0,0:0:0:0:
187,357,49340,1,0,3:0:0:0:
233,273,49555,2,0,P|285:258|330:281,1,94.499997116089,0|0,0:0|0:0,0:0:0:0:
320,272,51483,6,0,B|306:221|306:221|321:186|321:186|301:104,1,141.749995674133,0|0,3:0|0:0,0:0:0:0:
299,126,51912,2,0,L|231:106,1,47.2499985580445,0|0,0:0|0:0,0:0:0:0:
231,104,52126,1,0,3:0:0:0:
299,32,52340,2,0,L|412:20,1,94.499997116089,8|0,0:0|0:0,0:0:0:0:
478,75,52769,5,0,3:0:0:0:
456,157,52983,1,0,0:0:0:0:
396,93,53197,1,0,0:0:0:0:
374,175,53411,1,0,0:0:0:0:
430,238,53626,2,0,L|547:263,1,94.499997116089,0|0,0:0|3:0,0:0:0:0:
448,330,54055,6,0,B|380:365|380:365|339:373|301:330,1,141.749995674133,8|0,1:2|0:0,0:0:0:0:
317,334,54483,2,0,L|333:263,1,47.2499985580445,2|0,3:0|0:0,0:0:0:0:
315,268,54697,2,0,P|314:220|288:161,1,94.499997116089,0|0,3:0|0:0,0:0:0:0:
97,19,57483,6,0,B|62:60|62:60|103:167,1,161.999995056153,0|0,1:0|0:0,0:0:0:0:
100,160,58340,6,0,B|145:164|145:164|182:193|182:193|250:198,1,141.749995674133,0|0,3:0|0:0,0:0:0:0:
248,182,58769,1,0,0:0:0:0:
192,84,58983,1,0,3:0:0:0:
277,32,59197,6,0,P|323:27|372:67,1,94.499997116089,0|0,1:2|0:0,0:0:0:0:
368,76,59519,1,0,0:0:0:0:
368,76,59626,1,0,3:0:0:0:
337,169,59840,1,0,0:0:0:0:
430,201,60055,5,0,0:0:0:0:
459,103,60269,1,0,0:0:0:0:
427,210,60483,2,0,L|447:278,1,47.2499985580445,0|0,0:0|0:0,0:0:0:0:
435,267,60697,1,0,3:0:0:0:
382,359,60912,2,0,P|321:338|276:341,1,94.499997116089,0|0,1:2|0:0,0:0:0:0:
225,272,61340,5,2,3:0:0:0:
199,359,61555,1,0,3:0:0:0:
158,237,61769,6,0,B|225:231|225:231|235:239|235:239|319:231,1,141.749995674133,0|0,3:0|0:0,0:0:0:0:
312,221,62197,2,0,L|330:145,1,47.2499985580445,0|0,0:0|0:0,0:0:0:0:
336,163,62412,2,0,L|354:87,1,47.2499985580445,0|0,3:0|0:0,0:0:0:0:
354,103,62626,1,0,1:2:0:0:
299,28,62840,1,0,0:0:0:0:
299,28,62947,1,0,0:0:0:0:
299,28,63054,6,0,P|244:18|192:56,1,94.499997116089,0|0,3:0|0:0,0:0:0:0:
206,46,63376,2,0,B|130:22|143:90|48:60,1,141.749995674133,0|0,0:0|0:0,0:0:0:0:
44,59,63805,1,0,0:0:0:0:
44,59,63911,1,0,0:0:0:0:
0,148,64126,1,2,0:3:0:0:
74,219,64340,6,0,L|192:184,1,94.499997116089,0|0,1:0|3:0,0:0:0:0:
238,248,64769,1,8,0:0:0:0:
189,324,64983,1,8,0:0:0:0:
109,373,65197,6,0,P|91:327|131:270,1,94.499997116089,0|0,3:0|0:0,0:0:0:0:
130,265,65519,1,0,0:0:0:0:
130,265,65626,1,0,0:0:0:0:
197,338,65840,1,0,3:0:0:0:
292,304,66054,2,0,P|344:303|397:338,1,94.499997116089,0|0,1:0|0:0,0:0:0:0:
472,369,66483,6,0,B|463:276|463:276|460:276|460:276|451:179,1,188.999994232178,0|2,3:0|0:0,0:0:0:0:
49,73,82340,6,0,L|43:33,2,40.4999987640381,0|0|0,0:0|0:0|0:0,0:0:0:0:
25,170,82769,1,0,0:0:0:0:
116,146,82983,1,0,0:0:0:0:
147,58,83197,6,0,P|212:58|252:125,1,121.499996292114,8|0,0:1|0:0,0:0:0:0:
260,118,83626,2,0,P|256:137|252:157,1,40.4999987640381,0|0,0:0|0:0,0:0:0:0:
234,170,83839,1,0,0:0:0:0:
292,245,84054,6,0,B|384:262|347:176|464:213,1,161.999995056153,0|0,0:0|0:0,0:0:0:0:
510,266,84697,1,2,0:3:0:0:
458,336,84911,2,0,P|409:334|369:367,1,80.9999975280763,8|0,0:1|0:0,0:0:0:0:
375,374,85233,1,0,0:0:0:0:
375,374,85340,1,8,0:0:0:0:
283,321,85554,1,8,0:0:0:0:
198,368,85769,6,0,B|103:385|103:385|70:364|84:309,1,161.999995056153,0|0,0:0|0:0,0:0:0:0:
122,256,86411,1,0,0:0:0:0:
50,209,86626,2,0,B|54:134|18:173|22:72,1,121.499996292114,8|0,0:1|0:0,0:0:0:0:
32,80,87054,2,0,P|52:76|82:65,1,40.4999987640381,0|0,0:0|0:0,0:0:0:0:
80,54,87268,1,0,0:0:0:0:
164,0,87483,6,0,B|147:92|233:55|196:172,1,161.999995056153,0|0,0:0|0:0,0:0:0:0:
152,233,88125,1,0,0:0:0:0:
221,287,88340,2,0,B|291:307|291:307|320:288|322:255|300:225,2,161.999995056153,8|2|0,0:1|0:3|0:0,0:0:0:0:
328,377,89625,5,0,0:0:0:0:
291,307,89840,1,0,0:0:0:0:
376,308,90055,2,0,P|422:251|405:184,1,121.499996292114,8|0,0:1|0:0,0:0:0:0:
409,190,90483,2,0,L|342:204,1,40.4999987640381,0|0,0:0|0:0,0:0:0:0:
349,188,90697,1,0,0:0:0:0:
288,124,90911,6,0,P|295:101|302:63,1,40.4999987640381,0|0,0:0|0:0,0:0:0:0:
288,67,91126,1,0,0:0:0:0:
350,8,91340,2,0,P|389:1|425:19,1,80.9999975280763,0|2,0:0|0:3,0:0:0:0:
504,56,91768,6,0,B|516:81|536:99|536:99|494:172,1,121.499996292114,8|0,0:1|0:0,0:0:0:0:
482,160,92197,1,8,0:0:0:0:
507,245,92411,1,8,0:0:0:0:
471,325,92626,6,0,B|400:305|432:372|334:341,1,121.499996292114,0|0,0:0|0:0,0:0:0:0:
333,355,93054,2,0,L|322:297,1,40.4999987640381,0|0,0:0|0:0,0:0:0:0:
312,294,93268,1,0,0:0:0:0:
218,272,93483,6,0,B|201:180|287:217|250:100,1,161.999995056153,8|0,0:1|0:0,0:0:0:0:
311,15,94125,1,0,0:0:0:0:
183,17,94340,6,0,P|137:19|100:57,1,80.9999975280763,0|0,0:0|0:0,0:0:0:0:
91,74,94661,1,0,0:0:0:0:
91,74,94769,2,0,L|114:181,1,80.9999975280763,0|0,0:0|0:0,0:0:0:0:
42,236,95197,1,8,0:1:0:0:
35,254,95626,6,0,L|47:317,1,45,8|0,0:1|0:0,0:0:0:0:
121,231,95840,2,0,L|133:294,1,45,8|0,0:1|0:0,0:0:0:0:
132,358,96055,6,0,B|221:364|175:296|297:319,1,148.50000453186,0|0,3:0|0:0,0:0:0:0:
283,328,96484,1,0,0:0:0:0:
362,253,96698,1,0,3:0:0:0:
282,177,96912,2,0,B|261:129|261:129|297:71,1,99.0000030212403,8|0,1:2|3:0,0:0:0:0:
342,0,97341,2,0,B|431:-5|385:62|504:47,1,148.50000453186,0|0,3:0|0:0,0:0:0:0:
507,62,97769,1,2,0:0:0:0:
507,62,99483,6,0,B|487:89|471:108|471:108|503:200,1,148.50000453186,0|0,3:0|0:0,0:0:0:0:
491,213,99912,1,0,0:0:0:0:
393,161,100127,1,0,3:0:0:0:
340,246,100341,2,0,P|364:294|368:346,1,99.0000030212403,8|0,1:2|0:0,0:0:0:0:
266,371,100769,6,0,B|216:361|216:361|177:375|177:375|95:352,1,148.50000453186,0|0,3:0|0:0,0:0:0:0:
91,343,101198,2,0,L|68:268,1,49.5000015106202,0|0,0:0|0:0,0:0:0:0:
58,275,101412,1,0,0:0:0:0:
137,183,101626,1,0,0:0:0:0:
31,115,101841,1,0,3:0:0:0:
111,32,102055,6,0,P|135:27|183:18,1,49.5000015106202,8|0,1:2|0:0,0:0:0:0:
177,6,102269,1,0,0:0:0:0:
149,101,102484,1,2,3:0:0:0:
233,168,102698,1,0,3:0:0:0:
330,123,102912,6,0,P|408:102|460:183,1,148.50000453186,0|0,3:0|0:0,0:0:0:0:
471,163,103340,2,0,B|382:158|428:225|309:210,1,148.50000453186,0|0,0:0|0:0,0:0:0:0:
320,244,103769,6,0,B|409:239|363:306|498:288,1,161.999995056153,8|0,1:2|0:0,0:0:0:0:
498,312,104198,1,0,3:0:0:0:
412,384,104412,1,0,0:0:0:0:
305,346,104626,1,0,0:0:0:0:
305,346,106341,6,0,B|332:269|253:290|291:193,1,148.50000453186,0|0,3:0|0:0,0:0:0:0:
282,175,106769,2,0,B|334:170|334:170|369:190|369:190|458:176,1,148.50000453186,0|0,0:0|0:0,0:0:0:0:
467,148,107197,6,0,B|415:143|415:143|375:167|375:167|287:150,1,161.999995056153,8|0,0:0|0:0,0:0:0:0:
299,134,107627,1,0,3:0:0:0:
379,49,107841,1,0,0:0:0:0:
263,10,108055,6,0,B|211:-1|211:-1|168:38,1,99.0000030212403,0|0,0:0|0:0,0:0:0:0:
75,65,108483,1,0,0:0:0:0:
152,142,108698,2,0,L|164:189,1,49.5000015106202,0|0,3:0|0:0,0:0:0:0:
151,208,108912,1,8,0:0:0:0:
260,238,109127,1,0,0:0:0:0:
191,307,109341,6,0,L|207:374,1,49.5000015106202,2|0,3:0|0:0,0:0:0:0:
211,317,109555,2,0,L|227:384,1,49.5000015106202,0|0,3:0|0:0,0:0:0:0:
120,365,109769,6,0,B|27:382|27:382|-8:318,1,141.749995674133,0|0,3:0|0:0,0:0:0:0:
11,320,110197,1,0,0:0:0:0:
24,306,110305,1,0,0:0:0:0:
43,299,110412,1,0,3:0:0:0:
0,138,110626,6,0,B|74:131|49:206|140:194,1,141.749995674133,8|0,1:2|0:0,0:0:0:0:
156,171,111054,1,0,3:0:0:0:
156,171,111162,2,0,P|173:148|173:100,1,47.2499985580445,0|0,0:0|0:0,0:0:0:0:
133,37,111483,5,0,0:0:0:0:
126,25,112769,6,0,L|202:38,1,47.2499985580445,0|0,0:0|0:0,0:0:0:0:
335,12,113197,6,0,B|373:53|373:53|361:91|341:151,1,141.749995674133,0|0,3:0|0:0,0:0:0:0:
368,165,113625,1,0,0:0:0:0:
368,165,113733,2,0,L|381:238,1,47.2499985580445,0|0,0:0|3:0,0:0:0:0:
479,294,114055,6,0,B|405:287|430:362|339:350,1,141.749995674133,8|0,1:2|0:0,0:0:0:0:
332,336,114483,1,0,3:0:0:0:
332,336,114591,2,0,P|298:336|268:366,1,47.2499985580445,0|0,0:0|0:0,0:0:0:0:
184,380,114912,6,0,B|178:329|178:329|196:295|196:295|187:211,1,141.749995674133,0|0,0:0|0:0,0:0:0:0:
168,216,115340,1,0,0:0:0:0:
168,216,115447,2,0,L|98:199,1,47.2499985580445,0|0,0:0|3:0,0:0:0:0:
63,87,115769,6,0,B|164:63|164:63|216:129,1,141.749995674133,8|0,1:2|0:0,0:0:0:0:
221,126,116197,2,0,L|273:112,1,47.2499985580445,2|0,3:0|0:0,0:0:0:0:
281,123,116412,1,0,3:0:0:0:
364,23,116626,6,0,B|313:17|313:17|279:35|279:35|195:26,1,141.749995674133,0|0,3:0|0:0,0:0:0:0:
209,13,117055,1,0,0:0:0:0:
90,36,117269,1,0,3:0:0:0:
139,137,117483,2,0,L|117:205,1,47.2499985580445,8|0,1:2|0:0,0:0:0:0:
131,202,117697,5,0,0:0:0:0:
55,270,117911,1,0,3:0:0:0:
65,291,118019,2,0,P|67:343|107:380,1,94.499997116089,0|0,0:0|0:0,0:0:0:0:
126,375,118340,1,0,0:0:0:0:
136,367,119626,6,0,L|217:346,1,47.2499985580445,0|0,0:0|0:0,0:0:0:0:
344,368,120055,6,0,P|366:326|338:262,1,94.499997116089,0|0,3:0|0:0,0:0:0:0:
334,263,120376,1,0,0:0:0:0:
308,269,120483,1,0,0:0:0:0:
394,177,120697,1,0,3:0:0:0:
317,95,120912,2,0,L|262:107,1,47.2499985580445,8|0,1:2|0:0,0:0:0:0:
250,121,121126,6,0,L|119:102,1,94.499997116089,0|0,0:0|3:0,0:0:0:0:
68,164,121555,1,0,0:0:0:0:
32,60,121769,2,0,P|70:20|178:35,1,141.749995674133,0|0,0:0|0:0,0:0:0:0:
164,35,122197,2,0,L|235:24,1,47.2499985580445,0|0,0:0|0:0,0:0:0:0:
230,33,122412,1,0,3:0:0:0:
314,92,122626,6,0,B|421:38|421:38|487:96,1,188.999994232178,8|2,1:2|3:0,0:0:0:0:
500,165,123269,2,0,P|483:194|493:241,1,47.2499985580445,0|0,3:0|0:0,0:0:0:0:
491,228,123483,1,0,0:0:0:0:
488,221,126055,5,0,1:0:0:0:
421,367,126483,5,8,0:0:0:0:
364,294,126697,1,8,0:0:0:0:
291,354,126912,6,0,B|195:345|254:391|130:361,1,141.749995674133,0|0,3:0|0:0,0:0:0:0:
134,359,127340,1,0,0:0:0:0:
123,341,127447,1,0,0:0:0:0:
127,321,127555,1,0,3:0:0:0:
110,224,127769,1,0,1:2:0:0:
6,279,127983,1,0,0:0:0:0:
22,163,128197,6,0,L|43:84,1,47.2499985580445,0|0,3:0|0:0,0:0:0:0:
26,103,128412,1,0,0:0:0:0:
110,57,128626,1,0,0:0:0:0:
129,62,128733,1,0,0:0:0:0:
146,60,128840,1,0,0:0:0:0:
244,7,129055,2,0,P|271:7|311:33,1,47.2499985580445,0|0,0:0|0:0,0:0:0:0:
304,32,129269,1,0,3:0:0:0:
397,14,129483,6,0,B|377:144,1,94.499997116089,0|0,1:2|0:0,0:0:0:0:
396,132,129805,1,0,0:0:0:0:
404,154,129912,1,2,3:0:0:0:
292,179,130126,1,0,3:0:0:0:
374,247,130340,6,0,P|425:289|406:381,1,141.749995674133,0|0,3:0|0:0,0:0:0:0:
408,375,130769,1,0,0:0:0:0:
386,378,130876,1,0,0:0:0:0:
369,365,130983,1,0,3:0:0:0:
254,320,131197,6,0,L|243:265,1,47.2499985580445,0|0,1:2|0:0,0:0:0:0:
260,252,131412,1,0,0:0:0:0:
299,165,131626,1,0,3:0:0:0:
294,151,131733,1,0,0:0:0:0:
279,137,131840,1,0,0:0:0:0:
201,92,132055,6,0,L|223:-10,1,94.499997116089,0|0,0:0|0:0,0:0:0:0:
126,39,132483,2,0,L|69:59,1,47.2499985580445,0|0,0:0|0:0,0:0:0:0:
65,45,132697,1,2,0:3:0:0:
58,152,132912,2,0,L|-7:138,2,47.2499985580445,0|0|0,1:0|0:0|3:0,0:0:0:0:
112,236,133340,1,8,0:0:0:0:
201,168,133555,1,8,0:0:0:0:
283,219,133769,6,0,B|290:255|314:269|314:269|317:316|269:364,1,141.749995674133,0|0,3:0|0:0,0:0:0:0:
264,360,134197,1,0,0:0:0:0:
234,367,134305,1,0,0:0:0:0:
204,354,134412,1,0,3:0:0:0:
114,317,134626,2,0,L|96:398,2,62.9999980773926,0|0|0,1:0|0:0|0:0,0:0:0:0:
175,249,135055,6,0,P|104:264|53:198,1,141.749995674133,0|0,3:0|0:0,0:0:0:0:
63,184,135483,2,0,B|61:144|73:113|73:113|96:91|136:68,1,141.749995674133,0|0,0:0|0:0,0:0:0:0:
160,53,135912,1,0,0:0:0:0:
194,61,136020,1,0,0:0:0:0:
217,83,136127,1,0,0:0:0:0:
311,61,136340,6,0,L|392:79,2,62.9999980773926,0|0|0,1:0|0:0|0:0,0:0:0:0:
257,0,136769,5,0,3:0:0:0:
295,154,136983,1,0,3:0:0:0:
200,259,137197,1,2,3:2:0:0:
200,259,137840,1,0,3:2:0:0:
350,334,138483,6,0,B|408:324|408:324|420:330|420:330|497:317,1,135.000005149842,2|2,3:2|0:2,0:0:0:0:
481,319,140626,5,2,3:2:0:0:
481,319,141269,1,0,3:2:0:0:
379,200,141912,6,0,P|374:131|442:74,1,135.000005149842,2|2,3:2|0:2,0:0:0:0:
414,83,142983,5,0,3:0:0:0:
414,83,143626,1,2,3:2:0:0:
325,27,144055,6,0,P|253:28|234:95,1,135.000005149842,2|2,3:2|0:2,0:0:0:0:
283,135,144697,5,0,3:2:0:0:
283,135,145340,2,0,P|264:203|252:286,1,135.000005149842,2|2,3:2|0:2,0:0:0:0:
253,266,146840,5,0,3:0:0:0:
134,312,147483,6,0,B|96:281|96:281|4:321,1,135.000005149842,2|2,3:2|0:2,0:0:0:0:
76,373,148126,5,0,3:2:0:0:
76,373,148769,2,0,P|104:272|100:218,1,135.000005149842,2|0,3:2|0:0,0:0:0:0:
103,242,149840,5,0,3:0:0:0:
103,242,150912,5,6,0:0:0:0:
230,30,164626,6,0,B|141:25|187:92|68:77,1,148.50000453186,0|0,3:0|0:0,0:0:0:0:
75,64,165055,1,0,0:0:0:0:
0,155,165269,1,0,3:0:0:0:
97,234,165483,2,0,B|142:258|142:258|209:226,1,99.0000030212403,8|0,1:2|3:0,0:0:0:0:
271,114,165912,2,0,B|266:203|333:157|318:276,1,148.50000453186,0|0,3:0|0:0,0:0:0:0:
304,279,166340,1,2,0:0:0:0:
304,279,168055,6,0,B|386:282|343:341|435:332,1,148.50000453186,0|0,3:0|0:0,0:0:0:0:
450,350,168484,1,0,0:0:0:0:
511,247,168698,1,0,3:0:0:0:
382,213,168912,2,0,P|380:157|423:129,1,99.0000030212403,8|0,1:2|0:0,0:0:0:0:
494,39,169340,2,0,B|445:32|445:32|409:46|409:46|337:33,1,148.50000453186,0|0,3:0|0:0,0:0:0:0:
322,52,169769,6,0,L|273:59,1,49.5000015106202,0|0,0:0|0:0,0:0:0:0:
244,44,169983,1,0,0:0:0:0:
315,138,170197,1,0,0:0:0:0:
213,194,170412,5,0,3:0:0:0:
309,299,170626,2,0,P|295:326|289:361,1,49.5000015106202,8|0,1:2|0:0,0:0:0:0:
299,364,170840,1,0,0:0:0:0:
196,288,171055,5,2,3:0:0:0:
109,375,171269,1,0,3:0:0:0:
49,271,171483,6,0,B|54:182|-13:228|2:109,1,148.50000453186,0|0,3:0|0:0,0:0:0:0:
11,113,171912,2,0,P|84:95|141:157,1,148.50000453186,0|0,0:0|0:0,0:0:0:0:
169,176,172340,6,0,P|242:194|303:125,1,161.999995056153,8|0,1:2|0:0,0:0:0:0:
299,119,172769,1,0,3:0:0:0:
248,7,172983,1,0,0:0:0:0:
370,30,173198,6,0,B|418:36|418:36|427:43|427:43|503:48,1,99.0000030212403,0|0,0:0|0:0,0:0:0:0:
512,127,173626,1,0,0:0:0:0:
419,179,173840,1,0,0:0:0:0:
505,265,174054,6,0,L|450:283,1,49.5000015106202,8|0,1:2|0:0,0:0:0:0:
418,285,174269,2,0,P|406:340|445:388,2,99.0000030212403,0|8|8,3:0|0:0|0:0,0:0:0:0:
320,190,174912,6,0,B|243:163|264:242|167:204,1,148.50000453186,0|0,3:0|0:0,0:0:0:0:
170,248,175340,2,0,P|158:180|143:86,1,148.50000453186,0|0,0:0|0:0,0:0:0:0:
122,72,175769,6,0,P|108:156|90:240,1,161.999995056153,8|0,0:0|0:0,0:0:0:0:
72,243,176198,1,0,3:0:0:0:
9,358,176412,1,0,0:0:0:0:
136,349,176626,6,0,B|176:357|176:357|186:355|186:355|233:366,1,99.0000030212403,0|0,0:0|0:0,0:0:0:0:
282,270,177054,1,0,0:0:0:0:
359,360,177269,2,0,L|376:296,1,49.5000015106202,0|0,3:0|0:0,0:0:0:0:
383,275,177483,2,0,P|438:252|501:271,1,99.0000030212403,8|0,0:0|0:0,0:0:0:0:
495,155,177912,6,0,P|493:132|484:106,1,49.5000015106202,2|0,3:0|0:0,0:0:0:0:
462,86,178126,1,0,3:0:0:0:
