osu file format v14

[General]
AudioFilename: audio.mp3
AudioLeadIn: 0
PreviewTime: 70180
Countdown: 1
SampleSet: None
StackLeniency: 0.7
Mode: 0
LetterboxInBreaks: 0
WidescreenStoryboard: 0

[Editor]
DistanceSpacing: 1.2
BeatDivisor: 2
GridSize: 32
TimelineZoom: 1

[Metadata]
Title:Snowdown Skins
TitleUnicode:Snowdown Skins
Artist:Instalok
ArtistUnicode:Instalok
Creator:VEZOK
Version:Normal
Source:
Tags:xmas christmas lol league of legends parody jingle bells traditional youtube
BeatmapID:1168544
BeatmapSetID:551712

[Difficulty]
HPDrainRate:4
CircleSize:3.5
OverallDifficulty:4
ApproachRate:5
SliderMultiplier:1.2
SliderTickRate:1

[Events]
//Background and Video events
Video,0,"Instalok - Snowdown Skins (Jingle Bells Parody).mp4"
0,0,"braum_poro__wallpaper_background_by_myeducation-d7fwmva.png",0,0
//Break Periods
//Storyboard Layer 0 (Background)
//Storyboard Layer 1 (Fail)
//Storyboard Layer 2 (Pass)
//Storyboard Layer 3 (Foreground)
//Storyboard Sound Samples

[TimingPoints]
75,315.789473684211,4,1,0,70,1,0

[Colours]
Combo1 : 197,138,255
Combo2 : 0,0,108
Combo3 : 102,171,255

[HitObjects]
64,64,75,5,0,2:2:0:0:
64,192,390,2,0,P|128:192|160:128,1,120,0|0,2:2|2:2,2:2:0:0:
320,288,1180,1,0,2:2:0:0:
352,160,1496,1,0,2:2:0:0:
256,32,1811,2,0,P|288:64|352:32,1,120,0|0,2:2|2:2,2:2:0:0:
192,192,2601,2,0,P|192:256|128:288,1,120,0|0,2:2|2:2,2:2:0:0:
288,256,3232,1,0,2:2:0:0:
384,64,3706,2,0,P|416:64|448:160,1,120,0|0,2:2|2:2,2:2:0:0:
320,192,4338,2,0,P|224:160|128:192,1,180,0|0,2:2|2:2,2:2:0:0:
32,288,5127,6,0,L|160:352,2,120,0|0|0,2:2|2:2|2:2,2:2:0:0:
128,160,6075,1,0,2:2:0:0:
256,64,6390,2,0,L|384:64,1,120,0|0,2:2|2:2,2:2:0:0:
256,160,7022,2,0,L|384:160,1,120,0|0,2:2|2:2,2:2:0:0:
256,256,7653,2,0,L|384:256,2,120,0|0|0,2:2|2:2|2:2,2:2:0:0:
128,192,8601,1,0,2:2:0:0:
256,192,8917,12,0,9864,2:2:0:0:
288,64,10180,5,0,2:2:0:0:
352,192,10496,1,0,2:2:0:0:
224,192,10811,1,0,2:2:0:0:
96,224,11127,2,0,P|160:256|192:320,1,120,0|0,2:2|2:2,2:2:0:0:
288,192,11759,2,0,L|320:128,2,60,0|0|0,2:2|2:2|2:2,2:2:0:0:
384,288,12390,1,0,2:2:0:0:
224,288,12706,6,0,P|160:192|160:160,1,120,0|0,2:2|2:2,2:2:0:0:
256,64,13338,1,0,2:2:0:0:
384,128,13653,2,0,P|384:224|416:256,1,120,0|0,2:2|2:2,2:2:0:0:
256,288,14285,2,0,L|224:224,2,60,0|0|0,2:2|2:2|2:2,2:2:0:0:
128,320,14917,1,0,2:2:0:0:
32,192,15232,2,0,P|96:160|96:96,1,120,0|0,2:2|2:2,2:2:0:0:
224,224,15864,1,0,2:2:0:0:
224,64,16180,2,0,P|288:96|352:64,1,120,0|0,2:2|2:2,2:2:0:0:
448,224,17443,6,0,P|416:288|320:288,2,120,0|0|0,2:2|2:2|2:2,2:2:0:0:
320,192,18390,1,0,2:2:0:0:
256,192,18706,12,0,19969,2:2:0:0:
160,96,20285,5,0,2:2:0:0:
64,192,20601,2,0,P|128:256|192:256,2,120,0|0|0,2:2|2:2|2:2,2:2:0:0:
32,64,21548,1,0,2:2:0:0:
256,256,22180,1,0,2:2:0:0:
384,192,22496,1,0,2:2:0:0:
384,64,22811,2,0,P|320:64|256:96,1,120,0|0,2:2|2:2,2:2:0:0:
128,64,23443,1,0,2:2:0:0:
160,192,23759,1,0,2:2:0:0:
256,192,24075,12,0,25022,2:2:0:0:
288,160,25338,6,0,P|288:224|320:288,1,120,0|0,2:2|2:2,2:2:0:0:
160,224,25969,1,0,2:2:0:0:
32,320,26285,1,0,2:2:0:0:
32,192,26601,2,0,P|64:96|96:96,1,120,0|0,2:2|2:2,2:2:0:0:
192,32,27232,2,0,P|224:96|288:96,1,120,0|0,2:2|2:2,2:2:0:0:
384,32,27864,1,0,2:2:0:0:
352,160,28180,1,0,2:2:0:0:
448,256,28496,2,0,P|384:256|352:320,1,120,0|0,2:2|2:2,2:2:0:0:
256,192,29127,12,0,30075,2:2:0:0:
192,96,30390,6,0,P|128:160|128:192,1,120,0|0,2:2|2:2,2:2:0:0:
256,256,31022,1,0,2:2:0:0:
480,64,31653,6,0,P|416:64|352:32,1,120,0|0,2:2|2:2,2:2:0:0:
384,192,32285,1,0,2:2:0:0:
96,128,32917,6,0,P|160:160|160:224,2,120,0|0|0,2:2|2:2|2:2,2:2:0:0:
192,32,33864,1,0,2:2:0:0:
320,96,34180,2,0,P|288:160|384:288,1,240,0|0,2:2|2:2,2:2:0:0:
96,256,35443,6,0,P|160:192|160:160,2,120,0|0|0,2:2|2:2|2:2,2:2:0:0:
224,288,36390,1,0,2:2:0:0:
384,288,36706,2,0,P|352:256|352:160,1,120,0|0,2:2|2:2,2:2:0:0:
448,64,37338,1,0,2:2:0:0:
320,0,37653,1,0,2:2:0:0:
192,64,37969,2,0,P|96:96|64:128,1,120,0|0,2:2|2:2,2:2:0:0:
96,256,38601,1,0,2:2:0:0:
224,160,38917,1,0,2:2:0:0:
256,192,39232,12,0,40180,2:2:0:0:
320,256,40496,6,0,P|384:192|384:160,1,120,0|0,2:2|2:2,2:2:0:0:
256,96,41128,1,0,2:2:0:0:
32,288,41759,6,0,P|96:288|159:320,1,120,0|0,2:2|2:2,2:2:0:0:
128,160,42391,1,0,2:2:0:0:
416,224,43022,6,0,P|352:192|351:128,2,120,0|0|0,2:2|2:2|2:2,2:2:0:0:
319,320,43970,1,0,2:2:0:0:
192,256,44286,2,0,P|223:192|127:64,1,240,0|0,2:2|2:2,2:2:0:0:
416,96,45548,6,0,P|352:160|352:192,2,120,0|0|0,2:2|2:2|2:2,2:2:0:0:
287,64,46496,1,0,2:2:0:0:
128,64,46812,2,0,P|160:96|160:191,1,120,0|0,2:2|2:2,2:2:0:0:
64,288,47444,1,0,2:2:0:0:
192,352,47759,1,0,2:2:0:0:
320,288,48075,2,0,P|416:255|448:223,1,120,0|0,2:2|2:2,2:2:0:0:
416,96,48707,1,0,2:2:0:0:
288,192,49023,1,0,2:2:0:0:
256,192,49338,12,0,50286,2:2:0:0:
320,96,50601,5,0,2:2:0:0:
448,160,50917,2,0,P|384:224|352:224,1,120,0|0,2:2|2:2,2:2:0:0:
192,288,51548,1,0,2:2:0:0:
160,160,51864,1,0,2:2:0:0:
256,32,52180,2,0,P|224:64|160:32,2,120,0|0|0,2:2|2:2|2:2,2:2:0:0:
320,192,53127,6,0,P|320:256|384:288,1,120,0|0,2:2|2:2,2:2:0:0:
224,256,53758,1,0,2:2:0:0:
128,128,54075,1,0,2:2:0:0:
256,160,54390,2,0,P|320:96|480:160,1,240,0|0,2:2|2:2,2:2:0:0:
480,288,55653,6,0,L|352:352,2,120,0|0|0,2:2|2:2|2:2,2:2:0:0:
384,160,56601,1,0,2:2:0:0:
256,64,56916,2,0,L|128:64,1,120,0|0,2:2|2:2,2:2:0:0:
256,160,57548,2,0,L|128:160,1,120,0|0,2:2|2:2,2:2:0:0:
256,256,58179,2,0,L|128:256,2,120,0|0|0,2:2|2:2|2:2,2:2:0:0:
384,192,59127,1,0,2:2:0:0:
256,192,59443,12,0,60390,2:2:0:0:
224,64,60706,5,0,2:2:0:0:
160,192,61022,1,0,2:2:0:0:
288,192,61337,1,0,2:2:0:0:
416,224,61653,2,0,P|352:256|320:320,1,120,0|0,2:2|2:2,2:2:0:0:
224,192,62285,2,0,L|192:128,2,60,0|0|0,2:2|2:2|2:2,2:2:0:0:
128,288,62916,1,0,2:2:0:0:
288,288,63232,6,0,P|352:192|352:160,1,120,0|0,2:2|2:2,2:2:0:0:
256,64,63864,1,0,2:2:0:0:
128,128,64179,2,0,P|128:224|96:256,1,120,0|0,2:2|2:2,2:2:0:0:
256,288,64811,2,0,L|288:224,2,60,0|0|0,2:2|2:2|2:2,2:2:0:0:
384,320,65443,1,0,2:2:0:0:
480,192,65758,6,0,P|416:160|416:96,1,120,0|0,2:2|2:2,2:2:0:0:
288,224,66390,1,0,2:2:0:0:
288,64,66706,2,0,P|224:96|160:64,1,120,0|0,2:2|2:2,2:2:0:0:
74,106,67338,2,0,L|32:64,2,60,0|0|0,2:2|2:2|2:2,2:2:0:0:
64,224,67969,2,0,P|96:288|192:288,2,120,0|0|0,2:2|2:2|2:2,2:2:0:0:
192,192,68916,1,0,2:2:0:0:
256,192,69232,12,0,70495,2:2:0:0:
352,96,70811,5,0,2:2:0:0:
448,192,71127,2,0,P|384:256|320:256,2,120,0|0|0,2:2|2:2|2:2,2:2:0:0:
320,128,72074,1,0,2:2:0:0:
192,192,72390,1,0,2:2:0:0:
128,64,72706,2,0,P|192:64|256:96,1,120,0|0,2:2|2:2,2:2:0:0:
384,64,73337,1,0,2:2:0:0:
352,192,73653,1,0,2:2:0:0:
224,256,73969,2,0,P|128:224|128:192,1,120,0|0,2:2|2:2,2:2:0:0:
256,192,74601,12,0,75548,2:2:0:0:
224,160,75864,6,0,P|224:224|192:288,1,120,0|0,2:2|2:2,2:2:0:0:
352,224,76495,1,0,2:2:0:0:
480,320,76811,1,0,2:2:0:0:
480,192,77127,2,0,P|448:96|416:96,1,120,0|0,2:2|2:2,2:2:0:0:
320,32,77758,2,0,P|288:96|224:96,1,120,0|0,2:2|2:2,2:2:0:0:
128,32,78390,1,0,2:2:0:0:
160,160,78706,1,0,2:2:0:0:
64,256,79022,2,0,P|128:256|160:320,1,120,0|0,2:2|2:2,2:2:0:0:
256,192,79653,12,0,80601,2:2:0:0:
320,96,80916,6,0,P|384:160|384:192,1,120,0|0,2:2|2:2,2:2:0:0:
256,256,81548,1,0,2:2:0:0:
32,64,82179,6,0,P|96:64|160:32,1,120,0|0,2:2|2:2,2:2:0:0:
128,192,82811,1,0,2:2:0:0:
416,128,83443,6,0,P|352:160|352:224,2,120,0|0|0,2:2|2:2|2:2,2:2:0:0:
320,32,84390,1,0,2:2:0:0:
192,96,84706,2,0,P|224:160|128:288,1,240,0|0,2:2|2:2,2:2:0:0:
416,256,85969,6,0,P|352:192|352:160,2,120,0|0|0,2:2|2:2|2:2,2:2:0:0:
288,288,86916,1,0,2:2:0:0:
128,288,87232,2,0,P|160:256|160:160,1,120,0|0,2:2|2:2,2:2:0:0:
64,64,87864,1,0,2:2:0:0:
192,0,88179,1,0,2:2:0:0:
320,64,88495,6,0,P|416:96|448:128,1,120,0|0,2:2|2:2,2:2:0:0:
416,256,89127,1,0,2:2:0:0:
288,160,89443,1,0,2:2:0:0:
256,192,89758,12,0,90706,2:2:0:0:
192,256,91022,6,0,P|128:192|128:160,1,120,0|0,2:2|2:2,2:2:0:0:
256,96,91654,1,0,2:2:0:0:
480,288,92285,6,0,P|416:288|353:320,1,120,0|0,2:2|2:2,2:2:0:0:
384,160,92917,1,0,2:2:0:0:
96,224,93548,6,0,P|160:192|161:128,2,120,0|0|0,2:2|2:2|2:2,2:2:0:0:
193,320,94496,1,0,2:2:0:0:
320,256,94812,2,0,P|289:192|385:64,1,240,0|0,2:2|2:2,2:2:0:0:
256,192,96075,12,0,98601,2:2:0:0:
