osu file format v14

[General]
AudioFilename: audio.mp3
AudioLeadIn: 0
PreviewTime: -1
Countdown: 1
SampleSet: None
StackLeniency: 0.7
Mode: 0
LetterboxInBreaks: 0
WidescreenStoryboard: 0

[Editor]
Bookmarks: 26067,32496,32639,40639
DistanceSpacing: 1
BeatDivisor: 4
GridSize: 8
TimelineZoom: 2.839999

[Metadata]
Title:Disconnected Hardkore
TitleUnicode:Disconnected Hardkore
Artist:Inspector K
ArtistUnicode:Inspector K
Creator:moneybags
Version:woogie
Source:
Tags:
BeatmapID:1763846
BeatmapSetID:842989

[Difficulty]
HPDrainRate:5
CircleSize:4
OverallDifficulty:9
ApproachRate:10
SliderMultiplier:1.8
SliderTickRate:1

[Events]
//Background and Video events
//Break Periods
//Storyboard Layer 0 (Background)
//Storyboard Layer 1 (Fail)
//Storyboard Layer 2 (Pass)
//Storyboard Layer 3 (Foreground)
//Storyboard Sound Samples

[TimingPoints]
222,431.654676258993,4,2,0,50,1,0
15761,428.571428571429,4,2,0,50,1,0
15761,-100,4,2,0,50,0,0
17475,400,4,2,0,50,1,0
19075,375,4,2,0,50,1,0
20575,352.941176470588,4,2,0,50,1,0
21986,333.333333333333,4,2,0,50,1,0
23319,315.789473684211,4,2,0,50,1,0
24582,300,4,2,0,50,1,0
25782,285.714285714286,4,2,0,50,1,0

[HitObjects]
36,311,15761,6,0,L|166:319,1,90
263,322,16189,1,0,0:0:0:0:
199,199,16403,1,0,0:0:0:0:
7,72,16618,6,0,P|85:36|193:57,1,180
315,161,17261,1,0,0:0:0:0:
315,161,17475,2,0,P|298:109|319:48,1,90
470,158,17875,1,0,0:0:0:0:
330,245,18075,6,0,L|256:259,1,45
408,350,18275,2,0,L|459:355,1,45
196,376,18475,2,0,P|175:331|187:272,1,90
330,245,18875,1,0,0:0:0:0:
90,187,19075,6,0,P|48:201|-8:183,1,90
79,43,19450,1,0,0:0:0:0:
182,180,19637,1,0,0:0:0:0:
234,33,19825,6,0,P|285:47|357:29,1,90
349,40,20106,1,0,0:0:0:0:
371,34,20200,1,0,0:0:0:0:
509,184,20387,1,0,0:0:0:0:
509,184,20575,6,0,P|458:198|386:180,1,90
191,155,20839,1,0,0:0:0:0:
191,155,20927,6,0,L|196:209,1,45
77,367,21104,2,0,L|56:289,1,45
28,183,21280,1,0,0:0:0:0:
23,180,21457,1,0,0:0:0:0:
289,352,21633,5,0,0:0:0:0:
340,375,21721,1,0,0:0:0:0:
397,377,21809,1,0,0:0:0:0:
450,357,21897,1,0,0:0:0:0:
490,322,21986,2,0,L|501:200,1,90
358,88,22319,2,0,L|377:195,1,90
380,220,22569,5,0,0:0:0:0:
335,222,22652,1,0,0:0:0:0:
290,224,22735,1,0,0:0:0:0:
240,226,22819,2,0,P|190:231|146:222,1,90
21,71,23152,2,0,P|46:71|75:79,1,45
209,121,23319,5,0,0:0:0:0:
156,307,23476,1,0,0:0:0:0:
56,154,23634,1,0,0:0:0:0:
256,237,23792,5,0,0:0:0:0:
318,216,23870,1,0,0:0:0:0:
353,163,23950,2,0,L|363:101,1,45
372,11,24108,1,0,0:0:0:0:
499,220,24266,2,0,L|483:351,1,90
219,287,24582,6,0,L|329:279,1,90
222,139,24882,1,0,0:0:0:0:
141,307,25032,2,0,L|155:376,1,45
13,209,25182,2,0,L|-4:151,1,45
222,139,25332,2,0,P|180:150|109:138,1,90
213,17,25632,2,0,L|298:14,1,45
398,44,25782,5,0,0:0:0:0:
385,103,25853,1,0,0:0:0:0:
395,164,25924,1,0,0:0:0:0:
404,225,25996,1,0,0:0:0:0:
410,284,26067,1,0,0:0:0:0:
410,284,26139,1,0,0:0:0:0:
410,284,26210,1,0,0:0:0:0:
410,284,26282,1,0,0:0:0:0:
410,284,26353,6,0,P|369:304|289:295,1,90
149,378,26639,1,0,0:0:0:0:
127,338,26710,1,0,0:0:0:0:
122,294,26781,1,0,0:0:0:0:
133,250,26853,1,0,0:0:0:0:
164,219,26924,6,0,L|256:213,1,90
170,66,27210,2,0,B|112:71|90:59|90:59|70:78|70:78|37:65|-19:69,1,180
253,212,27639,1,0,0:0:0:0:
295,35,27782,1,0,0:0:0:0:
434,162,27924,6,0,L|492:152,1,45
409,305,28067,2,0,P|363:314|286:299,1,90
182,175,28353,1,0,0:0:0:0:
434,162,28496,1,0,0:0:0:0:
103,357,28639,6,0,L|91:238,1,90
12,129,28924,5,0,0:0:0:0:
66,141,28995,1,0,0:0:0:0:
122,135,29066,1,0,0:0:0:0:
176,122,29138,1,0,0:0:0:0:
232,125,29209,1,0,0:0:0:0:
368,131,29353,5,0,0:0:0:0:
256,317,29496,1,0,0:0:0:0:
136,143,29639,2,0,L|192:113,1,45
43,66,29782,6,0,P|21:70|0:78,1,45
248,199,29924,6,0,P|270:204|293:201,1,45,0|0,0:1|0:1,0:1:0:0:
272,22,30067,6,0,L|396:31,1,90
500,164,30353,5,0,0:0:0:0:
365,29,30496,1,0,0:0:0:0:
293,200,30639,1,0,0:0:0:0:
293,200,30782,1,0,0:0:0:0:
500,164,30924,5,0,0:0:0:0:
190,68,31067,1,0,0:0:0:0:
235,353,31210,1,0,0:0:0:0:
235,353,31353,1,0,0:0:0:0:
0,247,31496,5,0,0:0:0:0:
114,111,31639,2,0,P|158:107|202:118,1,90
323,345,31924,2,0,P|281:356|210:344,1,90
465,159,32210,2,0,P|472:240|396:328,1,180
192,176,32639,5,0,0:0:0:0:
280,112,32782,2,0,P|332:100|408:128,1,90
224,272,33067,2,0,P|272:280|352:248,1,90
80,160,33353,6,0,P|40:176|0:224,1,90
184,64,33639,2,0,P|144:56|72:80,1,90
176,384,33924,6,0,L|160:280,1,90
251,142,34210,2,0,L|264:232,1,90
96,64,34496,5,0,0:0:0:0:
140,57,34567,1,0,0:0:0:0:
184,48,34639,2,0,L|288:32,1,90
448,16,34924,5,0,0:0:0:0:
360,240,35067,1,0,0:0:0:0:
360,16,35210,5,0,0:0:0:0:
448,240,35353,1,0,0:0:0:0:
462,282,35424,1,0,0:0:0:0:
480,328,35496,2,0,L|400:352,1,45
240,288,35639,2,0,L|304:264,1,45
360,240,35782,1,0,0:0:0:0:
152,184,35924,5,0,0:0:0:0:
107,175,35995,1,0,0:0:0:0:
64,192,36067,2,0,L|40:88,1,90
