osu file format v14

[General]
AudioFilename: audio.mp3
AudioLeadIn: 0
PreviewTime: 49594
Countdown: 0
SampleSet: Normal
StackLeniency: 0.7
Mode: 2
LetterboxInBreaks: 0
WidescreenStoryboard: 0

[Editor]
DistanceSpacing: 1.4
BeatDivisor: 4
GridSize: 4
TimelineZoom: 1

[Metadata]
Title:Disconnected Hardkore (CanBlaster Remix)
TitleUnicode:Disconnected Hardkore (CanBlaster Remix)
Artist:Inspector K
ArtistUnicode:Inspector K
Creator:Razor Sharp
Version:Disunite
Source:
Tags:
BeatmapID:1469197
BeatmapSetID:694438

[Difficulty]
HPDrainRate:7
CircleSize:4.5
OverallDifficulty:9.7
ApproachRate:9.7
SliderMultiplier:2
SliderTickRate:2

[Events]
//Background and Video events
0,0,"disconn.jpg",0,0
//Break Periods
//Storyboard Layer 0 (Background)
//Storyboard Layer 1 (Fail)
//Storyboard Layer 2 (Pass)
//Storyboard Layer 3 (Foreground)
//Storyboard Sound Samples

[TimingPoints]
34,431.654676258993,4,1,0,70,1,0
7264,-100,4,2,0,100,0,0
7480,-100,4,1,0,70,0,0
9746,-100,4,1,0,50,0,0
11796,-100,4,1,0,60,0,0
11904,-100,4,1,0,50,0,0
12012,-100,4,1,0,60,0,0
12120,-100,4,1,0,70,0,0
12767,-100,4,2,0,70,0,0
13846,-100,4,1,0,70,0,0
15573,428.571428571429,4,1,0,70,1,0
17287,400,4,1,0,70,1,0
18887,375,4,1,0,70,1,0
20387,352.941176470588,4,1,0,70,1,0
21798,333.333333333333,4,1,0,70,1,0
23131,315.789473684211,4,1,0,70,1,0
24394,300,4,1,0,70,1,0
25594,285.714285714286,4,1,0,70,1,0
30165,-50,4,1,0,70,0,0
31308,-100,4,1,0,70,0,0
49594,-66.6666666666667,4,1,0,70,0,1
58736,-100,4,1,0,70,0,0
82451,-50,4,1,0,70,0,0
82736,-100,4,1,0,70,0,0
83594,-50,4,1,0,70,0,0
83879,-100,4,1,0,70,0,0
84165,-50,4,1,0,70,0,0
84451,-100,4,1,0,70,0,0
84736,-50,4,1,0,70,0,0
85022,-100,4,1,0,70,0,0
87308,279.06976744186,4,1,0,70,1,0
88424,272.727272727273,4,1,0,70,1,0
89514,266.666666666667,4,1,0,70,1,0
90580,260.869565217391,4,1,0,70,1,0
91623,255.31914893617,4,1,0,70,1,0
92644,250,4,1,0,70,1,0
93644,244.897959183673,4,1,0,70,1,0
94134,-100,4,1,0,40,0,0
94623,-100,4,1,0,70,0,0
102460,-83.3333333333333,4,1,0,70,0,1
110297,-50,4,1,0,70,0,0
110541,-100,4,1,0,70,0,1
110664,-100,4,1,0,70,0,0
115133,-100,4,1,0,5,0,0

[Colours]
Combo1 : 0,0,53
Combo2 : 128,255,255
Combo3 : 0,0,145
Combo4 : 0,128,192

[HitObjects]
200,280,34,6,0,P|172:220|200:192,1,100
256,196,357,1,0,0:0:0:0:
80,188,465,1,0,0:0:0:0:
152,188,573,1,0,0:0:0:0:
80,188,681,1,0,0:0:0:0:
272,148,789,2,0,P|292:200|264:236,1,100
128,232,1221,1,0,0:0:0:0:
316,280,1328,1,0,0:0:0:0:
44,328,1544,1,0,0:0:0:0:
324,324,1760,6,0,P|352:272|328:240,1,100
260,248,2084,1,0,0:0:0:0:
332,248,2192,1,0,0:0:0:0:
404,248,2300,1,0,0:0:0:0:
332,248,2408,1,0,0:0:0:0:
160,248,2516,2,0,L|152:192,1,50
224,200,2731,1,0,0:0:0:0:
48,208,2839,1,0,0:0:0:0:
17,169,2946,1,0,0:0:0:0:
21,121,3054,1,0,0:0:0:0:
57,88,3162,1,0,0:0:0:0:
232,80,3271,2,0,L|236:136,1,50
48,260,3487,6,0,L|44:324,1,50
208,304,3703,1,0,0:0:0:0:
140,304,3810,1,0,0:0:0:0:
336,344,3918,2,0,L|340:280,1,50
268,292,4134,1,0,0:0:0:0:
340,292,4242,1,0,0:0:0:0:
148,248,4350,1,0,0:0:0:0:
220,248,4458,1,0,0:0:0:0:
32,224,4566,1,0,0:0:0:0:
52,179,4673,1,0,0:0:0:0:
97,160,4781,1,0,0:0:0:0:
276,152,4890,2,0,L|280:96,1,50
112,96,5105,1,0,0:0:0:0:
284,108,5213,6,0,L|416:108,1,100
392,180,5537,1,0,0:0:0:0:
208,184,5645,2,0,L|152:184,2,50
396,272,5969,2,0,L|452:272,2,50
188,320,6292,2,0,L|220:272,1,50
284,260,6508,1,0,0:0:0:0:
476,264,6616,2,0,L|476:144,1,100
160,164,6940,6,0,L|210:164,1,50
376,164,7156,1,0,0:0:0:0:
304,164,7264,1,0,0:0:0:0:
488,164,7372,1,0,0:0:0:0:
136,96,7587,2,0,L|132:156,1,50
328,204,7803,2,0,L|332:264,1,50
160,256,8019,1,0,0:0:0:0:
232,256,8127,1,0,0:0:0:0:
44,236,8235,1,0,0:0:0:0:
228,180,8343,1,0,0:0:0:0:
44,144,8451,1,0,0:0:0:0:
248,108,8559,1,0,0:0:0:0:
44,80,8667,5,0,0:0:0:0:
48,129,8774,1,0,0:0:0:0:
79,167,8882,1,0,0:0:0:0:
126,181,8990,1,0,0:0:0:0:
196,180,9098,2,0,L|196:128,1,50
124,136,9314,1,0,0:0:0:0:
304,104,9422,2,0,L|308:160,1,50
236,156,9638,1,0,0:0:0:0:
408,104,9746,2,0,L|412:160,1,50
340,152,9962,2,0,L|336:208,1,50
440,204,10177,1,0,0:0:0:0:
168,208,10393,6,0,L|56:208,1,100
60,136,10717,1,0,0:0:0:0:
224,132,10825,2,0,L|192:92,1,50
124,92,11041,1,0,0:0:0:0:
332,128,11149,2,0,L|300:88,1,50
232,88,11365,1,0,0:0:0:0:
440,144,11472,2,0,L|472:184,1,50
296,188,11688,1,0,0:0:0:0:
368,188,11796,1,0,0:0:0:0:
184,188,11904,1,0,0:0:0:0:
256,188,12012,1,0,0:0:0:0:
72,188,12120,6,0,L|16:188,2,50
272,88,12444,1,0,0:0:0:0:
96,88,12551,2,0,L|32:88,1,50
116,88,12767,2,0,L|168:88,1,50
96,108,12983,1,0,0:0:0:0:
168,108,13091,1,0,0:0:0:0:
72,128,13199,1,0,0:0:0:0:
144,128,13307,1,0,0:0:0:0:
48,148,13415,1,0,0:0:0:0:
448,180,13631,2,0,L|452:232,1,50
124,248,13846,6,0,L|44:252,1,50
428,332,14062,2,0,L|508:336,1,50
220,128,14278,1,0,0:0:0:0:
292,128,14386,1,0,0:0:0:0:
60,84,14494,1,0,0:0:0:0:
480,108,14710,2,0,L|252:108,1,200
192,116,15573,6,0,L|240:228,1,100
372,208,16001,1,0,0:0:0:0:
80,200,16215,2,0,L|20:200,1,50
92,236,16430,2,0,L|32:236,1,50
216,252,16644,2,0,L|220:312,1,50
40,304,16858,2,0,L|152:304,1,100
88,304,17180,1,0,0:0:0:0:
312,272,17287,5,0,0:0:0:0:
44,192,17487,1,0,0:0:0:0:
168,128,17687,1,0,0:0:0:0:
428,128,17887,1,0,0:0:0:0:
496,128,17987,1,0,0:0:0:0:
320,168,18087,1,0,0:0:0:0:
388,168,18187,1,0,0:0:0:0:
212,212,18287,1,0,0:0:0:0:
280,212,18387,1,0,0:0:0:0:
212,212,18487,2,0,P|160:184|148:140,1,100
220,144,18787,1,0,0:0:0:0:
416,116,18887,5,0,0:0:0:0:
288,56,19074,1,0,0:0:0:0:
472,48,19262,1,0,0:0:0:0:
144,100,19449,2,0,L|92:100,1,50
156,132,19637,1,0,0:0:0:0:
88,136,19730,1,0,0:0:0:0:
296,164,19824,1,0,0:0:0:0:
224,164,19918,1,0,0:0:0:0:
296,164,20012,2,0,P|328:112|292:84,1,100
240,88,20293,1,0,0:0:0:0:
88,88,20387,6,0,L|20:88,1,50
100,120,20563,2,0,L|32:120,1,50
256,172,20739,2,0,L|324:172,1,50
108,216,20916,2,0,L|176:216,1,50
344,236,21092,2,0,L|396:236,1,50
204,284,21269,2,0,L|256:284,1,50
184,268,21445,2,0,L|116:268,1,50
196,232,21622,2,0,L|136:232,1,50
360,180,21798,6,0,L|472:180,1,100
320,160,22131,1,0,0:0:0:0:
76,128,22298,2,0,L|16:128,1,50
88,100,22464,2,0,L|156:100,1,50
300,100,22631,2,0,L|356:100,1,50
288,136,22798,2,0,L|184:136,1,100
168,204,23048,1,0,0:0:0:0:
352,208,23131,6,0,L|476:208,1,100
188,248,23446,2,0,L|296:248,1,100
304,316,23683,1,0,0:0:0:0:
120,316,23762,2,0,L|180:316,1,50
360,288,23920,2,0,L|292:288,1,50
360,272,24078,2,0,L|468:272,1,100
468,200,24315,1,0,0:0:0:0:
260,172,24394,6,0,L|144:172,1,100
288,120,24694,1,0,0:0:0:0:
84,80,24844,2,0,L|28:80,1,50
100,104,24994,2,0,L|160:104,1,50
328,104,25144,2,0,L|384:104,1,50
208,152,25294,1,0,0:0:0:0:
165,172,25369,1,0,0:0:0:0:
164,220,25444,1,0,0:0:0:0:
206,242,25519,1,0,0:0:0:0:
384,240,25594,6,0,L|392:188,1,50
324,192,25736,2,0,L|264:192,1,50
472,176,25879,2,0,L|440:136,1,50
284,112,26022,2,0,L|228:112,1,50
44,112,26165,2,0,L|148:112,1,100
216,112,26379,1,0,0:0:0:0:
384,156,26451,2,0,L|352:200,1,50
152,240,26594,2,0,L|184:284,1,50
472,296,26736,6,0,L|480:184,1,100
160,192,27022,2,0,L|152:80,1,100
352,192,27308,2,0,L|360:80,1,100
40,296,27594,2,0,L|32:184,1,100
312,184,27879,6,0,L|416:184,1,100
188,136,28165,2,0,L|304:136,1,100
52,124,28451,2,0,L|44:240,1,100
296,260,28736,2,0,L|352:264,1,50
152,304,28879,2,0,L|92:312,1,50
312,312,29022,6,0,L|432:312,1,100
152,240,29308,2,0,L|40:240,1,100
280,180,29594,2,0,L|156:180,1,100
384,128,29879,2,0,L|492:128,1,100
232,68,30165,6,0,L|32:68,3,200
280,316,30736,2,0,L|480:316,3,200
136,208,31308,6,0,L|16:208,1,100
172,172,31594,2,0,L|292:172,1,100
136,136,31879,2,0,L|16:136,1,100
172,100,32165,2,0,L|292:100,1,100
344,100,32379,1,0,0:0:0:0:
480,104,32451,6,0,L|364:104,1,100
244,132,32736,2,0,L|360:132,1,100
480,164,33022,1,0,0:0:0:0:
344,192,33165,1,0,0:0:0:0:
480,216,33308,1,0,0:0:0:0:
458,260,33379,1,0,0:0:0:0:
417,288,33450,1,0,0:0:0:0:
348,288,33522,1,0,0:0:0:0:
168,284,33594,6,0,L|64:284,1,100
204,248,33879,2,0,L|100:248,1,100
240,216,34165,2,0,L|128:216,1,100
204,188,34379,1,0,0:0:0:0:
132,184,34451,2,0,L|28:184,1,100
328,136,34736,6,0,L|212:136,1,100
92,104,35022,2,0,L|200:104,1,100
264,104,35236,1,0,0:0:0:0:
476,116,35308,2,0,L|360:116,1,100
36,196,35594,2,0,L|144:196,1,100
208,196,35808,1,0,0:0:0:0:
344,192,35879,6,0,L|456:192,1,100
304,208,36165,2,0,L|300:316,1,100
440,316,36451,2,0,L|328:316,1,100
480,300,36737,2,0,L|484:192,1,100
424,160,36951,1,0,0:0:0:0:
256,160,37022,6,0,L|152:160,3,100
380,116,37594,2,0,L|264:116,1,100
416,92,37879,2,0,L|424:156,1,50
260,156,38022,2,0,L|256:216,1,50
444,324,38165,6,0,L|312:324,1,100
476,272,38451,2,0,L|484:156,1,100
68,324,38736,2,0,L|200:324,1,100
36,272,39022,2,0,L|28:156,1,100
336,236,39308,5,0,0:0:0:0:
372,204,39379,1,0,0:0:0:0:
370,156,39450,1,0,0:0:0:0:
331,128,39522,1,0,0:0:0:0:
176,236,39594,1,0,0:0:0:0:
139,204,39665,1,0,0:0:0:0:
141,156,39736,1,0,0:0:0:0:
180,128,39808,1,0,0:0:0:0:
372,120,39879,6,0,L|308:120,1,50
192,120,40022,2,0,L|142:120,1,50
408,88,40165,2,0,L|344:88,1,50
154,88,40308,2,0,L|104:88,1,50
356,152,40451,6,0,L|460:152,1,100
332,220,40736,1,0,0:0:0:0:
472,224,40879,1,0,0:0:0:0:
356,152,41022,2,0,L|460:152,1,100
332,220,41307,1,0,0:0:0:0:
472,224,41451,2,0,L|480:288,1,50
300,268,41594,6,0,L|188:268,1,100
68,220,41879,2,0,L|184:220,1,100
480,168,42165,2,0,L|364:168,1,100
248,116,42451,2,0,L|240:176,1,50
388,212,42594,2,0,L|448:212,1,50
156,232,42736,6,0,L|52:232,1,100
180,164,43021,1,0,0:0:0:0:
40,160,43164,1,0,0:0:0:0:
156,232,43308,2,0,L|52:232,1,100
120,200,43522,1,0,0:0:0:0:
180,164,43594,1,0,0:0:0:0:
40,160,43736,1,0,0:0:0:0:
312,136,43879,6,0,L|196:136,3,100
196,204,44379,1,0,0:0:0:0:
352,200,44451,2,0,L|464:200,1,100
160,184,44736,2,0,L|48:184,1,100
224,184,44951,1,0,0:0:0:0:
388,184,45022,6,0,L|504:184,1,100
352,152,45308,2,0,L|248:152,1,100
112,124,45594,2,0,L|228:124,1,100
352,108,45879,2,0,L|464:108,1,100
460,36,46094,1,0,0:0:0:0:
268,40,46165,6,0,L|384:40,3,100
92,96,46736,2,0,L|224:96,1,100
64,156,47022,2,0,L|56:224,1,50
224,224,47165,2,0,L|216:292,1,50
48,296,47308,5,0,0:0:0:0:
168,224,47451,1,0,0:0:0:0:
136,136,47593,1,0,0:0:0:0:
43,141,47736,1,0,0:0:0:0:
464,296,47879,1,0,0:0:0:0:
344,224,48022,1,0,0:0:0:0:
376,136,48164,1,0,0:0:0:0:
469,141,48307,1,0,0:0:0:0:
200,140,48451,6,0,L|128:140,1,50
80,136,48594,2,0,L|16:136,1,50
256,116,48736,2,0,L|208:88,1,50
72,88,48879,2,0,L|12:88,1,50
292,168,49022,6,0,L|344:168,1,50
196,200,49165,2,0,L|124:200,1,50
344,244,49308,1,0,0:0:0:0:
480,248,49379,1,0,0:0:0:0:
168,244,49451,1,0,0:0:0:0:
32,248,49522,1,0,0:0:0:0:
372,304,49594,6,0,P|476:248|360:216,1,300.000011444092
140,304,50022,2,0,P|36:248|152:216,1,300.000011444092
472,88,50451,6,0,P|368:116|480:152,1,300.000011444092
228,168,50879,2,0,P|332:196|220:232,1,300.000011444092
476,296,51308,5,0,0:0:0:0:
116,140,51451,2,0,L|404:20,1,300.000011444092
36,64,51879,6,0,P|108:88|28:240,1,300.000011444092
396,244,52308,2,0,L|108:364,1,300.000011444092
476,320,52736,6,0,P|404:296|484:144,1,300.000011444092
116,140,53165,2,0,L|404:20,1,300.000011444092
76,68,53594,5,0,0:0:0:0:
424,192,53736,1,0,0:0:0:0:
108,236,53879,2,0,L|24:256,1,75.0000028610231
404,236,54022,2,0,L|488:256,1,75.0000028610231
156,324,54165,6,0,L|24:240,2,150.000005722046
356,324,54594,2,0,L|488:240,2,150.000005722046
144,332,55022,6,0,L|184:184,1,150.000005722046
32,184,55308,1,0,0:0:0:0:
368,332,55451,2,0,L|328:184,1,150.000005722046
480,184,55737,1,0,0:0:0:0:
124,104,55879,5,0,0:0:0:0:
396,244,56022,2,0,L|108:364,1,300.000011444092
476,64,56451,6,0,L|344:168,2,150.000005722046
36,64,56879,2,0,L|168:168,2,150.000005722046
460,156,57308,5,0,0:0:0:0:
36,320,57451,2,0,L|168:216,1,150.000005722046
476,64,57736,2,0,L|344:168,1,150.000005722046
44,192,58022,1,0,0:0:0:0:
432,280,58165,5,0,0:0:0:0:
80,88,58308,1,0,0:0:0:0:
404,148,58451,2,0,L|488:128,1,75.0000028610231
108,148,58594,2,0,L|24:128,1,75.0000028610231
256,76,58736,6,0,L|376:76,1,100
116,128,59022,2,0,L|232:128,1,100
224,200,59236,1,0,0:0:0:0:
40,196,59308,2,0,L|152:196,2,100
312,256,59736,6,0,L|200:256,1,100
472,188,60022,2,0,L|368:188,1,100
104,168,60308,1,0,0:0:0:0:
352,116,60451,2,0,L|236:116,1,100
32,104,60736,1,0,0:0:0:0:
344,200,60879,1,0,0:0:0:0:
56,212,61022,6,0,P|40:280|68:296,1,100
124,292,61236,1,0,0:0:0:0:
256,288,61308,2,0,P|272:220|244:204,1,100
188,208,61522,1,0,0:0:0:0:
456,212,61594,2,0,P|472:280|444:296,1,100
200,332,61879,1,0,0:0:0:0:
464,328,62022,6,0,P|448:260|352:220,1,150
128,164,62308,2,0,P|66:126|48:56,1,150
212,60,62594,2,0,L|96:60,1,100
62,60,62808,2,0,L|122:60,1,50
388,100,63022,1,0,0:0:0:0:
124,212,63165,1,0,0:0:0:0:
456,224,63308,6,0,L|468:120,1,100
184,112,63594,2,0,L|300:112,1,100
292,184,63808,1,0,0:0:0:0:
88,200,63879,2,0,L|187:196,2,100
420,260,64308,6,0,L|320:264,1,100
92,260,64594,2,0,L|192:264,1,100
440,304,64879,1,0,0:0:0:0:
184,308,65022,2,0,L|128:308,2,50
460,224,65308,1,0,0:0:0:0:
132,144,65451,1,0,0:0:0:0:
432,136,65594,6,0,L|320:136,1,100
276,136,65808,1,0,0:0:0:0:
88,188,65879,2,0,L|200:188,1,100
244,188,66093,1,0,0:0:0:0:
404,192,66165,2,0,L|296:192,2,100
32,208,66594,6,0,P|48:152|144:120,1,150
480,208,66879,2,0,P|464:152|368:120,1,150
236,124,67165,2,0,L|352:124,1,100
348,192,67379,1,0,0:0:0:0:
192,192,67451,2,0,L|80:192,1,100
404,284,67736,1,0,0:0:0:0:
128,292,67879,5,0,0:0:0:0:
78,292,67950,1,0,0:0:0:0:
28,292,68021,1,0,0:0:0:0:
168,280,68165,1,0,0:0:0:0:
171,230,68236,1,0,0:0:0:0:
175,180,68307,1,0,0:0:0:0:
36,176,68451,2,0,L|136:176,1,100
276,172,68736,2,0,L|284:112,1,50
212,120,68879,2,0,L|156:120,1,50
360,92,69022,6,0,L|472:92,1,100
328,144,69308,2,0,L|440:144,1,100
156,200,69594,2,0,L|44:200,1,100
316,248,69879,2,0,L|320:304,1,50
152,308,70022,2,0,L|156:364,1,50
344,352,70165,5,0,0:0:0:0:
294,352,70236,1,0,0:0:0:0:
244,352,70307,1,0,0:0:0:0:
384,328,70451,2,0,L|388:272,1,50
320,264,70594,1,0,0:0:0:0:
460,272,70736,2,0,L|468:160,1,100
396,172,70951,1,0,0:0:0:0:
328,172,71022,2,0,L|448:172,1,100
140,172,71308,6,0,L|12:172,1,100
176,140,71594,2,0,L|304:140,1,100
284,212,71808,1,0,0:0:0:0:
36,48,71879,2,0,L|156:48,1,100
400,64,72165,2,0,P|420:120|396:128,1,100
272,132,72379,1,0,0:0:0:0:
140,128,72451,6,0,L|80:128,2,50
280,148,72736,2,0,L|340:148,2,50
140,164,73022,2,0,L|136:268,1,100
276,268,73308,2,0,P|232:320|184:320,1,100
132,320,73522,1,0,0:0:0:0:
372,336,73594,6,0,P|428:308|436:268,1,100
368,272,73808,1,0,0:0:0:0:
300,272,73879,2,0,L|408:272,1,100
264,240,74165,2,0,L|256:180,1,50
328,192,74308,1,0,0:0:0:0:
468,200,74451,2,0,L|444:148,1,50
304,124,74594,2,0,L|248:120,1,50
80,112,74736,6,0,L|20:112,2,50
216,148,75022,2,0,L|100:148,1,100
256,172,75308,2,0,L|316:172,2,50
120,208,75594,2,0,L|236:208,1,100
472,248,75879,5,0,0:0:0:0:
392,200,75974,1,0,0:0:0:0:
308,160,76070,1,0,0:0:0:0:
396,136,76165,1,0,0:0:0:0:
284,120,76260,1,0,0:0:0:0:
376,108,76355,1,0,0:0:0:0:
56,164,76451,1,0,0:0:0:0:
256,168,76546,1,0,0:0:0:0:
464,168,76641,1,0,0:0:0:0:
152,120,76736,1,0,0:0:0:0:
328,76,76832,1,0,0:0:0:0:
144,52,76927,1,0,0:0:0:0:
348,48,77022,6,0,L|484:48,1,133.333333333333
276,104,77308,2,0,L|140:104,1,133.333333333333
336,144,77594,2,0,L|472:144,1,133.333333333333
272,200,77879,2,0,L|344:200,2,66.6666666666667
480,212,78165,6,0,P|448:148|384:128,1,133.333333333333
200,124,78451,2,0,L|48:124,1,133.333333333333
312,124,78736,2,0,L|464:124,1,133.333333333333
228,72,79022,2,0,L|140:72,2,66.6666666666667
32,76,79308,6,0,L|24:224,1,133.333333333333
176,200,79594,2,0,L|184:348,1,133.333333333333
332,200,79879,2,0,L|324:348,1,133.333333333333
476,76,80165,2,0,L|484:224,1,133.333333333333
244,208,80451,6,0,L|88:208,1,133.333333333333
392,128,80832,1,0,0:0:0:0:
64,88,81022,2,0,L|64:304,1,200
76,332,81355,1,0,0:0:0:0:
96,357,81402,1,0,0:0:0:0:
125,373,81450,1,0,0:0:0:0:
158,377,81497,1,0,0:0:0:0:
312,340,81594,6,0,L|460:336,1,133.333333333333
200,340,81879,2,0,L|52:336,1,133.333333333333
348,328,82165,2,0,L|496:324,1,133.333333333333
328,240,82451,6,0,L|24:240,1,300
192,192,82736,6,0,L|344:192,1,133.333333333333
480,208,83022,1,0,0:0:0:0:
413,208,83117,1,0,0:0:0:0:
346,208,83212,1,0,0:0:0:0:
136,96,83308,2,0,L|288:96,1,133.333333333333
420,140,83594,6,0,L|116:140,1,300
28,144,83879,6,0,L|104:140,2,66.6666666666667
180,184,84165,6,0,L|504:184,1,300
94,140,84451,6,0,L|28:144,2,66.6666666666667
480,184,84737,6,0,L|180:184,1,300
24,200,85022,6,0,L|12:96,1,100
196,56,85451,1,0,0:0:0:0:
68,108,85594,2,0,L|104:160,1,50
264,168,85736,2,0,L|328:168,1,50
108,224,85879,2,0,L|40:224,1,50
360,268,86022,2,0,L|444:268,1,50
68,336,86165,6,0,L|44:224,1,100
188,248,86451,1,0,0:0:0:0:
193,198,86522,1,0,0:0:0:0:
199,148,86593,1,0,0:0:0:0:
340,144,86736,2,0,L|316:256,1,100
460,232,87022,1,0,0:0:0:0:
465,281,87093,1,0,0:0:0:0:
471,331,87164,1,0,0:0:0:0:
328,336,87308,5,0,0:0:0:0:
278,336,87377,1,0,0:0:0:0:
228,336,87447,1,0,0:0:0:0:
96,292,87587,1,0,0:0:0:0:
146,292,87656,1,0,0:0:0:0:
196,292,87726,1,0,0:0:0:0:
332,256,87866,2,0,L|220:256,1,100
100,212,88145,1,0,0:0:0:0:
150,212,88214,1,0,0:0:0:0:
200,212,88284,1,0,0:0:0:0:
472,176,88424,6,0,L|368:176,2,100
272,176,88833,1,0,0:0:0:0:
472,176,88969,2,0,L|364:176,1,100
272,176,89242,1,0,0:0:0:0:
472,176,89378,1,0,0:0:0:0:
152,100,89514,5,0,0:0:0:0:
352,100,89647,1,0,0:0:0:0:
152,120,89780,1,0,0:0:0:0:
352,120,89914,1,0,0:0:0:0:
152,144,90047,2,0,L|256:144,1,100
452,144,90314,2,0,L|348:144,1,100
36,112,90580,5,0,0:0:0:0:
236,112,90710,2,0,L|120:112,1,100
336,112,90971,1,0,0:0:0:0:
36,112,91101,2,0,L|140:112,1,100
236,112,91362,1,0,0:0:0:0:
36,112,91493,1,0,0:0:0:0:
356,212,91623,5,0,0:0:0:0:
156,212,91750,1,0,0:0:0:0:
356,212,91878,1,0,0:0:0:0:
156,212,92005,1,0,0:0:0:0:
356,212,92133,1,0,0:0:0:0:
256,212,92261,2,0,L|152:212,1,100
106,212,92452,2,0,L|162:212,1,50
380,32,92644,6,0,L|492:32,1,100
256,80,92894,2,0,L|368:80,1,100
132,128,93144,2,0,L|244:128,2,100
372,180,93519,1,0,0:0:0:0:
128,200,93644,5,0,0:0:0:0:
97,238,93705,1,0,0:0:0:0:
102,286,93766,1,0,0:0:0:0:
139,318,93827,1,0,0:0:0:0:
384,200,93888,1,0,0:0:0:0:
415,238,93949,1,0,0:0:0:0:
410,286,94010,1,0,0:0:0:0:
373,318,94071,1,0,0:0:0:0:
148,348,94133,6,0,L|124:304,1,50
364,348,94256,2,0,L|388:304,1,50
124,304,94378,2,0,L|156:256,1,50
387,304,94501,2,0,L|356:256,1,50
132,188,94623,6,0,L|12:188,1,100
208,72,94868,2,0,L|312:72,1,100
484,132,95113,2,0,L|372:132,1,100
200,176,95358,2,0,L|300:176,1,100
32,124,95603,6,0,L|140:124,1,100
308,100,95848,2,0,L|188:100,1,100
480,148,96092,2,0,L|360:148,1,100
96,180,96337,2,0,L|32:180,1,50
240,212,96460,2,0,L|304:212,1,50
52,228,96582,6,0,L|152:228,1,100
416,292,96827,2,0,L|316:292,1,100
132,304,97072,2,0,L|20:304,1,100
276,144,97317,2,0,L|388:144,1,100
132,132,97562,6,0,L|28:132,1,100
28,60,97746,1,0,0:0:0:0:
184,64,97807,2,0,L|76:64,1,100
328,64,98052,2,0,L|436:64,1,100
180,104,98297,2,0,L|204:164,1,50
332,104,98419,2,0,L|308:164,1,50
88,192,98541,6,0,L|196:192,1,100
424,192,98786,2,0,L|316:192,1,100
88,192,99031,2,0,L|196:192,1,100
424,192,99276,2,0,L|424:84,1,100
208,88,99521,6,0,L|328:88,1,100
88,192,99766,2,0,L|88:84,1,100
308,296,100011,2,0,L|208:296,1,100
158,296,100195,2,0,L|214:296,1,50
472,264,100378,1,0,0:0:0:0:
120,232,100501,5,0,0:0:0:0:
79,206,100562,1,0,0:0:0:0:
78,158,100623,1,0,0:0:0:0:
118,132,100684,1,0,0:0:0:0:
308,100,100746,2,0,L|200:100,1,100
392,152,100990,1,0,0:0:0:0:
433,178,101051,1,0,0:0:0:0:
434,226,101112,1,0,0:0:0:0:
394,252,101173,1,0,0:0:0:0:
204,284,101235,2,0,L|312:284,1,100
308,212,101419,1,0,0:0:0:0:
128,236,101480,6,0,L|120:180,1,50
192,176,101603,2,0,L|184:120,1,50
256,116,101725,2,0,L|248:60,1,50
320,56,101848,2,0,L|312:0,1,50
136,32,101970,6,0,L|76:32,1,50
256,96,102092,2,0,L|312:96,1,50
100,96,102215,2,0,L|144:136,1,50
312,152,102337,2,0,L|268:192,1,50
116,208,102460,6,0,P|52:232|120:352,1,239.999992675781
396,208,102827,2,0,P|460:232|392:352,1,239.999992675781
136,60,103195,2,0,L|396:60,1,239.999992675781
136,324,103562,2,0,L|396:324,1,239.999992675781
68,156,103929,1,0,0:0:0:0:
352,96,104052,1,0,0:0:0:0:
112,76,104174,2,0,L|44:72,1,59.9999981689454
400,308,104297,2,0,L|468:312,1,59.9999981689454
136,168,104419,6,0,L|376:168,1,239.999992675781
56,60,104786,2,0,P|128:80|36:172,1,239.999992675781
384,208,105154,1,0,0:0:0:0:
56,324,105276,2,0,P|128:304|36:212,1,239.999992675781
464,320,105766,1,0,0:0:0:0:
160,232,105888,1,0,0:0:0:0:
392,160,106011,1,0,0:0:0:0:
124,104,106133,2,0,L|60:96,1,59.9999981689454
388,280,106256,2,0,L|452:288,1,59.9999981689454
152,300,106378,6,0,L|24:300,2,119.999996337891
360,300,106746,2,0,L|488:300,2,119.999996337891
32,84,107113,6,0,L|152:84,2,119.999996337891
480,84,107480,2,0,L|360:84,1,119.999996337891
108,184,107725,1,0,0:0:0:0:
372,252,107848,5,0,0:0:0:0:
80,300,107970,1,0,0:0:0:0:
388,324,108092,2,0,L|344:272,1,59.9999981689454
156,244,108215,2,0,L|80:244,1,59.9999981689454
304,184,108337,6,0,L|232:80,1,119.999996337891
88,44,108582,1,0,0:0:0:0:
416,80,108705,2,0,L|272:76,2,119.999996337891
68,144,109072,5,0,0:0:0:0:
324,184,109195,2,0,L|176:184,1,119.999996337891
472,244,109439,2,0,L|324:244,1,119.999996337891
84,272,109684,1,0,0:0:0:0:
412,192,109807,6,0,L|480:168,1,59.9999981689454
100,192,109929,2,0,L|32:168,1,59.9999981689454
88,144,110052,2,0,L|136:80,1,59.9999981689454
424,144,110174,2,0,L|376:80,1,59.9999981689454
56,52,110297,6,0,L|460:52,1,400
256,192,110664,12,0,115195,0:0:0:0:
