osu file format v14

[General]
AudioFilename: audio.mp3
AudioLeadIn: 0
PreviewTime: 1799603
Countdown: 0
SampleSet: Normal
StackLeniency: 0.7
Mode: 0
LetterboxInBreaks: 0
UseSkinSprites: 1
WidescreenStoryboard: 1

[Editor]
Bookmarks: 3918,4782,40451
DistanceSpacing: 0.9
BeatDivisor: 4
GridSize: 4
TimelineZoom: 3.299999

[Metadata]
Title:Disconnected Hardkore (CanBlaster Remix)
TitleUnicode:Disconnected Hardkore (CanBlaster Remix)
Artist:Inspector K
ArtistUnicode:Inspector K
Creator:Mr HeliX
Version:undefined
Source:In The Groove
Tags:
BeatmapID:1743837
BeatmapSetID:832364

[Difficulty]
HPDrainRate:1
CircleSize:4
OverallDifficulty:1
ApproachRate:9
SliderMultiplier:2.5
SliderTickRate:0.5

[Events]
//Background and Video events
0,0,"The_material_around_SN_1987A.jpg",0,0
//Break Periods
//Storyboard Layer 0 (Background)
Sprite,Background,Centre,"zwart.jpg",320,240 S,0,-2000,,1,2 F,0,-2000,-500,0,1 M,0,0,1891600,320,240 F,0,112501,112502,1,0
//Storyboard Layer 1 (Fail)
//Storyboard Layer 2 (Pass)
//Storyboard Layer 3 (Foreground)
//Storyboard Layer 4 (Overlay)
Sprite,Overlay,Centre,"bsod.png",320,240 F,0,112501,,1 S,0,112501,,1,0.44444 F,0,112501,1891600,1 C,2,1799664,1882584,255,255,255,245,26,26 S,2,1799664,1892584,0.44444,1 R,2,1799664,1892584,0,-0.5
Sprite,Overlay,Centre,"hitcircle.png",268.5,404.5 S,0,1,,0.5752727 C,0,1,,0,0,0,246,181,52 F,0,3426,3918,0,0.82 M,0,4134,4242,268.5,404.5,79.5,255.5 F,0,4674,4782,0.82,1 S,0,4782,4832,0.5752727,0.75 F,0,4782,4982,1,0
Sprite,Overlay,Centre,"hitcircleoverlay.png",268.5,404.5 S,0,1,,0.5752727 F,0,3426,3918,0,0.82 M,0,4134,4242,268.5,404.5,79.5,255.5 F,0,4674,4782,0.82,1 S,0,4782,4832,0.5752727,0.75 F,0,4782,4982,1,0
Sprite,Overlay,Centre,"approachcircle.png",268.5,404.5 C,0,1,,0,0,0,246,181,52 F,0,3426,3918,0,0.82 S,0,3426,3918,2.15,0.8806 M,0,4134,4242,268.5,404.5,79.5,255.5 F,0,4674,4782,0.82,1 S,0,4674,4782,0.8806,0.5896
Sprite,Overlay,Centre,"default-1.png",268.5,404.5 S,0,1,,0.45 F,0,3426,3918,0,0.82 M,0,4134,4242,268.5,404.5,79.5,255.5 F,0,4674,4782,0.82,1
Sprite,Overlay,Centre,"hitcircle.png",192.5,372.5 S,0,1,,0.5752727 C,0,1,,0,0,0,246,181,52 F,0,3534,3918,0,0.64 M,0,4242,4350,192.5,372.5,133.5,217.5 F,0,4674,4890,0.64,1 S,0,4890,4940,0.5752727,0.75 F,0,4890,5090,1,0
Sprite,Overlay,Centre,"hitcircleoverlay.png",192.5,372.5 S,0,1,,0.5752727 F,0,3534,3918,0,0.64 M,0,4242,4350,192.5,372.5,133.5,217.5 F,0,4674,4890,0.64,1 S,0,4890,4940,0.5752727,0.75 F,0,4890,5090,1,0
Sprite,Overlay,Centre,"approachcircle.png",192.5,372.5 C,0,1,,0,0,0,246,181,52 F,0,3534,3918,0,0.64 S,0,3534,3918,2.15,1.1806 M,0,4242,4350,192.5,372.5,133.5,217.5 F,0,4674,4890,0.64,1 S,0,4674,4890,1.1806,0.5896
Sprite,Overlay,Centre,"default-2.png",192.5,372.5 S,0,1,,0.45 F,0,3534,3918,0,0.64 M,0,4242,4350,192.5,372.5,133.5,217.5 F,0,4674,4890,0.64,1
Sprite,Overlay,Centre,"hitcircle.png",160.5,296.5 S,0,1,,0.5752727 C,0,1,,0,0,0,246,181,52 F,0,3642,3918,0,0.46 M,0,4350,4458,160.5,296.5,199.5,201.5 F,0,4674,4998,0.46,1 S,0,4998,5048,0.5752727,0.75 F,0,4998,5198,1,0
Sprite,Overlay,Centre,"hitcircleoverlay.png",160.5,296.5 S,0,1,,0.5752727 F,0,3642,3918,0,0.46 M,0,4350,4458,160.5,296.5,199.5,201.5 F,0,4674,4998,0.46,1 S,0,4998,5048,0.5752727,0.75 F,0,4998,5198,1,0
Sprite,Overlay,Centre,"approachcircle.png",160.5,296.5 C,0,1,,0,0,0,246,181,52 F,0,3642,3918,0,0.46 S,0,3642,3918,2.15,1.4806 M,0,4350,4458,160.5,296.5,199.5,201.5 F,0,4674,4998,0.46,1 S,0,4674,4998,1.4806,0.5896
Sprite,Overlay,Centre,"default-3.png",160.5,296.5 S,0,1,,0.45 F,0,3642,3918,0,0.46 M,0,4350,4458,160.5,296.5,199.5,201.5 F,0,4674,4998,0.46,1
Sprite,Overlay,Centre,"hitcircle.png",204.5,224.5 S,0,1,,0.5752727 C,0,1,,0,0,0,246,181,52 F,0,3750,3918,0,0.28 M,0,4458,4566,204.5,224.5,262.5,211.5 F,0,4674,5105,0.28,1 S,0,5105,5155,0.5752727,0.75 F,0,5105,5305,1,0
Sprite,Overlay,Centre,"hitcircleoverlay.png",204.5,224.5 S,0,1,,0.5752727 F,0,3750,3918,0,0.28 M,0,4458,4566,204.5,224.5,262.5,211.5 F,0,4674,5105,0.28,1 S,0,5105,5155,0.5752727,0.75 F,0,5105,5305,1,0
Sprite,Overlay,Centre,"approachcircle.png",204.5,224.5 C,0,1,,0,0,0,246,181,52 F,0,3750,3918,0,0.28 S,0,3750,3918,2.15,1.7896 M,0,4458,4566,204.5,224.5,262.5,211.5 F,0,4674,5105,0.28,1 S,0,4674,5105,1.7896,0.5896
Sprite,Overlay,Centre,"default-4.png",204.5,224.5 S,0,1,,0.45 F,0,3750,3918,0,0.28 M,0,4458,4566,204.5,224.5,262.5,211.5 F,0,4674,5105,0.28,1
Sprite,Overlay,Centre,"hitcircle.png",176.5,144.5 S,0,1,,0.5752727 C,0,1,,0,0,0,246,181,52 F,0,3858,3918,0,0.1 M,0,4566,4674,176.5,144.5,322.5,237.5 F,0,4674,5213,0.1,1 S,0,5213,5263,0.5752727,0.75 F,0,5213,5413,1,0
Sprite,Overlay,Centre,"hitcircleoverlay.png",176.5,144.5 S,0,1,,0.5752727 F,0,3858,3918,0,0.1 M,0,4566,4674,176.5,144.5,322.5,237.5 F,0,4674,5213,0.1,1 S,0,5213,5263,0.5752727,0.75 F,0,5213,5413,1,0
Sprite,Overlay,Centre,"approachcircle.png",176.5,144.5 C,0,1,,0,0,0,246,181,52 F,0,3858,3918,0,0.1 S,0,3858,3918,2.15,2.0896 M,0,4566,4674,176.5,144.5,322.5,237.5 F,0,4674,5213,0.1,1 S,0,4674,5213,2.0896,0.5896
Sprite,Overlay,Centre,"default-5.png",176.5,144.5 S,0,1,,0.45 F,0,3858,3918,0,0.1 M,0,4566,4674,176.5,144.5,322.5,237.5 F,0,4674,5213,0.1,1
Sprite,Overlay,Centre,"hitcircle.png",372.5,216.5 S,0,1,,0.5752727 C,0,1,,0,0,0,246,181,52 F,0,6556,7156,0,1 C,0,7372,8127,246,182,52,76,98,216 S,0,8451,8501,0.5752727,0.75 F,0,8451,8651,1,0
Sprite,Overlay,Centre,"hitcircleoverlay.png",372.5,216.5 S,0,1,,0.5752727 F,0,6556,7156,0,1 S,0,8451,8601,0.5752727,0.75 F,0,8451,8651,1,0
Sprite,Overlay,Centre,"approachcircle.png",372.5,216.5 C,0,1,,0,0,0,246,181,52 F,0,6556,7156,0,1 S,0,6556,7156,2.15,0.5896 S,0,7156,7157,0.5896,0 C,0,7372,8127,246,182,52,76,98,216 F,0,7851,8451,0,1 S,0,7851,8451,2.15,0.5896
Sprite,Overlay,Centre,"default-3.png",372.5,216.5 S,0,1,,0.45 F,0,6556,7156,0,1 S,0,8452,,0
Sprite,Overlay,Centre,"hitcircle.png",296.5,252.5 S,0,1,,0.5752727 C,0,1,,0,0,0,246,181,52 F,0,6664,7264,0,1 C,0,7372,8127,246,182,52,76,98,216 S,0,8343,8393,0.5752727,0.75 F,0,8343,8543,1,0
Sprite,Overlay,Centre,"hitcircleoverlay.png",296.5,252.5 S,0,1,,0.5752727 F,0,6664,7264,0,1 S,0,8343,8393,0.5752727,0.75 F,0,8343,8543,1,0
Sprite,Overlay,Centre,"approachcircle.png",296.5,252.5 C,0,1,,0,0,0,246,181,52 F,0,6664,7264,0,1 S,0,6664,7264,2.15,0.5896 S,0,7264,7157,0.5896,0 C,0,7372,8127,246,182,52,76,98,216 F,0,7743,8343,0,1 S,0,7743,8343,2.15,0.5896
Sprite,Overlay,Centre,"default-4.png",296.5,252.5 S,0,1,,0.45 F,0,6664,7264,0,1 S,0,8344,,0
Sprite,Overlay,Centre,"hitcircle.png",220.5,292.5 S,0,1,,0.5752727 C,0,1,,0,0,0,246,181,52 F,0,6772,7372,0,1 C,0,7372,8127,246,182,52,76,98,216 S,0,8235,8285,0.5752727,0.75 F,0,8235,8435,1,0
Sprite,Overlay,Centre,"hitcircleoverlay.png",220.5,292.5 S,0,1,,0.5752727 F,0,6772,7372,0,1 S,0,8235,8385,0.5752727,0.75 F,0,8235,8435,1,0
Sprite,Overlay,Centre,"approachcircle.png",220.5,292.5 C,0,1,,0,0,0,246,181,52 F,0,6772,7372,0,1 S,0,6772,7372,2.15,0.5896 S,0,7372,7157,0.5896,0 C,0,7372,8127,246,182,52,76,98,216 F,0,7635,8235,0,1 S,0,7635,8235,2.15,0.5896
Sprite,Overlay,Centre,"default-5.png",220.5,292.5 S,0,1,,0.45 F,0,6772,7372,0,1 S,0,8236,,0
Sprite,Overlay,Centre,"hitcircle.png",448.5,180.5 S,0,1,,0.5752727 C,0,1,,0,0,0,76,98,216 F,0,7959,8559,0,1 S,0,8559,8609,0.5752727,0.75 F,0,8559,8759,1,0
Sprite,Overlay,Centre,"hitcircleoverlay.png",448.5,180.5 S,0,1,,0.5752727 F,0,7959,8559,0,1 S,0,8559,8609,0.5752727,0.75 F,0,8559,8759,1,0
Sprite,Overlay,Centre,"approachcircle.png",448.5,180.5 C,0,1,,0,0,0,76,98,216 F,0,7959,8559,0,1 S,0,7959,8559,2.15,0.5896
Sprite,Overlay,Centre,"default-2.png",448.5,180.5 S,0,1,,0.45 F,0,7959,8559,0,1
Sprite,Overlay,Centre,"hitcircle.png",524.5,144.5 S,0,1,,0.5752727 C,0,1,,0,0,0,76,98,216 F,0,8067,8667,0,1 S,0,8667,8717,0.5752727,0.75 F,0,8667,8867,1,0
Sprite,Overlay,Centre,"hitcircleoverlay.png",524.5,144.5 S,0,1,,0.5752727 F,0,8067,8667,0,1 S,0,8667,8717,0.5752727,0.75 F,0,8667,8867,1,0
Sprite,Overlay,Centre,"approachcircle.png",524.5,144.5 C,0,1,,0,0,0,76,98,216 F,0,8067,8667,0,1 S,0,8067,8667,2.15,0.5896
Sprite,Overlay,Centre,"default-1.png",524.5,144.5 S,0,1,,0.45 F,0,8067,8667,0,1
Sprite,Overlay,Centre,"hitcircle.png",312.5,352.5 S,0,1,,0.5752727 C,0,1,,0,0,0,246,181,52 F,0,11088,11688,0,1 S,0,12120,12170,0.5752727,0.75 F,0,12120,12320,1,0
Sprite,Overlay,Centre,"hitcircleoverlay.png",312.5,352.5 S,0,1,,0.5752727 F,0,11088,11688,0,1 S,0,12120,12170,0.5752727,0.75 F,0,12120,12320,1,0
Sprite,Overlay,Centre,"approachcircle.png",312.5,352.5 C,0,1,,0,0,0,246,181,52 F,0,11088,11688,0,1 S,0,11088,11688,2.15,0.8896 S,0,11688,11796,0.8896,1.8 S,0,11796,11904,1.8,0.8896 S,0,11904,12012,0.8896,1.8 S,0,12012,12120,1.8,0.5896
Sprite,Overlay,Centre,"default-1.png",312.5,352.5 S,0,1,,0.45 F,0,11088,11688,0,1 S,0,12121,,0
Sprite,Overlay,Centre,"hitcircle.png",348.5,216.5 S,0,1,,0.5752727 C,0,1,,0,0,0,76,98,216 F,0,12167,12767,0,1 M,0,12767,12875,348.5,216.5,190,157 M,0,12875,12983,190,157,191,319 M,0,12983,13091,191,319,383,384 M,0,13091,13199,383,384,255,190 M,0,13199,13307,255,190,258,351 M,0,13307,13415,258,351,70.5,222.5 S,0,13631,13681,0.5752727,0.75 F,0,13631,13831,1,0
Sprite,Overlay,Centre,"hitcircleoverlay.png",348.5,216.5 S,0,1,,0.5752727 F,0,12167,12767,0,1 M,0,12767,12875,348.5,216.5,190,157 M,0,12875,12983,190,157,191,319 M,0,12983,13091,191,319,383,384 M,0,13091,13199,383,384,255,190 M,0,13199,13307,255,190,258,351 M,0,13307,13415,258,351,70.5,222.5 S,0,13631,13681,0.5752727,0.75 F,0,13631,13831,1,0
Sprite,Overlay,Centre,"approachcircle.png",348.5,216.5 C,0,1,,0,0,0,76,98,216 F,0,12275,12767,0,1 S,0,12275,12767,2.15,0.8896 M,0,12767,12875,348.5,216.5,190,157 M,0,12875,12983,190,157,191,319 M,0,12983,13091,191,319,383,384 M,0,13091,13199,383,384,255,190 M,0,13199,13307,255,190,258,351 M,0,13307,13415,258,351,70.5,222.5 S,0,13523,13631,0.8896,0.5896
Sprite,Overlay,Centre,"default-1.png",348.5,216.5 S,0,1,,0.45 F,0,12167,12767,0,1 M,0,12767,12875,348.5,216.5,190,157 M,0,12875,12983,190,157,191,319 M,0,12983,13091,191,319,383,384 M,0,13091,13199,383,384,255,190 M,0,13199,13307,255,190,258,351 M,0,13307,13415,258,351,70.5,222.5 S,0,13632,,0
Sprite,Overlay,Centre,"hitcircle.png",144.5,244.5 S,0,1,,0.5752727 C,0,1,,0,0,0,204,6,6 F,0,28422,29022,0,1 M,0,30165,30308,144.5,244.5,324.5,228.5 F,0,30165,31165,1,0.2 C,0,31308,32308,204,6,6,76,98,216 F,0,32022,32594,0.2,1 F,0,32594,32736,1,0.2 M,0,33594,33736,324.5,228.5,168.5,132.5 C,0,33736,34736,76,98,216,246,181,52 F,0,34308,34879,0.2,1 S,0,34879,34929,0.5752727,0.75 F,0,34879,35079,1,0
Sprite,Overlay,Centre,"hitcircleoverlay.png",144.5,244.5 S,0,1,,0.5752727 F,0,28422,29022,0,1 M,0,30165,30308,144.5,244.5,324.5,228.5 F,0,30165,31165,1,0.2 F,0,32022,32594,0.2,1 F,0,32594,32736,1,0.2 M,0,33594,33736,324.5,228.5,168.5,132.5 F,0,34308,34879,0.2,1 S,0,34879,34929,0.5752727,0.75 F,0,34879,35079,1,0
Sprite,Overlay,Centre,"approachcircle.png",144.5,244.5 C,0,1,,0,0,0,204,6,6 F,0,28422,29022,0,1 S,0,28422,29022,2.15,0.5896 F,0,30165,30166,1,0 M,0,30165,30308,144.5,244.5,324.5,228.5 C,0,31308,32308,204,6,6,76,98,216 F,0,31994,32594,0,1 S,0,31994,32594,2.15,0.5896 F,0,32594,32736,1,0.2 F,0,33594,33595,1,0 M,0,33594,33736,324.5,228.5,168.5,132.5 C,0,33736,34736,76,98,216,246,181,52 F,0,34279,34879,0,1 S,0,34279,34879,2.15,0.5896
Sprite,Overlay,Centre,"default-1.png",144.5,244.5 S,0,1,,0.45 F,0,28422,29022,0,1 M,0,30165,30308,144.5,244.5,324.5,228.5 F,0,30165,31165,1,0.2 F,0,32022,32594,0.2,1 F,0,32594,32736,1,0.2 M,0,33594,33736,324.5,228.5,168.5,132.5 F,0,34308,34879,0.2,1 F,0,34879,34880,1,0
Sprite,Overlay,Centre,"hitcircle.png",200.5,344.5 S,0,1,,0.5752727 C,0,1,,0,0,0,204,6,6 F,0,28565,29165,0,1 F,0,30165,31165,1,0.2 M,0,30308,30451,200.5,344.5,336.5,376.5 C,0,31308,32308,204,6,6,76,98,216 F,0,32022,32594,0.2,1 F,0,32736,32879,1,0.2 M,0,33594,33736,336.5,376.5,324.5,196.5 C,0,33736,34736,76,98,216,246,181,52 F,0,34308,34879,0.2,1 S,0,35022,35072,0.5752727,0.75 F,0,35022,35222,1,0
Sprite,Overlay,Centre,"hitcircleoverlay.png",200.5,344.5 S,0,1,,0.5752727 F,0,28565,29165,0,1 F,0,30165,31165,1,0.2 M,0,30308,30451,200.5,344.5,336.5,376.5 F,0,32022,32594,0.2,1 F,0,32736,32879,1,0.2 M,0,33594,33736,336.5,376.5,324.5,196.5 F,0,34308,34879,0.2,1 S,0,35022,35072,0.5752727,0.75 F,0,35022,35222,1,0
Sprite,Overlay,Centre,"approachcircle.png",200.5,344.5 C,0,1,,0,0,0,204,6,6 F,0,28565,29165,0,1 S,0,28565,29165,2.15,0.5896 F,0,30308,30309,1,0 M,0,30308,30451,200.5,344.5,336.5,376.5 C,0,31308,32308,204,6,6,76,98,216 F,0,32136,32736,0,1 S,0,32136,32736,2.15,0.5896 F,0,32736,32879,1,0.2 F,0,33594,33595,1,0 M,0,33594,33736,336.5,376.5,324.5,196.5 C,0,33736,34736,76,98,216,246,181,52 F,0,34422,35022,0,1 S,0,34422,35022,2.15,0.5896
Sprite,Overlay,Centre,"default-2.png",200.5,344.5 S,0,1,,0.45 F,0,28565,29165,0,1 F,0,30165,31165,1,0.2 M,0,30308,30451,200.5,344.5,336.5,376.5 F,0,32022,32594,0.2,1 F,0,32736,32879,1,0.2 M,0,33594,33736,336.5,376.5,324.5,196.5 F,0,34308,34879,0.2,1 F,0,35022,35023,1,0
Sprite,Overlay,Centre,"hitcircle.png",248.5,244.5 S,0,1,,0.5752727 C,0,1,,0,0,0,204,6,6 F,0,28708,29308,0,1 F,0,30165,31165,1,0.2 M,0,30451,30594,248.5,244.5,92.5,236.5 C,0,31308,32308,204,6,6,76,98,216 F,0,32022,32594,0.2,1 F,0,33451,33594,1,0.2 M,0,33594,33736,92.5,236.5,144.5,432.5 C,0,33736,34736,76,98,216,246,181,52 F,0,34308,34879,0.2,1 S,0,35736,35786,0.5752727,0.75 F,0,35736,35936,1,0
Sprite,Overlay,Centre,"hitcircleoverlay.png",248.5,244.5 S,0,1,,0.5752727 F,0,28708,29308,0,1 F,0,30165,31165,1,0.2 M,0,30451,30594,248.5,244.5,92.5,236.5 F,0,32022,32594,0.2,1 F,0,33451,33594,1,0.2 M,0,33594,33736,92.5,236.5,144.5,432.5 F,0,34308,34879,0.2,1 S,0,35736,35786,0.5752727,0.75 F,0,35736,35936,1,0
Sprite,Overlay,Centre,"approachcircle.png",248.5,244.5 C,0,1,,0,0,0,204,6,6 F,0,28708,29308,0,1 S,0,28708,29308,2.15,0.5896 F,0,30451,30452,1,0 M,0,30451,30594,248.5,244.5,92.5,236.5 C,0,31308,32308,204,6,6,76,98,216 F,0,32851,33451,0,1 S,0,32851,33451,2.15,0.5896 F,0,33451,33594,1,0.2 F,0,33594,33595,1,0 M,0,33594,33736,92.5,236.5,144.5,432.5 C,0,33736,34736,76,98,216,246,181,52 F,0,35136,35736,0,1 S,0,35136,35736,2.15,0.5896
Sprite,Overlay,Centre,"default-3.png",248.5,244.5 S,0,1,,0.45 F,0,28708,29308,0,1 M,0,30451,30594,248.5,244.5,92.5,236.5
Sprite,Overlay,Centre,"default-7.png",92.5,236.5 F,0,1,,0 S,0,1,,0.45 F,0,30594,30595,0,0.2 F,0,32022,32594,0.2,1 F,0,33451,33594,1,0.2 M,0,33594,33736,92.5,236.5,144.5,432.5 F,0,34308,34879,0.2,1 F,0,35736,35737,1,0
Sprite,Overlay,Centre,"hitcircle.png",296.5,348.5 S,0,1,,0.5752727 C,0,1,,0,0,0,204,6,6 F,0,28851,29451,0,1 F,0,30165,31165,1,0.2 M,0,30594,30736,295.5,348.5,64.5,384.5 C,0,31308,32308,204,6,6,76,98,216 F,0,32022,32594,0.2,1 M,0,33594,33736,64.5,384.5,312.5,424.5 F,0,33594,33736,1,0.2 C,0,33736,34736,76,98,216,246,181,52 F,0,34308,34879,0.2,1 S,0,35879,35929,0.5752727,0.75 F,0,35879,36079,1,0
Sprite,Overlay,Centre,"hitcircleoverlay.png",296.5,348.5 S,0,1,,0.5752727 F,0,28851,29451,0,1 F,0,30165,31165,1,0.2 M,0,30594,30736,295.5,348.5,64.5,384.5 F,0,32022,32594,0.2,1 M,0,33594,33736,64.5,384.5,312.5,424.5 F,0,33594,33736,1,0.2 F,0,34308,34879,0.2,1 S,0,35879,35929,0.5752727,0.75 F,0,35879,36079,1,0
Sprite,Overlay,Centre,"approachcircle.png",296.5,348.5 C,0,1,,0,0,0,204,6,6 F,0,28851,29451,0,1 S,0,28851,29451,2.15,0.5896 F,0,30594,30595,1,0 M,0,30594,30736,295.5,348.5,64.5,384.5 C,0,31308,32308,204,6,6,76,98,216 F,0,32994,33594,0,1 S,0,32994,33594,2.15,0.5896 F,0,33594,33595,1,0 M,0,33594,33736,64.5,384.5,312.5,424.5 C,0,33736,34736,76,98,216,246,181,52 F,0,35279,35879,0,1 S,0,35279,35879,2.15,0.5896
Sprite,Overlay,Centre,"default-4.png",296.5,348.5 S,0,1,,0.45 F,0,28851,29451,0,1 M,0,30594,30736,295.5,348.5,64.5,384.5
Sprite,Overlay,Centre,"default-8.png",64.5,384.5 F,0,1,,0 S,0,1,,0.45 F,0,30736,30737,0,0.2 F,0,32022,32594,0.2,1 M,0,33594,33736,64.5,384.5,312.5,424.5 F,0,33594,33736,1,0.2 F,0,34308,34879,0.2,1 F,0,35879,35880,1,0
Sprite,Overlay,Centre,"hitcircle.png",344.5,244.5 S,0,1,,0.5752727 C,0,1,,0,0,0,204,6,6 F,0,28994,29594,0,1 F,0,30165,31165,1,0.2 M,0,30736,30879,344.5,244.5,164.5,264.5 C,0,31308,32308,204,6,6,76,98,216 F,0,32022,32594,0.2,1 F,0,33165,33308,1,0.2 M,0,33594,33736,164.5,264.5,128.5,332.5 C,0,33736,34736,76,98,216,246,181,52 F,0,34308,34879,0.2,1 S,0,35451,35501,0.5752727,0.75 F,0,35451,35651,1,0
Sprite,Overlay,Centre,"hitcircleoverlay.png",344.5,244.5 S,0,1,,0.5752727 F,0,28994,29594,0,1 F,0,30165,31165,1,0.2 M,0,30736,30879,344.5,244.5,164.5,264.5 F,0,32022,32594,0.2,1 F,0,33165,33308,1,0.2 M,0,33594,33736,164.5,264.5,128.5,332.5 F,0,34308,34879,0.2,1 S,0,35451,35501,0.5752727,0.75 F,0,35451,35651,1,0
Sprite,Overlay,Centre,"approachcircle.png",344.5,244.5 C,0,1,,0,0,0,204,6,6 F,0,28994,29594,0,1 S,0,28994,29594,2.15,0.5896 F,0,30736,30737,1,0 M,0,30736,30879,344.5,244.5,164.5,264.5 C,0,31308,32308,204,6,6,76,98,216 F,0,32565,33165,0,1 S,0,32565,33165,2.15,0.5896 F,0,33165,33308,1,0.2 F,0,33594,33595,1,0 M,0,33594,33736,164.5,264.5,128.5,332.5 C,0,33736,34736,76,98,216,246,181,52 F,0,34851,35451,0,1 S,0,34851,35451,2.15,0.5896
Sprite,Overlay,Centre,"default-5.png",344.5,244.5 S,0,1,,0.45 F,0,28994,29594,0,1 F,0,30165,31165,1,0.2 M,0,30736,30879,344.5,244.5,164.5,264.5 F,0,32022,32594,0.2,1 F,0,33165,33308,1,0.2 M,0,33594,33736,164.5,264.5,128.5,332.5 F,0,34308,34879,0.2,1 F,0,35451,35452,1,0
Sprite,Overlay,Centre,"hitcircle.png",388.5,348.5 S,0,1,,0.5752727 C,0,1,,0,0,0,204,6,6 F,0,29136,29736,0,1 F,0,30165,31165,1,0.2 M,0,30879,31022,388.5,348.5,148.5,412.5 C,0,31308,32308,204,6,6,76,98,216 F,0,32022,32594,0.2,1 F,0,33308,33451,1,0.2 M,0,33594,33736,148.5,412.5,296.5,344.5 C,0,33736,34736,76,98,216,246,181,52 F,0,34308,34879,0.2,1 S,0,35594,35644,0.5752727,0.75 F,0,35594,35794,1,0
Sprite,Overlay,Centre,"hitcircleoverlay.png",388.5,348.5 S,0,1,,0.5752727 F,0,29136,29736,0,1 F,0,30165,31165,1,0.2 M,0,30879,31022,388.5,348.5,148.5,412.5 F,0,32022,32594,0.2,1 F,0,33308,33451,1,0.2 M,0,33594,33736,148.5,412.5,296.5,344.5 F,0,34308,34879,0.2,1 S,0,35594,35644,0.5752727,0.75 F,0,35594,35794,1,0
Sprite,Overlay,Centre,"approachcircle.png",388.5,348.5 C,0,1,,0,0,0,204,6,6 F,0,29136,29736,0,1 S,0,29136,29736,2.15,0.5896 F,0,30879,30880,1,0 M,0,30879,31022,388.5,348.5,148.5,412.5 C,0,31308,32308,204,6,6,76,98,216 F,0,32708,33308,0,1 S,0,32708,33308,2.15,0.5896 F,0,33308,33451,1,0.2 F,0,33594,33595,1,0 M,0,33594,33736,148.5,412.5,296.5,344.5 C,0,33736,34736,76,98,216,246,181,52 F,0,34994,35594,0,1 S,0,34994,35594,2.15,0.5896
Sprite,Overlay,Centre,"default-6.png",388.5,348.5 S,0,1,,0.45 F,0,29136,29736,0,1 F,0,30165,31165,1,0.2 M,0,30879,31022,388.5,348.5,148.5,412.5 F,0,32022,32594,0.2,1 F,0,33308,33451,1,0.2 M,0,33594,33736,148.5,412.5,296.5,344.5 F,0,34308,34879,0,1 F,0,35594,35595,1,0
Sprite,Overlay,Centre,"hitcircle.png",436.5,244.5 S,0,1,,0.5752727 C,0,1,,0,0,0,204,6,6 F,0,29279,29879,0,1 F,0,30165,31165,1,0.2 M,0,31022,31165,436.5,244.5,240.5,256.5 C,0,31308,32308,204,6,6,76,98,216 F,0,32022,32594,0.2,1 F,0,32879,33022,1,0.2 M,0,33594,33736,240.5,256.5,136.5,232.5 C,0,33736,34736,76,98,216,246,181,52 F,0,34308,34879,0.2,1 S,0,35165,35215,0.5752727,0.75 F,0,35165,35365,1,0
Sprite,Overlay,Centre,"hitcircleoverlay.png",436.5,244.5 S,0,1,,0.5752727 F,0,29279,29879,0,1 F,0,30165,31165,1,0.2 M,0,31022,31165,436.5,244.5,240.5,256.5 F,0,32022,32594,0.2,1 F,0,32879,33022,1,0.2 M,0,33594,33736,240.5,256.5,136.5,232.5 F,0,34308,34879,0.2,1 S,0,35165,35215,0.5752727,0.75 F,0,35165,35365,1,0
Sprite,Overlay,Centre,"approachcircle.png",436.5,244.5 C,0,1,,0,0,0,204,6,6 F,0,29279,29879,0,1 S,0,29279,29879,2.15,0.5896 F,0,31022,31023,1,0 M,0,31022,31165,436.5,244.5,240.5,256.5 C,0,31308,32308,204,6,6,76,98,216 F,0,32279,32879,0,1 S,0,32279,32879,2.15,0.5896 F,0,32879,33022,1,0.2 F,0,33594,33595,1,0 M,0,33594,33736,240.5,256.5,136.5,232.5 C,0,33736,34736,76,98,216,246,181,52 F,0,34565,35165,0,1 S,0,34565,35165,2.15,0.5896
Sprite,Overlay,Centre,"default-7.png",436.5,244.5 S,0,1,,0.45 F,0,29279,29879,0,1 M,0,31022,31165,436.5,244.5,240.5,256.5
Sprite,Overlay,Centre,"default-3.png",240.5,256.5 F,0,1,,0 S,0,1,,0.45 F,0,31165,31166,0,0.2 F,0,32022,32594,0.2,1 F,0,32879,33022,1,0.2 M,0,33594,33736,240.5,256.5,136.5,232.5 F,0,34308,34879,0.2,1 F,0,35165,35166,1,0
Sprite,Overlay,Centre,"hitcircle.png",484.5,348.5 S,0,1,,0.5752727 C,0,1,,0,0,0,204,6,6 F,0,29422,30022,0,1 F,0,30165,31165,1,0.2 M,0,31165,31308,484.5,348.5,244.5,408.5 C,0,31308,32308,204,6,6,76,98,216 F,0,32022,32594,0.2,1 F,0,33022,33165,1,0.2 M,0,33594,33736,244.5,408.5,300.5,272.5 C,0,33736,34736,76,98,216,246,181,52 F,0,34308,34879,0.2,1 S,0,35308,35358,0.5752727,0.75 F,0,35308,35508,1,0
Sprite,Overlay,Centre,"hitcircleoverlay.png",484.5,348.5 S,0,1,,0.5752727 F,0,29422,30022,0,1 F,0,30165,31165,1,0.2 M,0,31165,31308,484.5,348.5,244.5,408.5 F,0,32022,32594,0.2,1 F,0,33022,33165,1,0.2 M,0,33594,33736,244.5,408.5,300.5,272.5 F,0,34308,34879,0.2,1 S,0,35308,35358,0.5752727,0.75 F,0,35308,35508,1,0
Sprite,Overlay,Centre,"approachcircle.png",484.5,348.5 C,0,1,,0,0,0,204,6,6 F,0,29422,30022,0,1 S,0,29422,30022,2.15,0.5896 F,0,31165,31166,1,0 M,0,31165,31308,484.5,348.5,244.5,408.5 C,0,31308,32308,204,6,6,76,98,216 F,0,32422,33022,0,1 S,0,32422,33022,2.15,0.5896 F,0,33022,33165,1,0.2 F,0,33594,33595,1,0 M,0,33594,33736,244.5,408.5,300.5,272.5 C,0,33736,34736,76,98,216,246,181,52 F,0,34708,35308,0,1 S,0,34708,35308,2.15,0.5896
Sprite,Overlay,Centre,"default-8.png",484.5,348.5 S,0,1,,0.45 F,0,29422,30022,0,1 M,0,31165,31308,484.5,348.5,244.5,408.5
Sprite,Overlay,Centre,"default-4.png",244.5,408.5 F,0,1,,0 S,0,1,,0.45 F,0,31308,31309,0,0.2 F,0,32022,32594,0.2,1 F,0,33022,33165,1,0.2 M,0,33594,33736,244.5,408.5,300.5,272.5 F,0,34308,34879,0.2,1 F,0,35308,35309,1,0
Sprite,Overlay,Centre,"hitcircle.png",388.5,428.5 S,0,1,,0.5752727 C,0,1,,0,0,0,204,6,6 F,0,36565,37165,0,1 S,0,37165,37215,0.5752727,0.75 F,0,37165,37365,1,0
Sprite,Overlay,Centre,"hitcircleoverlay.png",388.5,428.5 S,0,1,,0.5752727 F,0,36565,37165,0,1 S,0,37165,37215,0.5752727,0.75 F,0,37165,37365,1,0
Sprite,Overlay,Centre,"approachcircle.png",388.5,428.5 C,0,1,,0,0,0,204,6,6 F,0,36565,37165,0,1 S,0,36565,37165,2.15,0.5896
Sprite,Overlay,Centre,"default-4.png",388.5,428.5 S,0,1,,0.45 F,0,36565,37165,0,1
Sprite,Overlay,Centre,"hitcircle.png",504.5,256.5 S,0,1,,0.5752727 C,0,1,,0,0,0,204,6,6 F,0,36708,37308,0,1 S,0,37308,37358,0.5752727,0.75 F,0,37308,37508,1,0
Sprite,Overlay,Centre,"hitcircleoverlay.png",504.5,256.5 S,0,1,,0.5752727 F,0,36708,37308,0,1 S,0,37308,37358,0.5752727,0.75 F,0,37308,37508,1,0
Sprite,Overlay,Centre,"approachcircle.png",504.5,256.5 C,0,1,,0,0,0,204,6,6 F,0,36708,37308,0,1 S,0,36708,37308,2.15,0.5896
Sprite,Overlay,Centre,"default-3.png",504.5,256.5 S,0,1,,0.45 F,0,36708,37308,0,1
Sprite,Overlay,Centre,"hitcircle.png",332.5,372.5 S,0,1,,0.5752727 C,0,1,,0,0,0,204,6,6 F,0,36850,37450,0,1 S,0,37450,37500,0.5752727,0.75 F,0,37450,37650,1,0
Sprite,Overlay,Centre,"hitcircleoverlay.png",332.5,372.5 S,0,1,,0.5752727 F,0,36850,37450,0,1 S,0,37450,37500,0.5752727,0.75 F,0,37450,37650,1,0
Sprite,Overlay,Centre,"approachcircle.png",332.5,372.5 C,0,1,,0,0,0,204,6,6 F,0,36850,37450,0,1 S,0,36850,37450,2.15,0.5896
Sprite,Overlay,Centre,"default-2.png",332.5,372.5 S,0,1,,0.45 F,0,36850,37450,0,1
Sprite,Overlay,Centre,"hitcircle.png",424.5,188.5 S,0,1,,0.5752727 C,0,1,,0,0,0,204,6,6 F,0,36993,37593,0,1 S,0,37593,37643,0.5752727,0.75 F,0,37593,37793,1,0
Sprite,Overlay,Centre,"hitcircleoverlay.png",424.5,188.5 S,0,1,,0.5752727 F,0,36993,37593,0,1 S,0,37593,37643,0.5752727,0.75 F,0,37593,37793,1,0
Sprite,Overlay,Centre,"approachcircle.png",424.5,188.5 C,0,1,,0,0,0,204,6,6 F,0,36993,37593,0,1 S,0,36993,37593,2.15,0.5896
Sprite,Overlay,Centre,"default-1.png",424.5,188.5 S,0,1,,0.45 F,0,36993,37593,0,1
Sprite,Overlay,Centre,"hitcircle.png",264.5,336.5 S,0,1,,0.5752727 F,0,37136,37736,0,1 S,0,37736,37786,0.5752727,0.75 F,0,37736,37936,1,0
Sprite,Overlay,Centre,"hitcircleoverlay.png",264.5,336.5 S,0,1,,0.5752727 F,0,37136,37736,0,1 S,0,37736,37786,0.5752727,0.75 F,0,37736,37936,1,0
Sprite,Overlay,Centre,"approachcircle.png",264.5,336.5 F,0,37136,37736,0,1 S,0,37136,37736,2.15,0.5896
Sprite,Overlay,Centre,"default-0.png",264.5,336.5 S,0,1,,0.45 F,0,37136,37736,0,1
Sprite,Overlay,Centre,"hitcircle.png",316.5,136.5 S,0,1,,0.5752727 F,0,37279,37879,0,1 S,0,37879,37929,0.5752727,0.75 F,0,37879,38079,1,0
Sprite,Overlay,Centre,"hitcircleoverlay.png",316.5,136.5 S,0,1,,0.5752727 F,0,37279,37879,0,1 S,0,37879,37929,0.5752727,0.75 F,0,37879,38079,1,0
Sprite,Overlay,Centre,"approachcircle.png",316.5,136.5 F,0,37279,37879,0,1 S,0,37279,37879,2.15,0.5896
Sprite,Overlay,Centre,"default-n.png",311.5,136.5 S,0,1,,0.45 F,0,37279,37879,0,1
Sprite,Overlay,Centre,"default-1.png",321.5,136.5 S,0,1,,0.45 F,0,37279,37879,0,1
Sprite,Overlay,Centre,"hitcircle.png",192.5,320.5 S,0,1,,0.5752727 F,0,37422,38022,0,1 S,0,38022,38072,0.5752727,0.75 F,0,38022,38222,1,0
Sprite,Overlay,Centre,"hitcircleoverlay.png",192.5,320.5 S,0,1,,0.5752727 F,0,37422,38022,0,1 S,0,38022,38072,0.5752727,0.75 F,0,38022,38222,1,0
Sprite,Overlay,Centre,"approachcircle.png",192.5,320.5 F,0,37422,38022,0,1 S,0,37422,38022,2.15,0.5896
Sprite,Overlay,Centre,"default-n.png",182.5,320.5 S,0,1,,0.45 F,0,37422,38022,0,1
Sprite,Overlay,Centre,"default-2.png",197.5,320.5 S,0,1,,0.45 F,0,37422,38022,0,1
Sprite,Overlay,Centre,"hitcircle.png",204.5,112.5 S,0,1,,0.5752727 F,0,37565,38165,0,1 S,0,38165,38215,0.5752727,0.75 F,0,38165,38365,1,0
Sprite,Overlay,Centre,"hitcircleoverlay.png",204.5,112.5 S,0,1,,0.5752727 F,0,37565,38165,0,1 S,0,38165,38215,0.5752727,0.75 F,0,38165,38365,1,0
Sprite,Overlay,Centre,"approachcircle.png",204.5,112.5 F,0,37565,38165,0,1 S,0,37565,38165,2.15,0.5896
Sprite,Overlay,Centre,"default-n.png",194.5,112.5 S,0,1,,0.45 F,0,37565,38165,0,1
Sprite,Overlay,Centre,"default-3.png",209.5,112.5 S,0,1,,0.45 F,0,37565,38165,0,1
Sprite,Overlay,Centre,"hitcircle.png",504.5,124.5 S,0,1,,0.5752727 C,0,1,,0,0,0,76,98,216 F,0,39551,40451,0,1 S,0,40451,40491,0.5752727,0.75 F,0,40451,40651,1,0
Sprite,Overlay,Centre,"hitcircleoverlay.png",504.5,124.5 S,0,1,,0.5752727 F,0,39551,40451,0,1 S,0,40451,40491,0.5752727,0.75 F,0,40451,40651,1,0
Sprite,Overlay,Centre,"approachcircle.png",504.5,124.5 C,0,1,,0,0,0,76,98,216 F,0,39551,40451,0,1 S,0,39551,40451,2.15,0.5896
Sprite,Overlay,Centre,"default-1.png",504.5,124.5 S,0,1,,0.45 F,0,39551,40451,0,1
Sprite,Overlay,Centre,"hitcircle.png",400.5,232.5 S,0,1,,0.5752727 C,0,1,,0,0,0,76,98,216 F,0,39694,40594,0,1 S,0,40594,40644,0.5752727,0.75 F,0,40594,40794,1,0
Sprite,Overlay,Centre,"hitcircleoverlay.png",400.5,232.5 S,0,1,,0.5752727 F,0,39694,40594,0,1 S,0,40594,40644,0.5752727,0.75 F,0,40594,40794,1,0
Sprite,Overlay,Centre,"approachcircle.png",400.5,232.5 C,0,1,,0,0,0,76,98,216 F,0,39694,40594,0,1 S,0,39694,40594,2.15,0.5896
Sprite,Overlay,Centre,"default-2.png",400.5,232.5 S,0,1,,0.45 F,0,39694,40594,0,1
Sprite,Overlay,Centre,"hitcircle.png",356.5,88.5 S,0,1,,0.5752727 C,0,1,,0,0,0,76,98,216 F,0,39836,40736,0,1 S,0,40736,40786,0.5752727,0.75 F,0,40736,40936,1,0
Sprite,Overlay,Centre,"hitcircleoverlay.png",356.5,88.5 S,0,1,,0.5752727 F,0,39836,40736,0,1 S,0,40736,40786,0.5752727,0.75 F,0,40736,40936,1,0
Sprite,Overlay,Centre,"approachcircle.png",356.5,88.5 C,0,1,,0,0,0,76,98,216 F,0,39836,40736,0,1 S,0,39836,40736,2.15,0.5896
Sprite,Overlay,Centre,"default-3.png",356.5,88.5 S,0,1,,0.45 F,0,39836,40736,0,1
Sprite,Overlay,Centre,"hitcircle.png",504.5,124.5 S,0,1,,0.5752727 C,0,1,,0,0,0,76,98,216 F,0,39979,40879,0,1 S,0,40879,40929,0.5752727,0.75 F,0,40879,41079,1,0
Sprite,Overlay,Centre,"hitcircleoverlay.png",504.5,124.5 S,0,1,,0.5752727 F,0,39979,40879,0,1 S,0,40879,40929,0.5752727,0.75 F,0,40879,41079,1,0
Sprite,Overlay,Centre,"approachcircle.png",504.5,124.5 C,0,1,,0,0,0,76,98,216 F,0,39979,40879,0,1 S,0,39979,40879,2.15,0.5896
Sprite,Overlay,Centre,"default-4.png",504.5,124.5 S,0,1,,0.45 F,0,39979,40879,0,1
Sprite,Overlay,Centre,"hitcircle.png",280.5,188.5 S,0,1,,0.5752727 C,0,1,,0,0,0,76,98,216 F,0,40122,41022,0,1 S,0,41022,41072,0.5752727,0.75 F,0,41022,41222,1,0
Sprite,Overlay,Centre,"hitcircleoverlay.png",280.5,188.5 S,0,1,,0.5752727 F,0,40122,41022,0,1 S,0,41022,41072,0.5752727,0.75 F,0,41022,41222,1,0
Sprite,Overlay,Centre,"approachcircle.png",280.5,188.5 C,0,1,,0,0,0,76,98,216 F,0,40122,41022,0,1 S,0,40122,41022,2.15,0.5896
Sprite,Overlay,Centre,"default-5.png",280.5,188.5 S,0,1,,0.45 F,0,40122,41022,0,1
Sprite,Overlay,Centre,"hitcircle.png",152.5,108.5 S,0,1,,0.5752727 C,0,1,,0,0,0,76,98,216 F,0,40265,41165,0,1 S,0,41165,41215,0.5752727,0.75 F,0,41165,41365,1,0
Sprite,Overlay,Centre,"hitcircleoverlay.png",152.5,108.5 S,0,1,,0.5752727 F,0,40265,41165,0,1 S,0,41165,41215,0.5752727,0.75 F,0,41165,41365,1,0
Sprite,Overlay,Centre,"approachcircle.png",152.5,108.5 C,0,1,,0,0,0,76,98,216 F,0,40265,41165,0,1 S,0,40265,41165,2.15,0.5896
Sprite,Overlay,Centre,"default-6.png",152.5,108.5 S,0,1,,0.45 F,0,40265,41165,0,1
Sprite,Overlay,Centre,"hitcircle.png",220.5,256.5 S,0,1,,0.5752727 C,0,1,,0,0,0,76,98,216 F,0,40408,41308,0,1 S,0,41308,41358,0.5752727,0.75 F,0,41308,41508,1,0
Sprite,Overlay,Centre,"hitcircleoverlay.png",220.5,256.5 S,0,1,,0.5752727 F,0,40408,41308,0,1 S,0,41308,41358,0.5752727,0.75 F,0,41308,41508,1,0
Sprite,Overlay,Centre,"approachcircle.png",220.5,256.5 C,0,1,,0,0,0,76,98,216 F,0,40408,41308,0,1 S,0,40408,41308,2.15,0.5896
Sprite,Overlay,Centre,"default-7.png",220.5,256.5 S,0,1,,0.45 F,0,40408,41308,0,1
Sprite,Overlay,Centre,"hitcircle.png",92.5,180.5 S,0,1,,0.5752727 C,0,1,,0,0,0,76,98,216 F,0,40551,41451,0,1 S,0,41451,41501,0.5752727,0.75 F,0,41451,41651,1,0
Sprite,Overlay,Centre,"hitcircleoverlay.png",92.5,180.5 S,0,1,,0.5752727 F,0,40551,41451,0,1 S,0,41451,41501,0.5752727,0.75 F,0,41451,41651,1,0
Sprite,Overlay,Centre,"approachcircle.png",92.5,180.5 C,0,1,,0,0,0,76,98,216 F,0,40551,41451,0,1 S,0,40551,41451,2.15,0.5896
Sprite,Overlay,Centre,"default-8.png",92.5,180.5 S,0,1,,0.45 F,0,40551,41451,0,1
Sprite,Overlay,Centre,"hitcircle.png",228.5,144.5 S,0,1,,0.5752727 C,0,1,,0,0,0,246,181,52 F,0,41986,42736,0,1 S,0,42736,42786,0.5752727,0.75 F,0,42736,42936,1,0
Sprite,Overlay,Centre,"hitcircleoverlay.png",228.5,144.5 S,0,1,,0.5752727 F,0,41986,42736,0,1 S,0,42736,42786,0.5752727,0.75 F,0,42736,42936,1,0
Sprite,Overlay,Centre,"approachcircle.png",228.5,144.5 C,0,1,,0,0,0,246,181,52 F,0,41986,42736,0,1 S,0,41986,42736,2.15,0.5896
Sprite,Overlay,Centre,"default-1.png",228.5,144.5 S,0,1,,0.45 F,0,41986,42736,0,1
Sprite,Overlay,Centre,"hitcircle.png",256.5,292.5 S,0,1,,0.5752727 C,0,1,,0,0,0,246,181,52 F,0,42129,42879,0,1 S,0,42879,42929,0.5752727,0.75 F,0,42879,43079,1,0
Sprite,Overlay,Centre,"hitcircleoverlay.png",256.5,292.5 S,0,1,,0.5752727 F,0,42129,42879,0,1 S,0,42879,42929,0.5752727,0.75 F,0,42879,43079,1,0
Sprite,Overlay,Centre,"approachcircle.png",256.5,292.5 C,0,1,,0,0,0,246,181,52 F,0,42129,42879,0,1 S,0,42129,42879,2.15,0.5896
Sprite,Overlay,Centre,"default-2.png",256.5,292.5 S,0,1,,0.45 F,0,42129,42879,0,1
Sprite,Overlay,Centre,"hitcircle.png",148.5,188.5 S,0,1,,0.5752727 C,0,1,,0,0,0,246,181,52 F,0,42272,43022,0,1 S,0,43022,43072,0.5752727,0.75 F,0,43022,43222,1,0
Sprite,Overlay,Centre,"hitcircleoverlay.png",148.5,188.5 S,0,1,,0.5752727 F,0,42272,43022,0,1 S,0,43022,43072,0.5752727,0.75 F,0,43022,43222,1,0
Sprite,Overlay,Centre,"approachcircle.png",148.5,188.5 C,0,1,,0,0,0,246,181,52 F,0,42272,43022,0,1 S,0,42272,43022,2.15,0.5896
Sprite,Overlay,Centre,"default-3.png",148.5,188.5 S,0,1,,0.45 F,0,42272,43022,0,1
Sprite,Overlay,Centre,"hitcircle.png",296.5,208.5 S,0,1,,0.5752727 C,0,1,,0,0,0,246,181,52 F,0,42415,43165,0,1 S,0,43165,43215,0.5752727,0.75 F,0,43165,43365,1,0
Sprite,Overlay,Centre,"hitcircleoverlay.png",296.5,208.5 S,0,1,,0.5752727 F,0,42415,43165,0,1 S,0,43165,43215,0.5752727,0.75 F,0,43165,43365,1,0
Sprite,Overlay,Centre,"approachcircle.png",296.5,208.5 C,0,1,,0,0,0,246,181,52 F,0,42415,43165,0,1 S,0,42415,43165,2.15,0.5896
Sprite,Overlay,Centre,"default-4.png",296.5,208.5 S,0,1,,0.45 F,0,42415,43165,0,1
Sprite,Overlay,Centre,"hitcircle.png",164.5,276.5 S,0,1,,0.5752727 C,0,1,,0,0,0,246,181,52 F,0,42558,43308,0,1 S,0,43308,43358,0.5752727,0.75 F,0,43308,43508,1,0
Sprite,Overlay,Centre,"hitcircleoverlay.png",164.5,276.5 S,0,1,,0.5752727 F,0,42558,43308,0,1 S,0,43308,43358,0.5752727,0.75 F,0,43308,43508,1,0
Sprite,Overlay,Centre,"approachcircle.png",164.5,276.5 C,0,1,,0,0,0,246,181,52 F,0,42558,43308,0,1 S,0,42558,43308,2.15,0.5896
Sprite,Overlay,Centre,"default-5.png",164.5,276.5 S,0,1,,0.45 F,0,42558,43308,0,1
Sprite,Overlay,Centre,"hitcircle.png",228.5,144.5 S,0,1,,0.5752727 C,0,1,,0,0,0,246,181,52 F,0,42701,43451,0,1 S,0,43451,43501,0.5752727,0.75 F,0,43451,43651,1,0
Sprite,Overlay,Centre,"hitcircleoverlay.png",228.5,144.5 S,0,1,,0.5752727 F,0,42701,43451,0,1 S,0,43451,43501,0.5752727,0.75 F,0,43451,43651,1,0
Sprite,Overlay,Centre,"approachcircle.png",228.5,144.5 C,0,1,,0,0,0,246,181,52 F,0,42701,43451,0,1 S,0,42701,43451,2.15,0.5896
Sprite,Overlay,Centre,"default-6.png",228.5,144.5 S,0,1,,0.45 F,0,42701,43451,0,1
Sprite,Overlay,Centre,"hitcircle.png",256.5,292.5 S,0,1,,0.5752727 C,0,1,,0,0,0,246,181,52 F,0,42844,43594,0,1 S,0,43594,43644,0.5752727,0.75 F,0,43594,43794,1,0
Sprite,Overlay,Centre,"hitcircleoverlay.png",256.5,292.5 S,0,1,,0.5752727 F,0,42844,43594,0,1 S,0,43594,43644,0.5752727,0.75 F,0,43594,43794,1,0
Sprite,Overlay,Centre,"approachcircle.png",256.5,292.5 C,0,1,,0,0,0,246,181,52 F,0,42844,43594,0,1 S,0,42844,43594,2.15,0.5896
Sprite,Overlay,Centre,"default-7.png",256.5,292.5 S,0,1,,0.45 F,0,42844,43594,0,1
Sprite,Overlay,Centre,"hitcircle.png",384.5,212.5 S,0,1,,0.5752727 C,0,1,,0,0,0,246,181,52 F,0,42986,43736,0,1 S,0,43736,43786,0.5752727,0.75 F,0,43736,43936,1,0
Sprite,Overlay,Centre,"hitcircleoverlay.png",384.5,212.5 S,0,1,,0.5752727 F,0,42986,43736,0,1 S,0,43736,43786,0.5752727,0.75 F,0,43736,43936,1,0
Sprite,Overlay,Centre,"approachcircle.png",384.5,212.5 C,0,1,,0,0,0,246,181,52 F,0,42986,43736,0,1 S,0,42986,43736,2.15,0.5896
Sprite,Overlay,Centre,"default-8.png",384.5,212.5 S,0,1,,0.45 F,0,42986,43736,0,1
Sprite,Overlay,Centre,"hitcircle.png",346.5,99.5 S,0,1,,0.5752727 C,0,1,,0,0,0,204,6,6 F,0,44572,45022,0,1 S,0,45022,45072,0.5752727,0.75 F,0,45022,45222,1,0
Sprite,Overlay,Centre,"hitcircleoverlay.png",346.5,99.5 S,0,1,,0.5752727 F,0,44572,45022,0,1 S,0,45022,45072,0.5752727,0.75 F,0,45022,45222,1,0
Sprite,Overlay,Centre,"approachcircle.png",346.5,99.5 C,0,1,,0,0,0,204,6,6 F,0,44572,45022,0,1 S,0,44572,45022,2.15,0.5896
Sprite,Overlay,Centre,"default-1.png",346.5,99.5 S,0,1,,0.45 F,0,44572,45022,0,1
Sprite,Overlay,Centre,"hitcircle.png",200.5,64.5 S,0,1,,0.5752727 C,0,1,,0,0,0,204,6,6 F,0,44715,45165,0,1 S,0,45165,45215,0.5752727,0.75 F,0,45165,45365,1,0
Sprite,Overlay,Centre,"hitcircleoverlay.png",200.5,64.5 S,0,1,,0.5752727 F,0,44715,45165,0,1 S,0,45165,45215,0.5752727,0.75 F,0,45165,45365,1,0
Sprite,Overlay,Centre,"approachcircle.png",200.5,64.5 C,0,1,,0,0,0,204,6,6 F,0,44715,45165,0,1 S,0,44715,45165,2.15,0.5896
Sprite,Overlay,Centre,"default-2.png",200.5,64.5 S,0,1,,0.45 F,0,44715,45165,0,1
Sprite,Overlay,Centre,"hitcircle.png",160.5,208.5 S,0,1,,0.5752727 C,0,1,,0,0,0,204,6,6 F,0,44858,45308,0,1 S,0,45308,45358,0.5752727,0.75 F,0,45308,45508,1,0
Sprite,Overlay,Centre,"hitcircleoverlay.png",160.5,208.5 S,0,1,,0.5752727 F,0,44858,45308,0,1 S,0,45308,45358,0.5752727,0.75 F,0,45308,45508,1,0
Sprite,Overlay,Centre,"approachcircle.png",160.5,208.5 C,0,1,,0,0,0,204,6,6 F,0,44858,45308,0,1 S,0,44858,45308,2.15,0.5896
Sprite,Overlay,Centre,"default-3.png",160.5,208.5 S,0,1,,0.45 F,0,44858,45308,0,1
Sprite,Overlay,Centre,"hitcircle.png",304.5,244.5 S,0,1,,0.5752727 C,0,1,,0,0,0,204,6,6 F,0,45001,45451,0,1 S,0,45451,45501,0.5752727,0.75 F,0,45451,45651,1,0
Sprite,Overlay,Centre,"hitcircleoverlay.png",304.5,244.5 S,0,1,,0.5752727 F,0,45001,45451,0,1 S,0,45451,45501,0.5752727,0.75 F,0,45451,45651,1,0
Sprite,Overlay,Centre,"approachcircle.png",304.5,244.5 C,0,1,,0,0,0,204,6,6 F,0,45001,45451,0,1 S,0,45001,45451,2.15,0.5896
Sprite,Overlay,Centre,"default-4.png",304.5,244.5 S,0,1,,0.45 F,0,45001,45451,0,1
Sprite,Overlay,Centre,"hitcircle.png",346.5,99.5 S,0,1,,0.5752727 C,0,1,,0,0,0,204,6,6 F,0,45144,45594,0,1 S,0,45594,45644,0.5752727,0.75 F,0,45594,45794,1,0
Sprite,Overlay,Centre,"hitcircleoverlay.png",346.5,99.5 S,0,1,,0.5752727 F,0,45144,45594,0,1 S,0,45594,45644,0.5752727,0.75 F,0,45594,45794,1,0
Sprite,Overlay,Centre,"approachcircle.png",346.5,99.5 C,0,1,,0,0,0,204,6,6 F,0,45144,45594,0,1 S,0,45144,45594,2.15,0.5896
Sprite,Overlay,Centre,"default-5.png",346.5,99.5 S,0,1,,0.45 F,0,45144,45594,0,1
Sprite,Overlay,Centre,"hitcircle.png",460.5,196.5 S,0,1,,0.5752727 C,0,1,,0,0,0,204,6,6 F,0,45286,45736,0,1 S,0,45736,45786,0.5752727,0.75 F,0,45736,45936,1,0
Sprite,Overlay,Centre,"hitcircleoverlay.png",460.5,196.5 S,0,1,,0.5752727 F,0,45286,45736,0,1 S,0,45736,45786,0.5752727,0.75 F,0,45736,45936,1,0
Sprite,Overlay,Centre,"approachcircle.png",460.5,196.5 C,0,1,,0,0,0,204,6,6 F,0,45286,45736,0,1 S,0,45286,45736,2.15,0.5896
Sprite,Overlay,Centre,"default-6.png",460.5,196.5 S,0,1,,0.45 F,0,45286,45736,0,1
Sprite,Overlay,Centre,"hitcircle.png",346.5,99.5 S,0,1,,0.5752727 C,0,1,,0,0,0,204,6,6 F,0,45429,45879,0,1 S,0,45879,45929,0.5752727,0.75 F,0,45879,46079,1,0
Sprite,Overlay,Centre,"hitcircleoverlay.png",346.5,99.5 S,0,1,,0.5752727 F,0,45429,45879,0,1 S,0,45879,45929,0.5752727,0.75 F,0,45879,46079,1,0
Sprite,Overlay,Centre,"approachcircle.png",346.5,99.5 C,0,1,,0,0,0,204,6,6 F,0,45429,45879,0,1 S,0,45429,45879,2.15,0.5896
Sprite,Overlay,Centre,"default-7.png",346.5,99.5 S,0,1,,0.45 F,0,45429,45879,0,1
Sprite,Overlay,Centre,"hitcircle.png",304.5,244.5 S,0,1,,0.5752727 C,0,1,,0,0,0,204,6,6 F,0,45572,46022,0,1 S,0,46022,46072,0.5752727,0.75 F,0,46022,46222,1,0
Sprite,Overlay,Centre,"hitcircleoverlay.png",304.5,244.5 S,0,1,,0.5752727 F,0,45572,46022,0,1 S,0,46022,46072,0.5752727,0.75 F,0,46022,46222,1,0
Sprite,Overlay,Centre,"approachcircle.png",304.5,244.5 C,0,1,,0,0,0,204,6,6 F,0,45572,46022,0,1 S,0,45572,46022,2.15,0.5896
Sprite,Overlay,Centre,"default-8.png",304.5,244.5 S,0,1,,0.45 F,0,45572,46022,0,1
Sprite,Overlay,Centre,"hitcircle.png",260.5,316.5 S,0,1,,0.5752727 C,0,1,,0,0,0,76,98,216 F,0,46633,47308,0,1 S,0,47308,47358,0.5752727,0.75 F,0,47308,47508,1,0
Sprite,Overlay,Centre,"hitcircleoverlay.png",260.5,316.5 S,0,1,,0.5752727 F,0,46633,47308,0,1 S,0,47308,47358,0.5752727,0.75 F,0,47308,47508,1,0
Sprite,Overlay,Centre,"approachcircle.png",260.5,316.5 C,0,1,,0,0,0,76,98,216 F,0,46633,47308,0,1 S,0,46633,47308,2.15,0.5896
Sprite,Overlay,Centre,"default-1.png",260.5,316.5 S,0,1,,0.45 F,0,46633,47308,0,1
Sprite,Overlay,Centre,"hitcircle.png",392.5,384.5 S,0,1,,0.5752727 C,0,1,,0,0,0,76,98,216 F,0,46776,47451,0,1 S,0,47451,47501,0.5752727,0.75 F,0,47451,47651,1,0
Sprite,Overlay,Centre,"hitcircleoverlay.png",392.5,384.5 S,0,1,,0.5752727 F,0,46776,47451,0,1 S,0,47451,47501,0.5752727,0.75 F,0,47451,47651,1,0
Sprite,Overlay,Centre,"approachcircle.png",392.5,384.5 C,0,1,,0,0,0,76,98,216 F,0,46776,47451,0,1 S,0,46776,47451,2.15,0.5896
Sprite,Overlay,Centre,"default-2.png",392.5,384.5 S,0,1,,0.45 F,0,46776,47451,0,1
Sprite,Overlay,Centre,"hitcircle.png",392.5,232.5 S,0,1,,0.5752727 C,0,1,,0,0,0,76,98,216 F,0,46919,47594,0,1 S,0,47594,47644,0.5752727,0.75 F,0,47594,47794,1,0
Sprite,Overlay,Centre,"hitcircleoverlay.png",392.5,232.5 S,0,1,,0.5752727 F,0,46919,47594,0,1 S,0,47594,47644,0.5752727,0.75 F,0,47594,47794,1,0
Sprite,Overlay,Centre,"approachcircle.png",392.5,232.5 C,0,1,,0,0,0,76,98,216 F,0,46919,47594,0,1 S,0,46919,47594,2.15,0.5896
Sprite,Overlay,Centre,"default-3.png",392.5,232.5 S,0,1,,0.45 F,0,46919,47594,0,1
Sprite,Overlay,Centre,"hitcircle.png",260.5,316.5 S,0,1,,0.5752727 C,0,1,,0,0,0,76,98,216 F,0,47061,47736,0,1 S,0,47736,47786,0.5752727,0.75 F,0,47736,47936,1,0
Sprite,Overlay,Centre,"hitcircleoverlay.png",260.5,316.5 S,0,1,,0.5752727 F,0,47061,47736,0,1 S,0,47736,47786,0.5752727,0.75 F,0,47736,47936,1,0
Sprite,Overlay,Centre,"approachcircle.png",260.5,316.5 C,0,1,,0,0,0,76,98,216 F,0,47061,47736,0,1 S,0,47061,47736,2.15,0.5896
Sprite,Overlay,Centre,"default-4.png",260.5,316.5 S,0,1,,0.45 F,0,47061,47736,0,1
Sprite,Overlay,Centre,"hitcircle.png",392.5,232.5 S,0,1,,0.5752727 C,0,1,,0,0,0,76,98,216 F,0,47204,47879,0,1 S,0,47879,47929,0.5752727,0.75 F,0,47879,48079,1,0
Sprite,Overlay,Centre,"hitcircleoverlay.png",392.5,232.5 S,0,1,,0.5752727 F,0,47204,47879,0,1 S,0,47879,47929,0.5752727,0.75 F,0,47879,48079,1,0
Sprite,Overlay,Centre,"approachcircle.png",392.5,232.5 C,0,1,,0,0,0,76,98,216 F,0,47204,47879,0,1 S,0,47204,47879,2.15,0.5896
Sprite,Overlay,Centre,"default-5.png",392.5,232.5 S,0,1,,0.45 F,0,47204,47879,0,1
Sprite,Overlay,Centre,"hitcircle.png",392.5,384.5 S,0,1,,0.5752727 C,0,1,,0,0,0,76,98,216 F,0,47347,48022,0,1 S,0,48022,48072,0.5752727,0.75 F,0,48022,48222,1,0
Sprite,Overlay,Centre,"hitcircleoverlay.png",392.5,384.5 S,0,1,,0.5752727 F,0,47347,48022,0,1 S,0,48022,48072,0.5752727,0.75 F,0,48022,48222,1,0
Sprite,Overlay,Centre,"approachcircle.png",392.5,384.5 C,0,1,,0,0,0,76,98,216 F,0,47347,48022,0,1 S,0,47347,48022,2.15,0.5896
Sprite,Overlay,Centre,"default-6.png",392.5,384.5 S,0,1,,0.45 F,0,47347,48022,0,1
Sprite,Overlay,Centre,"hitcircle.png",392.5,232.5 S,0,1,,0.5752727 C,0,1,,0,0,0,76,98,216 F,0,47490,48165,0,1 S,0,48165,48215,0.5752727,0.75 F,0,48165,48365,1,0
Sprite,Overlay,Centre,"hitcircleoverlay.png",392.5,232.5 S,0,1,,0.5752727 F,0,47490,48165,0,1 S,0,48165,48215,0.5752727,0.75 F,0,48165,48365,1,0
Sprite,Overlay,Centre,"approachcircle.png",392.5,232.5 C,0,1,,0,0,0,76,98,216 F,0,47490,48165,0,1 S,0,47490,48165,2.15,0.5896
Sprite,Overlay,Centre,"default-7.png",392.5,232.5 S,0,1,,0.45 F,0,47490,48165,0,1
Sprite,Overlay,Centre,"hitcircle.png",256.5,168.5 S,0,1,,0.5752727 C,0,1,,0,0,0,76,98,216 F,0,47633,48308,0,1 S,0,48308,48358,0.5752727,0.75 F,0,48308,48508,1,0
Sprite,Overlay,Centre,"hitcircleoverlay.png",256.5,168.5 S,0,1,,0.5752727 F,0,47633,48308,0,1 S,0,48308,48358,0.5752727,0.75 F,0,48308,48508,1,0
Sprite,Overlay,Centre,"approachcircle.png",256.5,168.5 C,0,1,,0,0,0,76,98,216 F,0,47633,48308,0,1 S,0,47633,48308,2.15,0.5896
Sprite,Overlay,Centre,"default-8.png",256.5,168.5 S,0,1,,0.45 F,0,47633,48308,0,1
Sprite,Overlay,Centre,"selection-mods-ar7.png",320,240 S,0,1,,0.5 S,0,39165,39879,0.3,0.5 R,0,39165,40022,-0.2,0.2 F,0,39308,39879,0,1 M,2,40022,40522,320,240,648.7,100 R,0,40022,40522,0.2,0 F,0,41308,41594,1,0
Sprite,Overlay,Centre,"selection-mods-ar8.png",648.7,100 S,0,1,,0.5 F,0,42451,42736,0,1 F,0,43594,43879,1,0
Sprite,Overlay,Centre,"selection-mods-ar10.png",648.7,100 S,0,1,,0.5 F,0,44736,45022,0,1 F,0,45879,46165,1,0
Sprite,Overlay,Centre,"selection-mods-ar8_5.png",648.7,100 S,0,1,,0.5 F,0,47022,47308,0,1 F,0,48165,48451,1,0
Sprite,Overlay,Centre,"hitcircle.png",528.5,112.5 S,0,1,,0.5752727 C,0,1,,0,0,0,76,98,216 F,0,58422,59022,0,1 M,1,59022,59451,528.5,112.5,136.5,332.5 C,0,59022,59451,76,98,216,204,6,6 S,0,59736,59786,0.5752727,0.75 F,0,59736,59936,1,0
Sprite,Overlay,Centre,"hitcircleoverlay.png",528.5,112.5 S,0,1,,0.5752727 F,0,58422,59022,0,1 M,1,59022,59451,528.5,112.5,136.5,332.5 S,0,59736,59786,0.5752727,0.75 F,0,59736,59936,1,0
Sprite,Overlay,Centre,"approachcircle.png",528.5,112.5 C,0,1,,0,0,0,76,98,216 F,0,58422,59022,0,1 S,0,58422,59022,2.15,0.5896 M,1,59022,59451,528.5,112.5,136.5,332.5 C,0,59022,59451,76,98,216,204,6,6 F,0,59136,59736,0,1 S,0,59136,59736,2.15,0.5896
Sprite,Overlay,Centre,"default-2.png",528.5,112.5 S,0,1,,0.45 F,0,58422,59022,0,1
Sprite,Overlay,Centre,"default-1.png",528.5,112.5 S,0,1,,0.45 F,0,59022,,0,1 M,1,59022,59451,528.5,112.5,136.5,332.5 F,0,59737,,0
Sprite,Overlay,Centre,"hitcircle.png",364.5,160.5 S,0,1,,0.5752727 C,0,1,,0,0,0,76,98,216 F,0,58636,59236,0,1 M,1,59236,59736,364.5,160.5,328.5,380.5 C,0,59236,59736,76,98,216,204,6,6 S,0,60022,60072,0.5752727,0.75 F,0,60022,60222,1,0
Sprite,Overlay,Centre,"hitcircleoverlay.png",364.5,160.5 S,0,1,,0.5752727 F,0,58636,59236,0,1 M,1,59236,59736,364.5,160.5,328.5,380.5 S,0,60022,60072,0.5752727,0.75 F,0,60022,60222,1,0
Sprite,Overlay,Centre,"approachcircle.png",364.5,160.5 C,0,1,,0,0,0,76,98,216 F,0,58636,59236,0,1 S,0,58636,59236,2.15,0.5896 M,1,59236,59736,364.5,160.5,328.5,380.5 C,0,59236,59736,76,98,216,204,6,6 F,0,59422,60022,0,1 S,0,59422,60022,2.15,0.5896
Sprite,Overlay,Centre,"default-4.png",364.5,160.5 S,0,1,,0.45 F,0,58636,59236,0,1
Sprite,Overlay,Centre,"default-2.png",364.5,160.5 S,0,1,,0.45 F,0,59236,,0,1 M,1,59236,59736,364.5,160.5,328.5,380.5 F,0,60023,,0
Sprite,Overlay,Centre,"hitcircle.png",168.5,156.5 S,0,1,,0.5752727 C,0,1,,0,0,0,76,98,216 F,0,58851,59451,0,1 M,1,59451,60022,168.5,156.5,488.5,320.5 C,0,59451,60022,76,98,216,204,6,6 S,0,60308,60358,0.5752727,0.75 F,0,60308,60508,1,0
Sprite,Overlay,Centre,"hitcircleoverlay.png",168.5,156.5 S,0,1,,0.5752727 F,0,58851,59451,0,1 M,1,59451,60022,168.5,156.5,488.5,320.5 S,0,60308,60358,0.5752727,0.75 F,0,60308,60508,1,0
Sprite,Overlay,Centre,"approachcircle.png",168.5,156.5 C,0,1,,0,0,0,76,98,216 F,0,58851,59451,0,1 S,0,58851,59451,2.15,0.5896 M,1,59451,60022,168.5,156.5,488.5,320.5 C,0,59451,60022,76,98,216,204,6,6 F,0,59708,60308,0,1 S,0,59708,60308,2.15,0.5896
Sprite,Overlay,Centre,"default-6.png",168.5,156.5 S,0,1,,0.45 F,0,58851,59451,0,1
Sprite,Overlay,Centre,"default-3.png",168.5,156.5 S,0,1,,0.45 F,0,59451,,0,1 M,1,59451,60022,168.5,156.5,488.5,320.5 F,0,60309,,0
Sprite,Overlay,Centre,"hitcircle.png",92.5,176.5 S,0,1,,0.5752727 C,0,1,,0,0,0,246,181,52 F,0,60636,61236,0,1 M,1,61236,61736,92.5,176.5,420.5,324.5 C,0,61236,61736,246,181,52,76,98,216 S,0,62022,62072,0.5752727,0.75 F,0,62022,62222,1,0
Sprite,Overlay,Centre,"hitcircleoverlay.png",92.5,176.5 S,0,1,,0.5752727 F,0,60636,61236,0,1 M,1,61236,61736,92.5,176.5,420.5,324.5 S,0,62022,62072,0.5752727,0.75 F,0,62022,62222,1,0
Sprite,Overlay,Centre,"approachcircle.png",92.5,176.5 C,0,1,,0,0,0,246,181,52 F,0,60636,61236,0,1 S,0,60636,61236,2.15,0.5896 M,1,61236,61736,92.5,176.5,420.5,324.5 C,0,61236,61736,246,181,52,76,98,216 F,0,61422,62022,0,1 S,0,61422,62022,2.15,0.5896
Sprite,Overlay,Centre,"default-2.png",92.5,176.5 S,0,1,,0.45 F,0,60636,61236,0,1 M,1,61236,61736,92.5,176.5,420.5,324.5 F,0,62023,,0
Sprite,Overlay,Centre,"hitcircle.png",296.5,324.5 S,0,1,,0.5752727 C,0,1,,0,0,0,246,181,52 F,0,60922,61522,0,1 M,1,61522,62022,296.5,324.5,520.5,180.5 C,0,61522,62022,246,181,52,76,98,216 S,0,62308,62358,0.5752727,0.75 F,0,62308,62508,1,0
Sprite,Overlay,Centre,"hitcircleoverlay.png",296.5,324.5 S,0,1,,0.5752727 F,0,60922,61522,0,1 M,1,61522,62022,296.5,324.5,520.5,180.5 S,0,62308,62358,0.5752727,0.75 F,0,62308,62508,1,0
Sprite,Overlay,Centre,"approachcircle.png",296.5,324.5 C,0,1,,0,0,0,246,181,52 F,0,60922,61522,0,1 S,0,60922,61522,2.15,0.5896 M,1,61522,62022,296.5,324.5,520.5,180.5 C,0,61522,62022,246,181,52,76,98,216 F,0,61708,62308,0,1 S,0,61708,62308,2.15,0.5896
Sprite,Overlay,Centre,"default-4.png",296.5,324.5 S,0,1,,0.45 F,0,60922,61522,0,1 M,1,61522,62022,296.5,324.5,520.5,180.5 F,0,62309,,0
Sprite,Overlay,Centre,"hitcircle.png",160.5,324.5 S,0,1,,0.5752727 C,0,1,,0,0,0,246,181,52 F,0,61279,61879,0,1 M,1,61879,62308,160.5,324.5,360.5,72.5 C,0,61879,62308,246,181,52,76,98,216 S,0,62594,62644,0.5752727,0.75 F,0,62594,62794,1,0
Sprite,Overlay,Centre,"hitcircleoverlay.png",160.5,324.5 S,0,1,,0.5752727 F,0,61279,61879,0,1 M,1,61879,62308,160.5,324.5,360.5,72.5 S,0,62594,62644,0.5752727,0.75 F,0,62594,62794,1,0
Sprite,Overlay,Centre,"approachcircle.png",160.5,324.5 C,0,1,,0,0,0,246,181,52 F,0,61279,61879,0,1 S,0,61279,61879,2.15,0.5896 M,1,61879,62308,160.5,324.5,360.5,72.5 C,0,61879,62308,246,181,52,76,98,216 F,0,61994,62594,0,1 S,0,61994,62594,2.15,0.5896
Sprite,Overlay,Centre,"default-6.png",160.5,324.5 S,0,1,,0.45 F,0,61279,61879,0,1 M,1,61879,62308,160.5,324.5,360.5,72.5 F,0,62595,,0
Sprite,Overlay,Centre,"hitcircle.png",384.5,120.5 S,0,1,,0.5752727 C,0,1,,0,0,0,204,6,6 F,0,63136,63736,0,1 M,1,63736,64022,384.5,120.5,336.5,376.5 C,0,63736,64022,204,6,6,246,181,52 S,0,64308,64358,0.5752727,0.75 F,0,64308,64508,1,0
Sprite,Overlay,Centre,"hitcircleoverlay.png",384.5,120.5 S,0,1,,0.5752727 F,0,63136,63736,0,1 M,1,63736,64022,384.5,120.5,336.5,376.5 S,0,64308,64358,0.5752727,0.75 F,0,64308,64508,1,0
Sprite,Overlay,Centre,"approachcircle.png",384.5,120.5 C,0,1,,0,0,0,204,6,6 F,0,63136,63736,0,1 S,0,63136,63736,2.15,0.5896 F,0,63708,64308,0,1 S,0,63708,64308,2.15,0.5896 M,1,63736,64022,384.5,120.5,336.5,376.5 C,0,63736,64022,204,6,6,246,181,52
Sprite,Overlay,Centre,"default-3.png",384.5,120.5 S,0,1,,0.45 F,0,63136,63736,0,1 M,1,63736,64022,384.5,120.5,336.5,376.5 R,0,63736,64594,0,3.141593 F,0,64309,,0
Sprite,Overlay,Centre,"hitcircle.png",432.5,136.5 S,0,1,,0.5752727 C,0,1,,0,0,0,204,6,6 F,0,63208,63808,0,1 M,1,63808,64308,432.5,136.5,248.5,128.5 C,0,63808,64308,204,6,6,246,181,52 S,0,64594,64644,0.5752727,0.75 F,0,64594,64794,1,0
Sprite,Overlay,Centre,"hitcircleoverlay.png",432.5,136.5 S,0,1,,0.5752727 F,0,63208,63808,0,1 M,1,63808,64308,432.5,136.5,248.5,128.5 S,0,64594,64644,0.5752727,0.75 F,0,64594,64794,1,0
Sprite,Overlay,Centre,"approachcircle.png",432.5,136.5 C,0,1,,0,0,0,204,6,6 F,0,63208,63808,0,1 S,0,63208,63808,2.15,0.5896 M,1,63808,64308,432.5,136.5,248.5,128.5 C,0,63808,64308,204,6,6,246,181,52 F,0,63994,64594,0,1 S,0,63994,64594,2.15,0.5896
Sprite,Overlay,Centre,"default-4.png",432.5,136.5 S,0,1,,0.45 F,0,63208,63808,0,1 R,0,63736,64594,0,3.141593 M,1,63808,64308,432.5,136.5,248.5,128.5 F,0,64595,,0
Sprite,Overlay,Centre,"hitcircle.png",480.5,152.5 S,0,1,,0.5752727 C,0,1,,0,0,0,204,6,6 F,0,63279,63879,0,1 M,1,63879,64594,480.5,152.5,72.5,320.5 C,0,63879,64594,204,6,6,246,181,52 S,0,64879,64929,0.5752727,0.75 F,0,64879,65079,1,0
Sprite,Overlay,Centre,"hitcircleoverlay.png",480.5,152.5 S,0,1,,0.5752727 F,0,63279,63879,0,1 M,1,63879,64594,480.5,152.5,72.5,320.5 S,0,64879,64929,0.5752727,0.75 F,0,64879,65079,1,0
Sprite,Overlay,Centre,"approachcircle.png",480.5,152.5 C,0,1,,0,0,0,204,6,6 F,0,63279,63879,0,1 S,0,63279,63879,2.15,0.5896 M,1,63879,64594,480.5,152.5,72.5,320.5 C,0,63879,64594,204,6,6,246,181,52 F,0,64279,64879,0,1 S,0,64279,64879,2.15,0.5896
Sprite,Overlay,Centre,"default-5.png",480.5,152.5 S,0,1,,0.45 F,0,63279,63879,0,1 R,0,63736,64594,0,3.141593 M,1,63879,64594,480.5,152.5,72.5,320.5 F,0,64880,,0
Sprite,Overlay,Centre,"hitcircle.png",328.5,104.5 S,0,1,,0.5752727 C,0,1,,0,0,0,76,98,216 F,0,65208,65808,0,1 M,1,65808,66308,328.5,104.5,465.5,297.5 C,0,65808,66308,76,98,216,200,200,200 S,0,66594,66644,0.5752727,0.75 F,0,66594,66794,1,0
Sprite,Overlay,Centre,"hitcircleoverlay.png",328.5,104.5 S,0,1,,0.5752727 F,0,65208,65808,0,1 M,1,65808,66308,328.5,104.5,465.5,297.5 S,0,66594,66644,0.5752727,0.75 F,0,66594,66794,1,0
Sprite,Overlay,Centre,"approachcircle.png",328.5,104.5 C,0,1,,0,0,0,76,98,216 F,0,65208,65808,0,1 S,0,65208,65808,2.15,0.5896 M,1,65808,66308,328.5,104.5,465.5,297.5 C,0,65808,66308,76,98,216,200,200,200 F,0,65994,66594,0,1 S,0,65994,66594,2.15,0.5896
Sprite,Overlay,Centre,"default-2.png",328.5,104.5 S,0,1,,0.45 F,0,65208,65808,0,1
Sprite,Overlay,Centre,"default-q.png",328.5,104.5 F,0,1,,0 S,0,1,,0.45 F,0,65807,,0,1 M,1,65808,66308,328.5,104.5,465.5,297.5 F,0,66595,,0
Sprite,Overlay,Centre,"hitcircle.png",328.5,104.5 F,0,1,,0 S,0,1,,0.5752727 C,0,1,,0,0,0,76,98,216 F,0,65807,,0,1 M,1,65808,66308,328.5,104.5,503.5,88.5 C,0,65808,66308,76,98,216,200,200,200 S,0,66879,66929,0.5752727,0.75 F,0,66879,67079,1,0
Sprite,Overlay,Centre,"hitcircleoverlay.png",328.5,104.5 F,0,1,,0 S,0,1,,0.5752727 F,0,65808,,0,1 M,1,65808,66308,328.5,104.5,503.5,88.5 S,0,66879,66929,0.5752727,0.75 F,0,66879,67079,1,0
Sprite,Overlay,Centre,"approachcircle.png",328.5,104.5 C,0,1,,0,0,0,76,98,216 M,1,65808,66308,328.5,104.5,503.5,88.5 C,0,65808,66308,76,98,216,200,200,200 F,0,66279,66879,0,1 S,0,66279,66879,2.15,0.5896
Sprite,Overlay,Centre,"default-q.png",328.5,104.5 F,0,1,,0 S,0,1,,0.45 F,0,65807,,0,1 M,1,65808,66308,328.5,104.5,503.5,88.5 F,0,66880,,0
Sprite,Overlay,Centre,"hitcircle.png",328.5,104.5 F,0,1,,0 S,0,1,,0.5752727 C,0,1,,0,0,0,76,98,216 F,0,65808,,0,1 M,1,65808,66308,328.5,104.5,245.5,363.5 C,0,65808,66308,76,98,216,200,200,200 S,0,67165,67215,0.5752727,0.75 F,0,67165,67365,1,0
Sprite,Overlay,Centre,"hitcircleoverlay.png",328.5,104.5 F,0,1,,0 S,0,1,,0.5752727 F,0,65808,,0,1 M,1,65808,66308,328.5,104.5,245.5,363.5 S,0,67165,67215,0.5752727,0.75 F,0,67165,67365,1,0
Sprite,Overlay,Centre,"approachcircle.png",328.5,104.5 C,0,1,,0,0,0,76,98,216 M,1,65808,66308,328.5,104.5,245.5,363.5 C,0,65808,66308,76,98,216,200,200,200 F,0,66565,67165,0,1 S,0,66565,67165,2.15,0.5896
Sprite,Overlay,Centre,"default-q.png",328.5,104.5 F,0,1,,0 S,0,1,,0.45 F,0,65807,,0,1 M,1,65808,66308,328.5,104.5,245.5,363.5 F,0,67166,,0
Sprite,Overlay,Centre,"hitcircle.png",262.5,359.5 S,0,1,,0.5752727 C,0,1,,0,0,0,255,80,80 F,0,67279,67879,0,1 S,0,67879,67929,0.5752727,0.75 F,0,67879,68079,1,0
Sprite,Overlay,Centre,"hitcircleoverlay.png",262.5,359.5 S,0,1,,0.5752727 F,0,67279,67879,0,1 S,0,67879,67929,0.5752727,0.75 F,0,67879,68079,1,0
Sprite,Overlay,Centre,"approachcircle.png",262.5,359.5 C,0,1,,0,0,0,255,80,80 F,0,67279,67879,0,1 S,0,67279,67879,2.15,0.5896 M,0,67308,,262.5,360.0818
Sprite,Overlay,Centre,"default-1.png",262.5,359.5 S,0,1,,0.45 F,0,67279,67879,0,1
Sprite,Overlay,Centre,"hitcircle.png",358.5,199.5 S,0,1,,0.5752727 C,0,1,,0,0,0,255,80,80 F,0,67422,68022,0,1 S,0,68022,68072,0.5752727,0.75 F,0,68022,68222,1,0
Sprite,Overlay,Centre,"hitcircleoverlay.png",358.5,199.5 S,0,1,,0.5752727 F,0,67422,68022,0,1 S,0,68022,68072,0.5752727,0.75 F,0,68022,68222,1,0
Sprite,Overlay,Centre,"approachcircle.png",358.5,199.5 C,0,1,,0,0,0,255,80,80 F,0,67422,68022,0,1 S,0,67422,68022,2.15,0.5896
Sprite,Overlay,Centre,"default-2.png",358.5,199.5 S,0,1,,0.45 F,0,67422,68022,0,1
Sprite,Overlay,Centre,"hitcircle.png",460.5,356.5 S,0,1,,0.5752727 C,0,1,,0,0,0,255,80,80 F,0,67565,68165,0,1 S,0,68165,68215,0.5752727,0.75 F,0,68165,68365,1,0
Sprite,Overlay,Centre,"hitcircleoverlay.png",460.5,356.5 S,0,1,,0.5752727 F,0,67565,68165,0,1 S,0,68165,68215,0.5752727,0.75 F,0,68165,68365,1,0
Sprite,Overlay,Centre,"approachcircle.png",460.5,356.5 C,0,1,,0,0,0,255,80,80 F,0,67565,68165,0,1 S,0,67565,68165,2.15,0.5896
Sprite,Overlay,Centre,"default-3.png",460.5,356.5 S,0,1,,0.45 F,0,67565,68165,0,1
Sprite,Overlay,Centre,"hitcircle.png",292.5,268.5 S,0,1,,0.5752727 C,0,1,,0,0,0,255,80,80 F,0,67708,68308,0,1 S,0,68308,68358,0.5752727,0.75 F,0,68308,68508,1,0
Sprite,Overlay,Centre,"hitcircleoverlay.png",292.5,268.5 S,0,1,,0.5752727 F,0,67708,68308,0,1 S,0,68308,68358,0.5752727,0.75 F,0,68308,68508,1,0
Sprite,Overlay,Centre,"approachcircle.png",292.5,268.5 C,0,1,,0,0,0,255,80,80 F,0,67708,68308,0,1 S,0,67708,68308,2.15,0.5896
Sprite,Overlay,Centre,"default-4.png",292.5,268.5 S,0,1,,0.45 F,0,67708,68308,0,1
Sprite,Overlay,Centre,"hitcircle.png",400.5,420.5 S,0,1,,0.5752727 C,0,1,,0,0,0,255,80,80 F,0,67851,68451,0,1 S,0,68451,68501,0.5752727,0.75 F,0,68451,68651,1,0
Sprite,Overlay,Centre,"hitcircleoverlay.png",400.5,420.5 S,0,1,,0.5752727 F,0,67851,68451,0,1 S,0,68451,68501,0.5752727,0.75 F,0,68451,68651,1,0
Sprite,Overlay,Centre,"approachcircle.png",400.5,420.5 C,0,1,,0,0,0,255,80,80 F,0,67851,68451,0,1 S,0,67851,68451,2.15,0.5896
Sprite,Overlay,Centre,"default-5.png",400.5,420.5 S,0,1,,0.45 F,0,67851,68451,0,1
Sprite,Overlay,Centre,"hitcircle.png",440.5,236.5 S,0,1,,0.5752727 C,0,1,,0,0,0,255,80,80 F,0,67994,68594,0,1 S,0,68594,68644,0.5752727,0.75 F,0,68594,68794,1,0
Sprite,Overlay,Centre,"hitcircleoverlay.png",440.5,236.5 S,0,1,,0.5752727 F,0,67994,68594,0,1 S,0,68594,68644,0.5752727,0.75 F,0,68594,68794,1,0
Sprite,Overlay,Centre,"approachcircle.png",440.5,236.5 C,0,1,,0,0,0,255,80,80 F,0,67994,68594,0,1 S,0,67994,68594,2.15,0.5896
Sprite,Overlay,Centre,"default-6.png",440.5,236.5 S,0,1,,0.45 F,0,67994,68594,0,1
Sprite,Overlay,Centre,"hitcircle.png",552.5,384.5 S,0,1,,0.5752727 C,0,1,,0,0,0,255,80,80 F,0,68136,68736,0,1 S,0,68736,68786,0.5752727,0.75 F,0,68736,68936,1,0
Sprite,Overlay,Centre,"hitcircleoverlay.png",552.5,384.5 S,0,1,,0.5752727 F,0,68136,68736,0,1 S,0,68736,68786,0.5752727,0.75 F,0,68736,68936,1,0
Sprite,Overlay,Centre,"approachcircle.png",552.5,384.5 C,0,1,,0,0,0,255,80,80 F,0,68136,68736,0,1 S,0,68136,68736,2.15,0.5896
Sprite,Overlay,Centre,"default-7.png",552.5,384.5 S,0,1,,0.45 F,0,68136,68736,0,1
Sprite,Overlay,Centre,"hitcircle.png",576.5,196.5 S,0,1,,0.5752727 C,0,1,,0,0,0,255,80,80 F,0,68279,68879,0,1 S,0,68879,68929,0.5752727,0.75 F,0,68879,69079,1,0
Sprite,Overlay,Centre,"hitcircleoverlay.png",576.5,196.5 S,0,1,,0.5752727 F,0,68279,68879,0,1 S,0,68879,68929,0.5752727,0.75 F,0,68879,69079,1,0
Sprite,Overlay,Centre,"approachcircle.png",576.5,196.5 C,0,1,,0,0,0,255,80,80 F,0,68279,68879,0,1 S,0,68279,68879,2.15,0.5896
Sprite,Overlay,Centre,"default-8.png",576.5,196.5 S,0,1,,0.45 F,0,68279,68879,0,1
Sprite,Overlay,Centre,"hitcircle.png",132.5,188.5 S,0,1,,0.5752727 C,0,1,,0,0,0,80,255,255 F,0,67708,68308,0,1 S,0,68308,68358,0.5752727,0.75 F,0,68308,68508,1,0
Sprite,Overlay,Centre,"hitcircleoverlay.png",132.5,188.5 S,0,1,,0.5752727 F,0,67708,68308,0,1 S,0,68308,68358,0.5752727,0.75 F,0,68308,68508,1,0
Sprite,Overlay,Centre,"approachcircle.png",132.5,188.5 C,0,1,,0,0,0,80,255,255 F,0,67708,68308,0,1 S,0,67708,68308,2.15,0.5896
Sprite,Overlay,Centre,"default-1.png",132.5,188.5 S,0,1,,0.45 F,0,67708,68308,0,1
Sprite,Overlay,Centre,"hitcircle.png",312.5,76.5 S,0,1,,0.5752727 C,0,1,,0,0,0,80,255,255 F,0,67994,68594,0,1 S,0,68594,68644,0.5752727,0.75 F,0,68594,68794,1,0
Sprite,Overlay,Centre,"hitcircleoverlay.png",312.5,76.5 S,0,1,,0.5752727 F,0,67994,68594,0,1 S,0,68594,68644,0.5752727,0.75 F,0,68594,68794,1,0
Sprite,Overlay,Centre,"approachcircle.png",312.5,76.5 C,0,1,,0,0,0,80,255,255 F,0,67994,68594,0,1 S,0,67994,68594,2.15,0.5896
Sprite,Overlay,Centre,"default-2.png",312.5,76.5 S,0,1,,0.45 F,0,67994,68594,0,1
Sprite,Overlay,Centre,"hitcircle.png",284.5,344.5 S,0,1,,0.5752727 C,0,1,,0,0,0,80,255,255 F,0,68136,68736,0,1 S,0,68736,68786,0.5752727,0.75 F,0,68736,68936,1,0
Sprite,Overlay,Centre,"hitcircleoverlay.png",284.5,344.5 S,0,1,,0.5752727 F,0,68136,68736,0,1 S,0,68736,68786,0.5752727,0.75 F,0,68736,68936,1,0
Sprite,Overlay,Centre,"approachcircle.png",284.5,344.5 C,0,1,,0,0,0,80,255,255 F,0,68136,68736,0,1 S,0,68136,68736,2.15,0.5896
Sprite,Overlay,Centre,"default-3.png",284.5,344.5 S,0,1,,0.45 F,0,68136,68736,0,1
Sprite,Overlay,Centre,"hitcircle.png",132.5,188.5 S,0,1,,0.5752727 C,0,1,,0,0,0,80,255,255 F,0,67708,68308,0,1 S,0,68308,68358,0.5752727,0.75 F,0,68308,68508,1,0
Sprite,Overlay,Centre,"hitcircleoverlay.png",132.5,188.5 S,0,1,,0.5752727 F,0,67708,68308,0,1 S,0,68308,68358,0.5752727,0.75 F,0,68308,68508,1,0
Sprite,Overlay,Centre,"approachcircle.png",132.5,188.5 C,0,1,,0,0,0,80,255,255 F,0,67708,68308,0,1 S,0,67708,68308,2.15,0.5896
Sprite,Overlay,Centre,"default-1.png",132.5,188.5 S,0,1,,0.45 F,0,67708,68308,0,1
Sprite,Overlay,Centre,"hitcircle.png",312.5,76.5 S,0,1,,0.5752727 C,0,1,,0,0,0,80,255,255 F,0,67994,68594,0,1 S,0,68594,68644,0.5752727,0.75 F,0,68594,68794,1,0
Sprite,Overlay,Centre,"hitcircleoverlay.png",312.5,76.5 S,0,1,,0.5752727 F,0,67994,68594,0,1 S,0,68594,68644,0.5752727,0.75 F,0,68594,68794,1,0
Sprite,Overlay,Centre,"approachcircle.png",312.5,76.5 C,0,1,,0,0,0,80,255,255 F,0,67994,68594,0,1 S,0,67994,68594,2.15,0.5896
Sprite,Overlay,Centre,"default-2.png",312.5,76.5 S,0,1,,0.45 F,0,67994,68594,0,1
Sprite,Overlay,Centre,"hitcircle.png",284.5,344.5 S,0,1,,0.5752727 C,0,1,,0,0,0,80,255,255 F,0,68136,68736,0,1 S,0,68736,68786,0.5752727,0.75 F,0,68736,68936,1,0
Sprite,Overlay,Centre,"hitcircleoverlay.png",284.5,344.5 S,0,1,,0.5752727 F,0,68136,68736,0,1 S,0,68736,68786,0.5752727,0.75 F,0,68736,68936,1,0
Sprite,Overlay,Centre,"approachcircle.png",284.5,344.5 C,0,1,,0,0,0,80,255,255 F,0,68136,68736,0,1 S,0,68136,68736,2.15,0.5896
Sprite,Overlay,Centre,"default-3.png",284.5,344.5 S,0,1,,0.45 F,0,68136,68736,0,1
Sprite,Overlay,Centre,"hitcircle.png",368.5,96.5 S,0,1,,0.5752727 C,0,1,,0,0,0,80,138,255 F,0,69565,70165,0,1 S,0,70165,70215,0.5752727,0.75 F,0,70165,70365,1,0
Sprite,Overlay,Centre,"hitcircleoverlay.png",368.5,96.5 S,0,1,,0.5752727 F,0,69565,70165,0,1 S,0,70165,70215,0.5752727,0.75 F,0,70165,70365,1,0
Sprite,Overlay,Centre,"approachcircle.png",368.5,96.5 C,0,1,,0,0,0,80,138,255 F,0,69565,70165,0,1 S,0,69565,70165,2.15,0.5896
Sprite,Overlay,Centre,"default-1.png",368.5,96.5 S,0,1,,0.45 F,0,69565,70165,0,1
Sprite,Overlay,Centre,"hitcircle.png",472.5,220.5 S,0,1,,0.5752727 C,0,1,,0,0,0,80,138,255 F,0,69708,70308,0,1 S,0,70308,70358,0.5752727,0.75 F,0,70308,70508,1,0
Sprite,Overlay,Centre,"hitcircleoverlay.png",472.5,220.5 S,0,1,,0.5752727 F,0,69708,70308,0,1 S,0,70308,70358,0.5752727,0.75 F,0,70308,70508,1,0
Sprite,Overlay,Centre,"approachcircle.png",472.5,220.5 C,0,1,,0,0,0,80,138,255 F,0,69708,70308,0,1 S,0,69708,70308,2.15,0.5896
Sprite,Overlay,Centre,"default-2.png",472.5,220.5 S,0,1,,0.45 F,0,69708,70308,0,1
Sprite,Overlay,Centre,"hitcircle.png",532.5,68.5 S,0,1,,0.5752727 C,0,1,,0,0,0,80,138,255 F,0,69851,70451,0,1 S,0,70451,70501,0.5752727,0.75 F,0,70451,70651,1,0
Sprite,Overlay,Centre,"hitcircleoverlay.png",532.5,68.5 S,0,1,,0.5752727 F,0,69851,70451,0,1 S,0,70451,70501,0.5752727,0.75 F,0,70451,70651,1,0
Sprite,Overlay,Centre,"approachcircle.png",532.5,68.5 C,0,1,,0,0,0,80,138,255 F,0,69851,70451,0,1 S,0,69851,70451,2.15,0.5896
Sprite,Overlay,Centre,"default-3.png",532.5,68.5 S,0,1,,0.45 F,0,69851,70451,0,1
Sprite,Overlay,Centre,"hitcircle.png",368.5,96.5 S,0,1,,0.5752727 C,0,1,,0,0,0,80,138,255 F,0,69994,70594,0,1 S,0,70594,70644,0.5752727,0.75 F,0,70594,70794,1,0
Sprite,Overlay,Centre,"hitcircleoverlay.png",368.5,96.5 S,0,1,,0.5752727 F,0,69994,70594,0,1 S,0,70594,70644,0.5752727,0.75 F,0,70594,70794,1,0
Sprite,Overlay,Centre,"approachcircle.png",368.5,96.5 C,0,1,,0,0,0,80,138,255 F,0,69994,70594,0,1 S,0,69994,70594,2.15,0.5896
Sprite,Overlay,Centre,"default-4.png",368.5,96.5 S,0,1,,0.45 F,0,69994,70594,0,1
Sprite,Overlay,Centre,"hitcircle.png",304.5,244.5 S,0,1,,0.5752727 C,0,1,,0,0,0,80,138,255 F,0,70136,70736,0,1 S,0,70736,70786,0.5752727,0.75 F,0,70736,70936,1,0
Sprite,Overlay,Centre,"hitcircleoverlay.png",304.5,244.5 S,0,1,,0.5752727 F,0,70136,70736,0,1 S,0,70736,70786,0.5752727,0.75 F,0,70736,70936,1,0
Sprite,Overlay,Centre,"approachcircle.png",304.5,244.5 C,0,1,,0,0,0,80,138,255 F,0,70136,70736,0,1 S,0,70136,70736,2.15,0.5896
Sprite,Overlay,Centre,"default-5.png",304.5,244.5 S,0,1,,0.45 F,0,70136,70736,0,1
Sprite,Overlay,Centre,"hitcircle.png",172.5,148.5 S,0,1,,0.5752727 C,0,1,,0,0,0,80,138,255 F,0,70279,70879,0,1 S,0,70879,70929,0.5752727,0.75 F,0,70879,71079,1,0
Sprite,Overlay,Centre,"hitcircleoverlay.png",172.5,148.5 S,0,1,,0.5752727 F,0,70279,70879,0,1 S,0,70879,70929,0.5752727,0.75 F,0,70879,71079,1,0
Sprite,Overlay,Centre,"approachcircle.png",172.5,148.5 C,0,1,,0,0,0,80,138,255 F,0,70279,70879,0,1 S,0,70279,70879,2.15,0.5896
Sprite,Overlay,Centre,"default-6.png",172.5,148.5 S,0,1,,0.45 F,0,70279,70879,0,1
Sprite,Overlay,Centre,"hitcircle.png",200.5,308.5 S,0,1,,0.5752727 C,0,1,,0,0,0,80,138,255 F,0,70422,71022,0,1 S,0,71022,71072,0.5752727,0.75 F,0,71022,71222,1,0
Sprite,Overlay,Centre,"hitcircleoverlay.png",200.5,308.5 S,0,1,,0.5752727 F,0,70422,71022,0,1 S,0,71022,71072,0.5752727,0.75 F,0,71022,71222,1,0
Sprite,Overlay,Centre,"approachcircle.png",200.5,308.5 C,0,1,,0,0,0,80,138,255 F,0,70422,71022,0,1 S,0,70422,71022,2.15,0.5896
Sprite,Overlay,Centre,"default-7.png",200.5,308.5 S,0,1,,0.45 F,0,70422,71022,0,1
Sprite,Overlay,Centre,"hitcircle.png",68.5,212.5 S,0,1,,0.5752727 C,0,1,,0,0,0,80,138,255 F,0,70565,71165,0,1 S,0,71165,71215,0.5752727,0.75 F,0,71165,71365,1,0
Sprite,Overlay,Centre,"hitcircleoverlay.png",68.5,212.5 S,0,1,,0.5752727 F,0,70565,71165,0,1 S,0,71165,71215,0.5752727,0.75 F,0,71165,71365,1,0
Sprite,Overlay,Centre,"approachcircle.png",68.5,212.5 C,0,1,,0,0,0,80,138,255 F,0,70565,71165,0,1 S,0,70565,71165,2.15,0.5896
Sprite,Overlay,Centre,"default-8.png",68.5,212.5 S,0,1,,0.45 F,0,70565,71165,0,1
Sprite,Overlay,Centre,"hitcircle.png",416.5,296.5 S,0,1,,0.5752727 C,0,1,,0,0,0,232,255,80 F,0,70279,70879,0,1 S,0,70879,70929,0.5752727,0.75 F,0,70879,71079,1,0
Sprite,Overlay,Centre,"hitcircleoverlay.png",416.5,296.5 S,0,1,,0.5752727 F,0,70279,70879,0,1 S,0,70879,70929,0.5752727,0.75 F,0,70879,71079,1,0
Sprite,Overlay,Centre,"approachcircle.png",416.5,296.5 C,0,1,,0,0,0,232,255,80 F,0,70279,70879,0,1 S,0,70279,70879,2.15,0.5896
Sprite,Overlay,Centre,"default-1.png",416.5,296.5 S,0,1,,0.45 F,0,70279,70879,0,1
Sprite,Overlay,Centre,"hitcircle.png",560.5,384.5 S,0,1,,0.5752727 C,0,1,,0,0,0,232,255,80 F,0,70422,71022,0,1 S,0,71022,71072,0.5752727,0.75 F,0,71022,71222,1,0
Sprite,Overlay,Centre,"hitcircleoverlay.png",560.5,384.5 S,0,1,,0.5752727 F,0,70422,71022,0,1 S,0,71022,71072,0.5752727,0.75 F,0,71022,71222,1,0
Sprite,Overlay,Centre,"approachcircle.png",560.5,384.5 C,0,1,,0,0,0,232,255,80 F,0,70422,71022,0,1 S,0,70422,71022,2.15,0.5896
Sprite,Overlay,Centre,"default-2.png",560.5,384.5 S,0,1,,0.45 F,0,70422,71022,0,1
Sprite,Overlay,Centre,"hitcircle.png",556.5,216.5 S,0,1,,0.5752727 C,0,1,,0,0,0,232,255,80 F,0,70565,71165,0,1 S,0,71165,71215,0.5752727,0.75 F,0,71165,71365,1,0
Sprite,Overlay,Centre,"hitcircleoverlay.png",556.5,216.5 S,0,1,,0.5752727 F,0,70565,71165,0,1 S,0,71165,71215,0.5752727,0.75 F,0,71165,71365,1,0
Sprite,Overlay,Centre,"approachcircle.png",556.5,216.5 C,0,1,,0,0,0,232,255,80 F,0,70565,71165,0,1 S,0,70565,71165,2.15,0.5896
Sprite,Overlay,Centre,"default-3.png",556.5,216.5 S,0,1,,0.45 F,0,70565,71165,0,1
Sprite,Overlay,Centre,"hitcircle.png",104.5,400.5 S,0,1,,0.5752727 C,0,1,,0,0,0,255,80,80 F,0,71886,72486,0,1 S,0,72486,72536,0.5752727,0.75 F,0,72486,72686,1,0
Sprite,Overlay,Centre,"hitcircleoverlay.png",104.5,400.5 S,0,1,,0.5752727 F,0,71886,72486,0,1 S,0,72486,72536,0.5752727,0.75 F,0,72486,72686,1,0
Sprite,Overlay,Centre,"approachcircle.png",104.5,400.5 C,0,1,,0,0,0,255,80,80 F,0,71886,72486,0,1 S,0,71886,72486,2.15,0.5896
Sprite,Overlay,Centre,"default-1.png",104.5,400.5 S,0,1,,0.45 F,0,71886,72486,0,1
Sprite,Overlay,Centre,"hitcircle.png",168.5,308.5 S,0,1,,0.5752727 C,0,1,,0,0,0,255,80,80 F,0,72029,72629,0,1 S,0,72629,72679,0.5752727,0.75 F,0,72629,72829,1,0
Sprite,Overlay,Centre,"hitcircleoverlay.png",168.5,308.5 S,0,1,,0.5752727 F,0,72029,72629,0,1 S,0,72629,72679,0.5752727,0.75 F,0,72629,72829,1,0
Sprite,Overlay,Centre,"approachcircle.png",168.5,308.5 C,0,1,,0,0,0,255,80,80 F,0,72029,72629,0,1 S,0,72029,72629,2.15,0.5896
Sprite,Overlay,Centre,"default-2.png",168.5,308.5 S,0,1,,0.45 F,0,72029,72629,0,1
Sprite,Overlay,Centre,"hitcircle.png",232.5,400.5 S,0,1,,0.5752727 C,0,1,,0,0,0,255,80,80 F,0,72172,72772,0,1 S,0,72772,72822,0.5752727,0.75 F,0,72772,72972,1,0
Sprite,Overlay,Centre,"hitcircleoverlay.png",232.5,400.5 S,0,1,,0.5752727 F,0,72172,72772,0,1 S,0,72772,72822,0.5752727,0.75 F,0,72772,72972,1,0
Sprite,Overlay,Centre,"approachcircle.png",232.5,400.5 C,0,1,,0,0,0,255,80,80 F,0,72172,72772,0,1 S,0,72172,72772,2.15,0.5896
Sprite,Overlay,Centre,"default-3.png",232.5,400.5 S,0,1,,0.45 F,0,72172,72772,0,1
Sprite,Overlay,Centre,"hitcircle.png",296.5,308.5 S,0,1,,0.5752727 C,0,1,,0,0,0,255,80,80 F,0,72315,72915,0,1 S,0,72915,72965,0.5752727,0.75 F,0,72915,73115,1,0
Sprite,Overlay,Centre,"hitcircleoverlay.png",296.5,308.5 S,0,1,,0.5752727 F,0,72315,72915,0,1 S,0,72915,72965,0.5752727,0.75 F,0,72915,73115,1,0
Sprite,Overlay,Centre,"approachcircle.png",296.5,308.5 C,0,1,,0,0,0,255,80,80 F,0,72315,72915,0,1 S,0,72315,72915,2.15,0.5896
Sprite,Overlay,Centre,"default-4.png",296.5,308.5 S,0,1,,0.45 F,0,72315,72915,0,1
Sprite,Overlay,Centre,"hitcircle.png",364.5,396.5 S,0,1,,0.5752727 C,0,1,,0,0,0,255,80,80 F,0,72458,73058,0,1 S,0,73058,73108,0.5752727,0.75 F,0,73058,73258,1,0
Sprite,Overlay,Centre,"hitcircleoverlay.png",364.5,396.5 S,0,1,,0.5752727 F,0,72458,73058,0,1 S,0,73058,73108,0.5752727,0.75 F,0,73058,73258,1,0
Sprite,Overlay,Centre,"approachcircle.png",364.5,396.5 C,0,1,,0,0,0,255,80,80 F,0,72458,73058,0,1 S,0,72458,73058,2.15,0.5896
Sprite,Overlay,Centre,"default-5.png",364.5,396.5 S,0,1,,0.45 F,0,72458,73058,0,1
Sprite,Overlay,Centre,"hitcircle.png",428.5,304.5 S,0,1,,0.5752727 C,0,1,,0,0,0,255,80,80 F,0,72601,73201,0,1 S,0,73201,73251,0.5752727,0.75 F,0,73201,73401,1,0
Sprite,Overlay,Centre,"hitcircleoverlay.png",428.5,304.5 S,0,1,,0.5752727 F,0,72601,73201,0,1 S,0,73201,73251,0.5752727,0.75 F,0,73201,73401,1,0
Sprite,Overlay,Centre,"approachcircle.png",428.5,304.5 C,0,1,,0,0,0,255,80,80 F,0,72601,73201,0,1 S,0,72601,73201,2.15,0.5896
Sprite,Overlay,Centre,"default-6.png",428.5,304.5 S,0,1,,0.45 F,0,72601,73201,0,1
Sprite,Overlay,Centre,"hitcircle.png",488.5,400.5 S,0,1,,0.5752727 C,0,1,,0,0,0,255,80,80 F,0,72744,73344,0,1 S,0,73344,73394,0.5752727,0.75 F,0,73344,73544,1,0
Sprite,Overlay,Centre,"hitcircleoverlay.png",488.5,400.5 S,0,1,,0.5752727 F,0,72744,73344,0,1 S,0,73344,73394,0.5752727,0.75 F,0,73344,73544,1,0
Sprite,Overlay,Centre,"approachcircle.png",488.5,400.5 C,0,1,,0,0,0,255,80,80 F,0,72744,73344,0,1 S,0,72744,73344,2.15,0.5896
Sprite,Overlay,Centre,"default-7.png",488.5,400.5 S,0,1,,0.45 F,0,72744,73344,0,1
Sprite,Overlay,Centre,"hitcircle.png",544.5,304.5 S,0,1,,0.5752727 C,0,1,,0,0,0,255,80,80 F,0,72886,73486,0,1 S,0,73486,73536,0.5752727,0.75 F,0,73486,73686,1,0
Sprite,Overlay,Centre,"hitcircleoverlay.png",544.5,304.5 S,0,1,,0.5752727 F,0,72886,73486,0,1 S,0,73486,73536,0.5752727,0.75 F,0,73486,73686,1,0
Sprite,Overlay,Centre,"approachcircle.png",544.5,304.5 C,0,1,,0,0,0,255,80,80 F,0,72886,73486,0,1 S,0,72886,73486,2.15,0.5896
Sprite,Overlay,Centre,"default-8.png",544.5,304.5 S,0,1,,0.45 F,0,72886,73486,0,1
Sprite,Overlay,Centre,"hitcircle.png",560.5,96.5 S,0,1,,0.5752727 C,0,1,,0,0,0,80,80,255 F,0,71886,72486,0,1 S,0,72486,72536,0.5752727,0.75 F,0,72486,72686,1,0
Sprite,Overlay,Centre,"hitcircleoverlay.png",560.5,96.5 S,0,1,,0.5752727 F,0,71886,72486,0,1 S,0,72486,72536,0.5752727,0.75 F,0,72486,72686,1,0
Sprite,Overlay,Centre,"approachcircle.png",560.5,96.5 C,0,1,,0,0,0,80,80,255 F,0,71886,72486,0,1 S,0,71886,72486,2.15,0.5896
Sprite,Overlay,Centre,"default-1.png",560.5,96.5 S,0,1,,0.45 F,0,71886,72486,0,1
Sprite,Overlay,Centre,"hitcircle.png",496.5,188.5 S,0,1,,0.5752727 C,0,1,,0,0,0,80,80,255 F,0,72029,72629,0,1 S,0,72629,72679,0.5752727,0.75 F,0,72629,72829,1,0
Sprite,Overlay,Centre,"hitcircleoverlay.png",496.5,188.5 S,0,1,,0.5752727 F,0,72029,72629,0,1 S,0,72629,72679,0.5752727,0.75 F,0,72629,72829,1,0
Sprite,Overlay,Centre,"approachcircle.png",496.5,188.5 C,0,1,,0,0,0,80,80,255 F,0,72029,72629,0,1 S,0,72029,72629,2.15,0.5896
Sprite,Overlay,Centre,"default-2.png",496.5,188.5 S,0,1,,0.45 F,0,72029,72629,0,1
Sprite,Overlay,Centre,"hitcircle.png",432.5,96.5 S,0,1,,0.5752727 C,0,1,,0,0,0,80,80,255 F,0,72172,72772,0,1 S,0,72772,72822,0.5752727,0.75 F,0,72772,72972,1,0
Sprite,Overlay,Centre,"hitcircleoverlay.png",432.5,96.5 S,0,1,,0.5752727 F,0,72172,72772,0,1 S,0,72772,72822,0.5752727,0.75 F,0,72772,72972,1,0
Sprite,Overlay,Centre,"approachcircle.png",432.5,96.5 C,0,1,,0,0,0,80,80,255 F,0,72172,72772,0,1 S,0,72172,72772,2.15,0.5896
Sprite,Overlay,Centre,"default-3.png",432.5,96.5 S,0,1,,0.45 F,0,72172,72772,0,1
Sprite,Overlay,Centre,"hitcircle.png",368.5,188.5 S,0,1,,0.5752727 C,0,1,,0,0,0,80,80,255 F,0,72315,72915,0,1 S,0,72915,72965,0.5752727,0.75 F,0,72915,73115,1,0
Sprite,Overlay,Centre,"hitcircleoverlay.png",368.5,188.5 S,0,1,,0.5752727 F,0,72315,72915,0,1 S,0,72915,72965,0.5752727,0.75 F,0,72915,73115,1,0
Sprite,Overlay,Centre,"approachcircle.png",368.5,188.5 C,0,1,,0,0,0,80,80,255 F,0,72315,72915,0,1 S,0,72315,72915,2.15,0.5896
Sprite,Overlay,Centre,"default-4.png",368.5,188.5 S,0,1,,0.45 F,0,72315,72915,0,1
Sprite,Overlay,Centre,"hitcircle.png",300.5,100.5 S,0,1,,0.5752727 C,0,1,,0,0,0,80,80,255 F,0,72458,73058,0,1 S,0,73058,73108,0.5752727,0.75 F,0,73058,73258,1,0
Sprite,Overlay,Centre,"hitcircleoverlay.png",300.5,100.5 S,0,1,,0.5752727 F,0,72458,73058,0,1 S,0,73058,73108,0.5752727,0.75 F,0,73058,73258,1,0
Sprite,Overlay,Centre,"approachcircle.png",300.5,100.5 C,0,1,,0,0,0,80,80,255 F,0,72458,73058,0,1 S,0,72458,73058,2.15,0.5896
Sprite,Overlay,Centre,"default-5.png",300.5,100.5 S,0,1,,0.45 F,0,72458,73058,0,1
Sprite,Overlay,Centre,"hitcircle.png",236.5,192.5 S,0,1,,0.5752727 C,0,1,,0,0,0,80,80,255 F,0,72601,73201,0,1 S,0,73201,73251,0.5752727,0.75 F,0,73201,73401,1,0
Sprite,Overlay,Centre,"hitcircleoverlay.png",236.5,192.5 S,0,1,,0.5752727 F,0,72601,73201,0,1 S,0,73201,73251,0.5752727,0.75 F,0,73201,73401,1,0
Sprite,Overlay,Centre,"approachcircle.png",236.5,192.5 C,0,1,,0,0,0,80,80,255 F,0,72601,73201,0,1 S,0,72601,73201,2.15,0.5896
Sprite,Overlay,Centre,"default-6.png",236.5,192.5 S,0,1,,0.45 F,0,72601,73201,0,1
Sprite,Overlay,Centre,"hitcircle.png",176.5,96.5 S,0,1,,0.5752727 C,0,1,,0,0,0,80,80,255 F,0,72744,73344,0,1 S,0,73344,73394,0.5752727,0.75 F,0,73344,73544,1,0
Sprite,Overlay,Centre,"hitcircleoverlay.png",176.5,96.5 S,0,1,,0.5752727 F,0,72744,73344,0,1 S,0,73344,73394,0.5752727,0.75 F,0,73344,73544,1,0
Sprite,Overlay,Centre,"approachcircle.png",176.5,96.5 C,0,1,,0,0,0,80,80,255 F,0,72744,73344,0,1 S,0,72744,73344,2.15,0.5896
Sprite,Overlay,Centre,"default-7.png",176.5,96.5 S,0,1,,0.45 F,0,72744,73344,0,1
Sprite,Overlay,Centre,"hitcircle.png",120.5,192.5 S,0,1,,0.5752727 C,0,1,,0,0,0,80,80,255 F,0,72886,73486,0,1 S,0,73486,73536,0.5752727,0.75 F,0,73486,73686,1,0
Sprite,Overlay,Centre,"hitcircleoverlay.png",120.5,192.5 S,0,1,,0.5752727 F,0,72886,73486,0,1 S,0,73486,73536,0.5752727,0.75 F,0,73486,73686,1,0
Sprite,Overlay,Centre,"approachcircle.png",120.5,192.5 C,0,1,,0,0,0,80,80,255 F,0,72886,73486,0,1 S,0,72886,73486,2.15,0.5896
Sprite,Overlay,Centre,"default-8.png",120.5,192.5 S,0,1,,0.45 F,0,72886,73486,0,1
Sprite,Overlay,Centre,"hitcircle.png",84.5,84.5 S,0,1,,0.5752727 C,0,1,,0,0,0,80,255,129 F,0,74136,74736,0,1 S,0,74736,74786,0.5752727,0.75 F,0,74736,74936,1,0
Sprite,Overlay,Centre,"hitcircleoverlay.png",84.5,84.5 S,0,1,,0.5752727 F,0,74136,74736,0,1 S,0,74736,74786,0.5752727,0.75 F,0,74736,74936,1,0
Sprite,Overlay,Centre,"approachcircle.png",84.5,84.5 C,0,1,,0,0,0,80,255,129 F,0,74136,74736,0,1 S,0,74136,74736,2.15,0.5896
Sprite,Overlay,Centre,"default-1.png",84.5,84.5 S,0,1,,0.45 F,0,74136,74736,0,1
Sprite,Overlay,Centre,"hitcircle.png",144.5,180.5 S,0,1,,0.5752727 C,0,1,,0,0,0,80,255,129 F,0,74279,74879,0,1 S,0,74879,74929,0.5752727,0.75 F,0,74879,75079,1,0
Sprite,Overlay,Centre,"hitcircleoverlay.png",144.5,180.5 S,0,1,,0.5752727 F,0,74279,74879,0,1 S,0,74879,74929,0.5752727,0.75 F,0,74879,75079,1,0
Sprite,Overlay,Centre,"approachcircle.png",144.5,180.5 C,0,1,,0,0,0,80,255,129 F,0,74279,74879,0,1 S,0,74279,74879,2.15,0.5896
Sprite,Overlay,Centre,"default-2.png",144.5,180.5 S,0,1,,0.45 F,0,74279,74879,0,1
Sprite,Overlay,Centre,"hitcircle.png",204.5,84.5 S,0,1,,0.5752727 C,0,1,,0,0,0,80,255,129 F,0,74422,75022,0,1 S,0,75022,75072,0.5752727,0.75 F,0,75022,75222,1,0
Sprite,Overlay,Centre,"hitcircleoverlay.png",204.5,84.5 S,0,1,,0.5752727 F,0,74422,75022,0,1 S,0,75022,75072,0.5752727,0.75 F,0,75022,75222,1,0
Sprite,Overlay,Centre,"approachcircle.png",204.5,84.5 C,0,1,,0,0,0,80,255,129 F,0,74422,75022,0,1 S,0,74422,75022,2.15,0.5896
Sprite,Overlay,Centre,"default-3.png",204.5,84.5 S,0,1,,0.45 F,0,74422,75022,0,1
Sprite,Overlay,Centre,"hitcircle.png",264.5,180.5 S,0,1,,0.5752727 C,0,1,,0,0,0,80,255,129 F,0,74565,75165,0,1 S,0,75165,75215,0.5752727,0.75 F,0,75165,75365,1,0
Sprite,Overlay,Centre,"hitcircleoverlay.png",264.5,180.5 S,0,1,,0.5752727 F,0,74565,75165,0,1 S,0,75165,75215,0.5752727,0.75 F,0,75165,75365,1,0
Sprite,Overlay,Centre,"approachcircle.png",264.5,180.5 C,0,1,,0,0,0,80,255,129 F,0,74565,75165,0,1 S,0,74565,75165,2.15,0.5896
Sprite,Overlay,Centre,"default-4.png",264.5,180.5 S,0,1,,0.45 F,0,74565,75165,0,1
Sprite,Overlay,Centre,"hitcircle.png",264.5,292.5 S,0,1,,0.5752727 C,0,1,,0,0,0,80,255,129 F,0,74708,75308,0,1 S,0,75308,75358,0.5752727,0.75 F,0,75308,75508,1,0
Sprite,Overlay,Centre,"hitcircleoverlay.png",264.5,292.5 S,0,1,,0.5752727 F,0,74708,75308,0,1 S,0,75308,75358,0.5752727,0.75 F,0,75308,75508,1,0
Sprite,Overlay,Centre,"approachcircle.png",264.5,292.5 C,0,1,,0,0,0,80,255,129 F,0,74708,75308,0,1 S,0,74708,75308,2.15,0.5896
Sprite,Overlay,Centre,"default-5.png",264.5,292.5 S,0,1,,0.45 F,0,74708,75308,0,1
Sprite,Overlay,Centre,"hitcircle.png",368.5,340.5 S,0,1,,0.5752727 C,0,1,,0,0,0,80,255,129 F,0,74851,75451,0,1 S,0,75451,75501,0.5752727,0.75 F,0,75451,75651,1,0
Sprite,Overlay,Centre,"hitcircleoverlay.png",368.5,340.5 S,0,1,,0.5752727 F,0,74851,75451,0,1 S,0,75451,75501,0.5752727,0.75 F,0,75451,75651,1,0
Sprite,Overlay,Centre,"approachcircle.png",368.5,340.5 C,0,1,,0,0,0,80,255,129 F,0,74851,75451,0,1 S,0,74851,75451,2.15,0.5896
Sprite,Overlay,Centre,"default-6.png",368.5,340.5 S,0,1,,0.45 F,0,74851,75451,0,1
Sprite,Overlay,Centre,"hitcircle.png",264.5,388.5 S,0,1,,0.5752727 C,0,1,,0,0,0,80,255,129 F,0,74994,75594,0,1 S,0,75594,75644,0.5752727,0.75 F,0,75594,75794,1,0
Sprite,Overlay,Centre,"hitcircleoverlay.png",264.5,388.5 S,0,1,,0.5752727 F,0,74994,75594,0,1 S,0,75594,75644,0.5752727,0.75 F,0,75594,75794,1,0
Sprite,Overlay,Centre,"approachcircle.png",264.5,388.5 C,0,1,,0,0,0,80,255,129 F,0,74994,75594,0,1 S,0,74994,75594,2.15,0.5896
Sprite,Overlay,Centre,"default-7.png",264.5,388.5 S,0,1,,0.45 F,0,74994,75594,0,1
Sprite,Overlay,Centre,"hitcircle.png",368.5,432.5 S,0,1,,0.5752727 C,0,1,,0,0,0,80,255,129 F,0,75136,75736,0,1 S,0,75736,75786,0.5752727,0.75 F,0,75736,75936,1,0
Sprite,Overlay,Centre,"hitcircleoverlay.png",368.5,432.5 S,0,1,,0.5752727 F,0,75136,75736,0,1 S,0,75736,75786,0.5752727,0.75 F,0,75736,75936,1,0
Sprite,Overlay,Centre,"approachcircle.png",368.5,432.5 C,0,1,,0,0,0,80,255,129 F,0,75136,75736,0,1 S,0,75136,75736,2.15,0.5896
Sprite,Overlay,Centre,"default-8.png",368.5,432.5 S,0,1,,0.45 F,0,75136,75736,0,1
Sprite,Overlay,Centre,"hitcircle.png",556.5,412.5 S,0,1,,0.5752727 C,0,1,,0,0,0,255,80,220 F,0,74136,74736,0,1 S,0,74736,74786,0.5752727,0.75 F,0,74736,74936,1,0
Sprite,Overlay,Centre,"hitcircleoverlay.png",556.5,412.5 S,0,1,,0.5752727 F,0,74136,74736,0,1 S,0,74736,74786,0.5752727,0.75 F,0,74736,74936,1,0
Sprite,Overlay,Centre,"approachcircle.png",556.5,412.5 C,0,1,,0,0,0,255,80,220 F,0,74136,74736,0,1 S,0,74136,74736,2.15,0.5896
Sprite,Overlay,Centre,"default-1.png",556.5,412.5 S,0,1,,0.45 F,0,74136,74736,0,1
Sprite,Overlay,Centre,"hitcircle.png",496.5,316.5 S,0,1,,0.5752727 C,0,1,,0,0,0,255,80,220 F,0,74279,74879,0,1 S,0,74879,74929,0.5752727,0.75 F,0,74879,75079,1,0
Sprite,Overlay,Centre,"hitcircleoverlay.png",496.5,316.5 S,0,1,,0.5752727 F,0,74279,74879,0,1 S,0,74879,74929,0.5752727,0.75 F,0,74879,75079,1,0
Sprite,Overlay,Centre,"approachcircle.png",496.5,316.5 C,0,1,,0,0,0,255,80,220 F,0,74279,74879,0,1 S,0,74279,74879,2.15,0.5896
Sprite,Overlay,Centre,"default-2.png",496.5,316.5 S,0,1,,0.45 F,0,74279,74879,0,1
Sprite,Overlay,Centre,"hitcircle.png",436.5,412.5 S,0,1,,0.5752727 C,0,1,,0,0,0,255,80,220 F,0,74422,75022,0,1 S,0,75022,75072,0.5752727,0.75 F,0,75022,75222,1,0
Sprite,Overlay,Centre,"hitcircleoverlay.png",436.5,412.5 S,0,1,,0.5752727 F,0,74422,75022,0,1 S,0,75022,75072,0.5752727,0.75 F,0,75022,75222,1,0
Sprite,Overlay,Centre,"approachcircle.png",436.5,412.5 C,0,1,,0,0,0,255,80,220 F,0,74422,75022,0,1 S,0,74422,75022,2.15,0.5896
Sprite,Overlay,Centre,"default-3.png",436.5,412.5 S,0,1,,0.45 F,0,74422,75022,0,1
Sprite,Overlay,Centre,"hitcircle.png",376.5,316.5 S,0,1,,0.5752727 C,0,1,,0,0,0,255,80,220 F,0,74565,75165,0,1 S,0,75165,75215,0.5752727,0.75 F,0,75165,75365,1,0
Sprite,Overlay,Centre,"hitcircleoverlay.png",376.5,316.5 S,0,1,,0.5752727 F,0,74565,75165,0,1 S,0,75165,75215,0.5752727,0.75 F,0,75165,75365,1,0
Sprite,Overlay,Centre,"approachcircle.png",376.5,316.5 C,0,1,,0,0,0,255,80,220 F,0,74565,75165,0,1 S,0,74565,75165,2.15,0.5896
Sprite,Overlay,Centre,"default-4.png",376.5,316.5 S,0,1,,0.45 F,0,74565,75165,0,1
Sprite,Overlay,Centre,"hitcircle.png",376.5,204.5 S,0,1,,0.5752727 C,0,1,,0,0,0,255,80,220 F,0,74708,75308,0,1 S,0,75308,75358,0.5752727,0.75 F,0,75308,75508,1,0
Sprite,Overlay,Centre,"hitcircleoverlay.png",376.5,204.5 S,0,1,,0.5752727 F,0,74708,75308,0,1 S,0,75308,75358,0.5752727,0.75 F,0,75308,75508,1,0
Sprite,Overlay,Centre,"approachcircle.png",376.5,204.5 C,0,1,,0,0,0,255,80,220 F,0,74708,75308,0,1 S,0,74708,75308,2.15,0.5896
Sprite,Overlay,Centre,"default-5.png",376.5,204.5 S,0,1,,0.45 F,0,74708,75308,0,1
Sprite,Overlay,Centre,"hitcircle.png",272.5,156.5 S,0,1,,0.5752727 C,0,1,,0,0,0,255,80,220 F,0,74851,75451,0,1 S,0,75451,75501,0.5752727,0.75 F,0,75451,75651,1,0
Sprite,Overlay,Centre,"hitcircleoverlay.png",272.5,156.5 S,0,1,,0.5752727 F,0,74851,75451,0,1 S,0,75451,75501,0.5752727,0.75 F,0,75451,75651,1,0
Sprite,Overlay,Centre,"approachcircle.png",272.5,156.5 C,0,1,,0,0,0,255,80,220 F,0,74851,75451,0,1 S,0,74851,75451,2.15,0.5896
Sprite,Overlay,Centre,"default-6.png",272.5,156.5 S,0,1,,0.45 F,0,74851,75451,0,1
Sprite,Overlay,Centre,"hitcircle.png",376.5,108.5 S,0,1,,0.5752727 C,0,1,,0,0,0,255,80,220 F,0,74994,75594,0,1 S,0,75594,75644,0.5752727,0.75 F,0,75594,75794,1,0
Sprite,Overlay,Centre,"hitcircleoverlay.png",376.5,108.5 S,0,1,,0.5752727 F,0,74994,75594,0,1 S,0,75594,75644,0.5752727,0.75 F,0,75594,75794,1,0
Sprite,Overlay,Centre,"approachcircle.png",376.5,108.5 C,0,1,,0,0,0,255,80,220 F,0,74994,75594,0,1 S,0,74994,75594,2.15,0.5896
Sprite,Overlay,Centre,"default-7.png",376.5,108.5 S,0,1,,0.45 F,0,74994,75594,0,1
Sprite,Overlay,Centre,"hitcircle.png",272.5,64.5 S,0,1,,0.5752727 C,0,1,,0,0,0,255,80,220 F,0,75136,75736,0,1 S,0,75736,75786,0.5752727,0.75 F,0,75736,75936,1,0
Sprite,Overlay,Centre,"hitcircleoverlay.png",272.5,64.5 S,0,1,,0.5752727 F,0,75136,75736,0,1 S,0,75736,75786,0.5752727,0.75 F,0,75736,75936,1,0
Sprite,Overlay,Centre,"approachcircle.png",272.5,64.5 C,0,1,,0,0,0,255,80,220 F,0,75136,75736,0,1 S,0,75136,75736,2.15,0.5896
Sprite,Overlay,Centre,"default-8.png",272.5,64.5 S,0,1,,0.45 F,0,75136,75736,0,1
Sprite,Overlay,Centre,"upcoming_only_red.png",421.1909,297.5999 F,0,66451,67165,0,0.5 S,0,66451,68308,0.8,0.95 R,0,66451,68308,0,-0.08 F,0,67308,68308,0.5,0
Sprite,Overlay,Centre,"next_is_blue.png",330.4272,184.1455 F,0,68879,69594,0,0.5 S,0,68879,70165,0.8,0.95 R,0,68879,70165,0.08,0.16 F,0,69736,70165,0.5,0
Sprite,Overlay,Centre,"red_again.png",328.6817,128.2909 F,0,71165,71879,0,0.5 S,0,71165,72451,0.8,0.95 R,0,71165,72451,3.1,3.18 F,0,72022,72451,0.5,0
Sprite,Overlay,Centre,"you_re_a_nerd_stop_looking_at_these_files_and_go_play_the_map.png",120.9727,327.2727 F,0,73451,74165,0,0.5 S,0,73451,74736,0.8,0.95 R,0,73451,74736,-0.5,-0.42 F,0,74308,74736,0.5,0
Sprite,Overlay,Centre,"hitcircle.png",365.5,245.5 S,0,1,,0.5752727 C,0,1,,0,0,0,80,255,129 F,0,75851,76451,0,1 S,0,76451,76501,0.5752727,0.75 F,0,76451,76651,1,0
Sprite,Overlay,Centre,"hitcircleoverlay.png",365.5,245.5 S,0,1,,0.5752727 F,0,75851,76451,0,1 S,0,76451,76501,0.5752727,0.75 F,0,76451,76651,1,0
Sprite,Overlay,Centre,"approachcircle.png",365.5,245.5 C,0,1,,0,0,0,80,255,129 F,0,75851,76451,0,1 S,0,75851,76451,2.15,0.5896
Sprite,Overlay,Centre,"default-1.png",365.5,245.5 S,0,1,,0.45 F,0,75851,76451,0,1
Sprite,Overlay,Centre,"hitcircle.png",307.5,251.5 S,0,1,,0.5752727 C,0,1,,0,0,0,255,80,80 F,0,75946,76546,0,1 S,0,76546,76596,0.5752727,0.75 F,0,76546,76746,1,0
Sprite,Overlay,Centre,"hitcircleoverlay.png",307.5,251.5 S,0,1,,0.5752727 F,0,75946,76546,0,1 S,0,76546,76596,0.5752727,0.75 F,0,76546,76746,1,0
Sprite,Overlay,Centre,"approachcircle.png",307.5,251.5 C,0,1,,0,0,0,255,80,80 F,0,75946,76546,0,1 S,0,75946,76546,2.15,0.5896
Sprite,Overlay,Centre,"default-2.png",307.5,251.5 S,0,1,,0.45 F,0,75946,76546,0,1
Sprite,Overlay,Centre,"hitcircle.png",254.5,225.5 S,0,1,,0.5752727 C,0,1,,0,0,0,80,138,255 F,0,76041,76641,0,1 S,0,76641,76691,0.5752727,0.75 F,0,76641,76841,1,0
Sprite,Overlay,Centre,"hitcircleoverlay.png",254.5,225.5 S,0,1,,0.5752727 F,0,76041,76641,0,1 S,0,76641,76691,0.5752727,0.75 F,0,76641,76841,1,0
Sprite,Overlay,Centre,"approachcircle.png",254.5,225.5 C,0,1,,0,0,0,80,138,255 F,0,76041,76641,0,1 S,0,76041,76641,2.15,0.5896
Sprite,Overlay,Centre,"default-3.png",254.5,225.5 S,0,1,,0.45 F,0,76041,76641,0,1
Sprite,Overlay,Centre,"hitcircle.png",206.5,191.5 S,0,1,,0.5752727 C,0,1,,0,0,0,255,80,80 F,0,76136,76736,0,1 S,0,76736,76786,0.5752727,0.75 F,0,76736,76936,1,0
Sprite,Overlay,Centre,"hitcircleoverlay.png",206.5,191.5 S,0,1,,0.5752727 F,0,76136,76736,0,1 S,0,76736,76786,0.5752727,0.75 F,0,76736,76936,1,0
Sprite,Overlay,Centre,"approachcircle.png",206.5,191.5 C,0,1,,0,0,0,255,80,80 F,0,76136,76736,0,1 S,0,76136,76736,2.15,0.5896
Sprite,Overlay,Centre,"default-4.png",206.5,191.5 S,0,1,,0.45 F,0,76136,76736,0,1
Sprite,Overlay,Centre,"hitcircle.png",147.5,192.5 S,0,1,,0.5752727 C,0,1,,0,0,0,232,255,80 F,0,76232,76832,0,1 S,0,76832,76882,0.5752727,0.75 F,0,76832,77032,1,0
Sprite,Overlay,Centre,"hitcircleoverlay.png",147.5,192.5 S,0,1,,0.5752727 F,0,76232,76832,0,1 S,0,76832,76882,0.5752727,0.75 F,0,76832,77032,1,0
Sprite,Overlay,Centre,"approachcircle.png",147.5,192.5 C,0,1,,0,0,0,232,255,80 F,0,76232,76832,0,1 S,0,76232,76832,2.15,0.5896
Sprite,Overlay,Centre,"default-5.png",147.5,192.5 S,0,1,,0.45 F,0,76232,76832,0,1
Sprite,Overlay,Centre,"hitcircle.png",106.5,233.5 S,0,1,,0.5752727 C,0,1,,0,0,0,255,80,220 F,0,76327,76927,0,1 S,0,76927,76977,0.5752727,0.75 F,0,76927,77127,1,0
Sprite,Overlay,Centre,"hitcircleoverlay.png",106.5,233.5 S,0,1,,0.5752727 F,0,76327,76927,0,1 S,0,76927,76977,0.5752727,0.75 F,0,76927,77127,1,0
Sprite,Overlay,Centre,"approachcircle.png",106.5,233.5 C,0,1,,0,0,0,255,80,220 F,0,76327,76927,0,1 S,0,76327,76927,2.15,0.5896
Sprite,Overlay,Centre,"default-6.png",106.5,233.5 S,0,1,,0.45 F,0,76327,76927,0,1
Sprite,Overlay,Centre,"hitcircle.png",111.5,290.5 S,0,1,,0.5752727 C,0,1,,0,0,0,80,138,255 F,0,76422,77022,0,1 S,0,77022,77072,0.5752727,0.75 F,0,77022,77222,1,0
Sprite,Overlay,Centre,"hitcircleoverlay.png",111.5,290.5 S,0,1,,0.5752727 F,0,76422,77022,0,1 S,0,77022,77072,0.5752727,0.75 F,0,77022,77222,1,0
Sprite,Overlay,Centre,"approachcircle.png",111.5,290.5 C,0,1,,0,0,0,80,138,255 F,0,76422,77022,0,1 S,0,76422,77022,2.15,0.5896
Sprite,Overlay,Centre,"default-7.png",111.5,290.5 F,0,1,,0 S,0,1,,0.45 F,0,76422,77022,0,1
Sprite,Overlay,Centre,"green.png",337.4545,106.1819 F,0,1,,0 S,0,1,,0.9 F,0,76165,76451,0,0.5 F,0,76451,,0
Sprite,Overlay,Centre,"red.png",337.4545,106.1819 F,0,1,,0 S,0,1,,0.9 F,0,76451,,0.5 F,0,76546,,0
Sprite,Overlay,Centre,"blue.png",337.4545,106.1819 F,0,1,,0 S,0,1,,0.9 F,0,76546,,0.5 F,0,76641,,0
Sprite,Overlay,Centre,"red.png",337.4545,106.1819 F,0,1,,0 S,0,1,,0.9 F,0,76641,,0.5 F,0,76736,,0
Sprite,Overlay,Centre,"nice_guy.png",337.4545,106.1819 F,0,1,,0 S,0,1,,0.9 F,0,76736,,0.5 F,0,76832,,0
Sprite,Overlay,Centre,"purple.png",337.4545,106.1819 F,0,1,,0 S,0,1,,0.9 F,0,76832,,0.5 F,0,76927,,0
Sprite,Overlay,Centre,"blue.png",337.4545,106.1819 F,0,1,,0 S,0,1,,0.9 F,0,76927,,0.5 F,0,77022,77236,0.5,0 S,0,77022,77236,0.9,0.6 R,0,77022,77236,0,-0.3
Sprite,Overlay,Centre,"hitcircle.png",504.5,224.5 S,0,1,,0.5752727 C,0,1,,0,0,0,246,181,52 F,0,79851,80451,0,1 S,0,80451,80501,0.5752727,0.75 F,0,80451,80651,1,0
Sprite,Overlay,Centre,"hitcircleoverlay.png",504.5,224.5 S,0,1,,0.5752727 F,0,79851,80451,0,1 S,0,80451,80501,0.5752727,0.75 F,0,80451,80651,1,0
Sprite,Overlay,Centre,"approachcircle.png",504.5,224.5 C,0,1,,0,0,0,246,181,52 F,0,79851,80451,0,1 S,0,79851,80451,2.15,0.5896
Sprite,Overlay,Centre,"default-1.png",504.5,224.5 S,0,1,,0.45 F,0,79851,80451,0,1
Sprite,Overlay,Centre,"hitcircle.png",326.5,280.5 S,0,1,,0.5752727 C,0,1,,0,0,0,246,181,52 F,0,80041,80641,0,1 S,0,80641,80691,0.5752727,0.75 F,0,80641,80841,1,0
Sprite,Overlay,Centre,"hitcircleoverlay.png",326.5,280.5 S,0,1,,0.5752727 F,0,80041,80641,0,1 S,0,80641,80691,0.5752727,0.75 F,0,80641,80841,1,0
Sprite,Overlay,Centre,"approachcircle.png",326.5,280.5 C,0,1,,0,0,0,246,181,52 F,0,80041,80641,0,1 S,0,80041,80641,2.15,0.5896
Sprite,Overlay,Centre,"default-phi.png",326.5,280.5 S,0,1,,0.45 F,0,80041,80641,0,1
Sprite,Overlay,Centre,"hitcircle.png",415.5,253.5 S,0,1,,0.5752727 C,0,1,,0,0,0,246,181,52 F,0,80232,80832,0,1 S,0,80832,80882,0.5752727,0.75 F,0,80832,81032,1,0
Sprite,Overlay,Centre,"hitcircleoverlay.png",415.5,253.5 S,0,1,,0.5752727 F,0,80232,80832,0,1 S,0,80832,80882,0.5752727,0.75 F,0,80832,81032,1,0
Sprite,Overlay,Centre,"approachcircle.png",415.5,253.5 C,0,1,,0,0,0,246,181,52 F,0,80232,80832,0,1 S,0,80232,80832,2.15,0.5896
Sprite,Overlay,Centre,"default-pie.png",415.5,253.5 S,0,1,,0.45 F,0,80232,80832,0,1
Sprite,Overlay,Centre,"hitcircle.png",237.5,309.5 S,0,1,,0.5752727 C,0,1,,0,0,0,246,181,52 F,0,80422,81022,0,1 S,0,81022,81072,0.5752727,0.75 F,0,81022,81222,1,0
Sprite,Overlay,Centre,"hitcircleoverlay.png",237.5,309.5 S,0,1,,0.5752727 F,0,80422,81022,0,1 S,0,81022,81072,0.5752727,0.75 F,0,81022,81222,1,0
Sprite,Overlay,Centre,"approachcircle.png",237.5,309.5 C,0,1,,0,0,0,246,181,52 F,0,80422,81022,0,1 S,0,80422,81022,2.15,0.5896
Sprite,Overlay,Centre,"default-1.png",234.5,309.5 S,0,1,,0.45 F,0,80422,81022,0,1
Sprite,Overlay,Centre,"default-6.png",247.5,309.5 S,0,1,,0.45 F,0,80422,81022,0,1
Sprite,Overlay,Centre,"default-root.png",227.5,309.5 S,0,1,,0.45 F,0,80422,81022,0,1
Sprite,Overlay,Centre,"hitcircle.png",464.5,384.5 S,0,1,,0.5752727 F,0,82136,82736,0,1 M,1,82451,82736,512.5,156.5,464.5,384.5 C,0,82451,82736,200,200,200,246,181,52 S,0,82736,82786,0.5752727,0.75 F,0,82736,82936,1,0
Sprite,Overlay,Centre,"hitcircleoverlay.png",464.5,384.5 S,0,1,,0.5752727 F,0,82136,82736,0,1 M,1,82451,82736,512.5,156.5,464.5,384.5 S,0,82736,82786,0.5752727,0.75 F,0,82736,82936,1,0
Sprite,Overlay,Centre,"approachcircle.png",464.5,384.5 C,0,1,,0,0,0,246,181,52 F,0,82136,82736,0,1 S,0,82136,82736,2.15,0.5896
Sprite,Overlay,Centre,"default-0.png",512.5,156.5 S,0,1,,0.45 F,0,82136,82450,0,0.525 F,0,82450,82451,0.525,0
Sprite,Overlay,Centre,"hitcircle_target.png",464.5,384.5 S,0,1,,0.5752727 F,0,82136,82736,0,1 S,0,82736,82786,0.5752727,0.75 F,0,82736,82936,1,0
Sprite,Overlay,Centre,"default-1.png",464.5,384.5 F,0,1,,0 S,0,1,,0.45 M,1,82451,82736,512.5,156.5,464.5,384.5 F,0,82451,82736,0.525,1
Sprite,Overlay,Centre,"hitcircle.png",132.5,224.5 S,0,1,,0.5752727 F,0,83279,83879,0,1 M,1,83594,83879,344.5,396.5,132.5,224.5 C,0,83594,83879,200,200,200,76,98,216 S,0,83879,83929,0.5752727,0.75 F,0,83879,84079,1,0
Sprite,Overlay,Centre,"hitcircleoverlay.png",132.5,224.5 S,0,1,,0.5752727 F,0,83279,83879,0,1 M,1,83594,83879,344.5,396.5,132.5,224.5 S,0,83879,83929,0.5752727,0.75 F,0,83879,84079,1,0
Sprite,Overlay,Centre,"approachcircle.png",132.5,224.5 C,0,1,,0,0,0,76,98,216 F,0,83279,83879,0,1 S,0,83279,83879,2.15,0.5896
Sprite,Overlay,Centre,"default-0.png",344.5,396.5 S,0,1,,0.45 F,0,83279,83593,0,0.525 F,0,83593,83594,0.525,0
Sprite,Overlay,Centre,"hitcircle_target.png",132.5,224.5 S,0,1,,0.5752727 F,0,83279,83879,0,1 S,0,83879,83929,0.5752727,0.75 F,0,83879,84079,1,0
Sprite,Overlay,Centre,"default-1.png",132.5,224.5 F,0,1,,0 S,0,1,,0.45 M,1,83594,83879,344.5,396.5,132.5,224.5 F,0,83594,83879,0.525,1
Sprite,Overlay,Centre,"hitcircle.png",344.5,368.5 S,0,1,,0.5752727 F,0,83851,84451,0,1 M,1,84165,84451,256.5,108.5,344.5,368.5 C,0,84165,84451,200,200,200,204,6,6 S,0,84451,84501,0.5752727,0.75 F,0,84451,84651,1,0
Sprite,Overlay,Centre,"hitcircleoverlay.png",344.5,368.5 S,0,1,,0.5752727 F,0,83851,84451,0,1 M,1,84165,84451,256.5,108.5,344.5,368.5 S,0,84451,84501,0.5752727,0.75 F,0,84451,84651,1,0
Sprite,Overlay,Centre,"approachcircle.png",344.5,368.5 C,0,1,,0,0,0,204,6,6 F,0,83851,84451,0,1 S,0,83851,84451,2.15,0.5896
Sprite,Overlay,Centre,"default-0.png",256.5,108.5 S,0,1,,0.45 F,0,83851,84164,0,0.525 F,0,84164,84165,0.525,0
Sprite,Overlay,Centre,"hitcircle_target.png",344.5,368.5 S,0,1,,0.5752727 F,0,83851,84451,0,1 S,0,84451,84501,0.5752727,0.75 F,0,84451,84651,1,0
Sprite,Overlay,Centre,"default-1.png",344.5,368.5 F,0,1,,0 S,0,1,,0.45 M,1,84165,84451,256.5,108.5,344.5,368.5 F,0,84165,84451,0.525,1
Sprite,Overlay,Centre,"hitcircle.png",228.5,240.5 S,0,1,,0.5752727 F,0,84422,85022,0,1 M,1,84736,85022,500.5,288.5,228.5,240.5 C,0,84736,85022,200,200,200,246,181,52 S,0,85022,85072,0.5752727,0.75 F,0,85022,85222,1,0
Sprite,Overlay,Centre,"hitcircleoverlay.png",228.5,240.5 S,0,1,,0.5752727 F,0,84422,85022,0,1 M,1,84736,85022,500.5,288.5,228.5,240.5 S,0,85022,85072,0.5752727,0.75 F,0,85022,85222,1,0
Sprite,Overlay,Centre,"approachcircle.png",228.5,240.5 C,0,1,,0,0,0,246,181,52 F,0,84422,85022,0,1 S,0,84422,85022,2.15,0.5896
Sprite,Overlay,Centre,"default-0.png",500.5,288.5 S,0,1,,0.45 F,0,84422,84735,0,0.525 F,0,84735,84736,0.525,0
Sprite,Overlay,Centre,"hitcircle_target.png",228.5,240.5 S,0,1,,0.5752727 F,0,84422,85022,0,1 S,0,85022,85072,0.5752727,0.75 F,0,85022,85222,1,0
Sprite,Overlay,Centre,"default-1.png",228.5,240.5 F,0,1,,0 S,0,1,,0.45 M,1,84736,85022,500.5,288.5,228.5,240.5 F,0,84736,85022,0.525,1
Sprite,Overlay,Centre,"chill_out_its_just_an_illusion.png",303.7091,138.7636 F,0,85594,87308,0,0.4 S,0,85594,88424,0.7,0.8 R,0,85594,88424,0,-0.2 F,0,87308,88424,0.5,0
Sprite,Overlay,Centre,"selection-mods-cs7.png",648.7,100 S,0,1,,0.8 F,0,85979,87866,0,1 S,0,86165,87866,0.8,0.5 F,0,91878,92133,1,0 F,0,92388,92644,0,1 F,0,94133,94256,1,0 S,0,94133,94256,0.5,0.4
Sprite,Overlay,Centre,"selection-mods-cs9.png",648.7,100 F,0,1,,0 S,0,1,,0.4 F,0,94133,94256,0,1 F,0,95358,95603,1,0 F,0,95603,95848,0,1 F,0,95848,96092,1,0 F,0,96092,96337,0,1 F,0,97317,97562,1,0 F,0,97807,98052,0,1 F,0,99276,99460,1,0 S,0,99276,99460,0.4,0.6
Sprite,Overlay,Centre,"hitcircle.png",128.5,216.5 S,0,1,,0.5752727 C,0,1,,0,0,0,76,98,216 F,0,85565,86165,0,1 S,0,86165,86215,0.5752727,0.75 F,0,86165,86365,1,0
Sprite,Overlay,Centre,"hitcircleoverlay.png",128.5,216.5 S,0,1,,0.5752727 F,0,85565,86165,0,1 S,0,86165,86215,0.5752727,0.75 F,0,86165,86365,1,0
Sprite,Overlay,Centre,"approachcircle.png",128.5,216.5 C,0,1,,0,0,0,76,98,216 F,0,85565,86165,0,1 S,0,85565,86165,2.15,0.5896
Sprite,Overlay,Centre,"default-1.png",128.5,216.5 S,0,1,,0.45 F,0,85565,86165,0,1
Sprite,Overlay,Centre,"hitcircle.png",180.5,292.5 S,0,1,,0.5401067 C,0,1,,0,0,0,76,98,216 F,0,85851,86451,0,1 S,0,86451,86501,0.5401067,0.7041529 F,0,86451,86651,1,0
Sprite,Overlay,Centre,"hitcircleoverlay.png",180.5,292.5 S,0,1,,0.5401067 F,0,85851,86451,0,1 S,0,86451,86501,0.5401067,0.7041529 F,0,86451,86651,1,0
Sprite,Overlay,Centre,"approachcircle.png",180.5,292.5 C,0,1,,0,0,0,76,98,216 F,0,85851,86451,0,1 S,0,85851,86451,2.018572,0.5535581
Sprite,Overlay,Centre,"default-2.png",180.5,292.5 S,0,1,,0.4224918 F,0,85851,86451,0,1
Sprite,Overlay,Centre,"hitcircle.png",244.5,216.5 S,0,1,,0.5047829 C,0,1,,0,0,0,76,98,216 F,0,86136,86736,0,1 S,0,86736,86786,0.5047829,0.6581003 F,0,86736,86936,1,0
Sprite,Overlay,Centre,"hitcircleoverlay.png",244.5,216.5 S,0,1,,0.5047829 F,0,86136,86736,0,1 S,0,86736,86786,0.5047829,0.6581003 F,0,86736,86936,1,0
Sprite,Overlay,Centre,"approachcircle.png",244.5,216.5 C,0,1,,0,0,0,76,98,216 F,0,86136,86736,0,1 S,0,86136,86736,1.886554,0.5173546
Sprite,Overlay,Centre,"default-3.png",244.5,216.5 S,0,1,,0.3948602 F,0,86136,86736,0,1
Sprite,Overlay,Centre,"hitcircle.png",304.5,292.5 S,0,1,,0.4694591 C,0,1,,0,0,0,76,98,216 F,0,86422,87022,0,1 S,0,87022,87072,0.4694591,0.6120477 F,0,87022,87222,1,0
Sprite,Overlay,Centre,"hitcircleoverlay.png",304.5,292.5 S,0,1,,0.4694591 F,0,86422,87022,0,1 S,0,87022,87072,0.4694591,0.6120477 F,0,87022,87222,1,0
Sprite,Overlay,Centre,"approachcircle.png",304.5,292.5 C,0,1,,0,0,0,76,98,216 F,0,86422,87022,0,1 S,0,86422,87022,1.754537,0.4811511
Sprite,Overlay,Centre,"default-4.png",304.5,292.5 S,0,1,,0.3672286 F,0,86422,87022,0,1
Sprite,Overlay,Centre,"hitcircle.png",368.5,216.5 S,0,1,,0.4341353 C,0,1,,0,0,0,76,98,216 F,0,86708,87308,0,1 S,0,87308,87358,0.4341353,0.565995 F,0,87308,87508,1,0
Sprite,Overlay,Centre,"hitcircleoverlay.png",368.5,216.5 S,0,1,,0.4341353 F,0,86708,87308,0,1 S,0,87308,87358,0.4341353,0.565995 F,0,87308,87508,1,0
Sprite,Overlay,Centre,"approachcircle.png",368.5,216.5 C,0,1,,0,0,0,76,98,216 F,0,86708,87308,0,1 S,0,86708,87308,1.622519,0.4449476
Sprite,Overlay,Centre,"default-5.png",368.5,216.5 S,0,1,,0.339597 F,0,86708,87308,0,1
Sprite,Overlay,Centre,"hitcircle.png",424.5,292.5 S,0,1,,0.3988116 C,0,1,,0,0,0,76,98,216 F,0,86987,87587,0,1 S,0,87587,87637,0.3988116,0.5199425 F,0,87587,87787,1,0
Sprite,Overlay,Centre,"hitcircleoverlay.png",424.5,292.5 S,0,1,,0.3988116 F,0,86987,87587,0,1 S,0,87587,87637,0.3988116,0.5199425 F,0,87587,87787,1,0
Sprite,Overlay,Centre,"approachcircle.png",424.5,292.5 C,0,1,,0,0,0,76,98,216 F,0,86987,87587,0,1 S,0,86987,87587,1.490502,0.4087441
Sprite,Overlay,Centre,"default-6.png",424.5,292.5 S,0,1,,0.3119655 F,0,86987,87587,0,1
Sprite,Overlay,Centre,"hitcircle.png",484.5,216.5 S,0,1,,0.3634878 C,0,1,,0,0,0,76,98,216 F,0,87266,87866,0,1 S,0,87866,87916,0.3634878,0.4738898 F,0,87866,88066,1,0
Sprite,Overlay,Centre,"hitcircleoverlay.png",484.5,216.5 S,0,1,,0.3634878 F,0,87266,87866,0,1 S,0,87866,87916,0.3634878,0.4738898 F,0,87866,88066,1,0
Sprite,Overlay,Centre,"approachcircle.png",484.5,216.5 C,0,1,,0,0,0,76,98,216 F,0,87266,87866,0,1 S,0,87266,87866,1.358484,0.3725406
Sprite,Overlay,Centre,"default-7.png",484.5,216.5 S,0,1,,0.2843339 F,0,87266,87866,0,1
Sprite,Overlay,Centre,"hitcircle.png",544.5,292.5 S,0,1,,0.3634878 C,0,1,,0,0,0,76,98,216 F,0,87545,88145,0,1 S,0,88145,88195,0.3634878,0.4738898 F,0,88145,88345,1,0
Sprite,Overlay,Centre,"hitcircleoverlay.png",544.5,292.5 S,0,1,,0.3634878 F,0,87545,88145,0,1 S,0,88145,88195,0.3634878,0.4738898 F,0,88145,88345,1,0
Sprite,Overlay,Centre,"approachcircle.png",544.5,292.5 C,0,1,,0,0,0,76,98,216 F,0,87545,88145,0,1 S,0,87545,88145,1.358484,0.3725406
Sprite,Overlay,Centre,"default-8.png",544.5,292.5 S,0,1,,0.2843339 F,0,87545,88145,0,1
Sprite,Overlay,Centre,"hitcircle.png",368.5,376.5 S,0,1,,0.3634878 C,0,1,,0,0,0,204,6,6 F,0,87824,88424,0,1 S,0,88424,88474,0.3634878,0.4738898 F,0,88424,88624,1,0
Sprite,Overlay,Centre,"hitcircleoverlay.png",368.5,376.5 S,0,1,,0.3634878 F,0,87824,88424,0,1 S,0,88424,88474,0.3634878,0.4738898 F,0,88424,88624,1,0
Sprite,Overlay,Centre,"approachcircle.png",368.5,376.5 C,0,1,,0,0,0,204,6,6 F,0,87824,88424,0,1 S,0,87824,88424,1.358484,0.3725406
Sprite,Overlay,Centre,"default-1.png",368.5,376.5 S,0,1,,0.2843339 F,0,87824,88424,0,1
Sprite,Overlay,Centre,"hitcircle.png",308.5,364.5 S,0,1,,0.3634878 C,0,1,,0,0,0,204,6,6 F,0,87960,88560,0,1 S,0,88560,88610,0.3634878,0.4738898 F,0,88560,88760,1,0
Sprite,Overlay,Centre,"hitcircleoverlay.png",308.5,364.5 S,0,1,,0.3634878 F,0,87960,88560,0,1 S,0,88560,88610,0.3634878,0.4738898 F,0,88560,88760,1,0
Sprite,Overlay,Centre,"approachcircle.png",308.5,364.5 C,0,1,,0,0,0,204,6,6 F,0,87960,88560,0,1 S,0,87960,88560,1.358484,0.3725406
Sprite,Overlay,Centre,"default-2.png",308.5,364.5 S,0,1,,0.2843339 F,0,87960,88560,0,1
Sprite,Overlay,Centre,"hitcircle.png",252.5,336.5 S,0,1,,0.3634878 C,0,1,,0,0,0,204,6,6 F,0,88096,88696,0,1 S,0,88696,88746,0.3634878,0.4738898 F,0,88696,88896,1,0
Sprite,Overlay,Centre,"hitcircleoverlay.png",252.5,336.5 S,0,1,,0.3634878 F,0,88096,88696,0,1 S,0,88696,88746,0.3634878,0.4738898 F,0,88696,88896,1,0
Sprite,Overlay,Centre,"approachcircle.png",252.5,336.5 C,0,1,,0,0,0,204,6,6 F,0,88096,88696,0,1 S,0,88096,88696,1.358484,0.3725406
Sprite,Overlay,Centre,"default-3.png",252.5,336.5 S,0,1,,0.2843339 F,0,88096,88696,0,1
Sprite,Overlay,Centre,"hitcircle.png",228.5,276.5 S,0,1,,0.3634878 C,0,1,,0,0,0,204,6,6 F,0,88233,88833,0,1 S,0,88833,88883,0.3634878,0.4738898 F,0,88833,89033,1,0
Sprite,Overlay,Centre,"hitcircleoverlay.png",228.5,276.5 S,0,1,,0.3634878 F,0,88233,88833,0,1 S,0,88833,88883,0.3634878,0.4738898 F,0,88833,89033,1,0
Sprite,Overlay,Centre,"approachcircle.png",228.5,276.5 C,0,1,,0,0,0,204,6,6 F,0,88233,88833,0,1 S,0,88233,88833,1.358484,0.3725406
Sprite,Overlay,Centre,"default-4.png",228.5,276.5 S,0,1,,0.2843339 F,0,88233,88833,0,1
Sprite,Overlay,Centre,"hitcircle.png",240.5,216.5 S,0,1,,0.3634878 C,0,1,,0,0,0,204,6,6 F,0,88369,88969,0,1 S,0,88969,89019,0.3634878,0.4738898 F,0,88969,89169,1,0
Sprite,Overlay,Centre,"hitcircleoverlay.png",240.5,216.5 S,0,1,,0.3634878 F,0,88369,88969,0,1 S,0,88969,89019,0.3634878,0.4738898 F,0,88969,89169,1,0
Sprite,Overlay,Centre,"approachcircle.png",240.5,216.5 C,0,1,,0,0,0,204,6,6 F,0,88369,88969,0,1 S,0,88369,88969,1.358484,0.3725406
Sprite,Overlay,Centre,"default-5.png",240.5,216.5 S,0,1,,0.2843339 F,0,88369,88969,0,1
Sprite,Overlay,Centre,"hitcircle.png",284.5,172.5 S,0,1,,0.3634878 C,0,1,,0,0,0,204,6,6 F,0,88505,89105,0,1 S,0,89105,89155,0.3634878,0.4738898 F,0,89105,89305,1,0
Sprite,Overlay,Centre,"hitcircleoverlay.png",284.5,172.5 S,0,1,,0.3634878 F,0,88505,89105,0,1 S,0,89105,89155,0.3634878,0.4738898 F,0,89105,89305,1,0
Sprite,Overlay,Centre,"approachcircle.png",284.5,172.5 C,0,1,,0,0,0,204,6,6 F,0,88505,89105,0,1 S,0,88505,89105,1.358484,0.3725406
Sprite,Overlay,Centre,"default-6.png",284.5,172.5 S,0,1,,0.2843339 F,0,88505,89105,0,1
Sprite,Overlay,Centre,"hitcircle.png",344.5,156.5 S,0,1,,0.3634878 C,0,1,,0,0,0,204,6,6 F,0,88642,89242,0,1 S,0,89242,89292,0.3634878,0.4738898 F,0,89242,89442,1,0
Sprite,Overlay,Centre,"hitcircleoverlay.png",344.5,156.5 S,0,1,,0.3634878 F,0,88642,89242,0,1 S,0,89242,89292,0.3634878,0.4738898 F,0,89242,89442,1,0
Sprite,Overlay,Centre,"approachcircle.png",344.5,156.5 C,0,1,,0,0,0,204,6,6 F,0,88642,89242,0,1 S,0,88642,89242,1.358484,0.3725406
Sprite,Overlay,Centre,"default-7.png",344.5,156.5 S,0,1,,0.2843339 F,0,88642,89242,0,1
Sprite,Overlay,Centre,"hitcircle.png",404.5,176.5 S,0,1,,0.3634878 C,0,1,,0,0,0,204,6,6 F,0,88778,89378,0,1 S,0,89378,89428,0.3634878,0.4738898 F,0,89378,89578,1,0
Sprite,Overlay,Centre,"hitcircleoverlay.png",404.5,176.5 S,0,1,,0.3634878 F,0,88778,89378,0,1 S,0,89378,89428,0.3634878,0.4738898 F,0,89378,89578,1,0
Sprite,Overlay,Centre,"approachcircle.png",404.5,176.5 C,0,1,,0,0,0,204,6,6 F,0,88778,89378,0,1 S,0,88778,89378,1.358484,0.3725406
Sprite,Overlay,Centre,"default-8.png",404.5,176.5 S,0,1,,0.2843339 F,0,88778,89378,0,1
Sprite,Overlay,Centre,"hitcircle.png",448.5,224.5 S,0,1,,0.3634878 C,0,1,,0,0,0,246,181,52 F,0,88914,89514,0,1 S,0,89514,89564,0.3634878,0.4738898 F,0,89514,89714,1,0
Sprite,Overlay,Centre,"hitcircleoverlay.png",448.5,224.5 S,0,1,,0.3634878 F,0,88914,89514,0,1 S,0,89514,89564,0.3634878,0.4738898 F,0,89514,89714,1,0
Sprite,Overlay,Centre,"approachcircle.png",448.5,224.5 C,0,1,,0,0,0,246,181,52 F,0,88914,89514,0,1 S,0,88914,89514,1.358484,0.3725406
Sprite,Overlay,Centre,"default-1.png",448.5,224.5 S,0,1,,0.2843339 F,0,88914,89514,0,1
Sprite,Overlay,Centre,"hitcircle.png",448.5,224.5 S,0,1,,0.3634878 C,0,1,,0,0,0,246,181,52 F,0,89047,89647,0,1 S,0,89647,89697,0.3634878,0.4738898 F,0,89647,89847,1,0
Sprite,Overlay,Centre,"hitcircleoverlay.png",448.5,224.5 S,0,1,,0.3634878 F,0,89047,89647,0,1 S,0,89647,89697,0.3634878,0.4738898 F,0,89647,89847,1,0
Sprite,Overlay,Centre,"approachcircle.png",448.5,224.5 C,0,1,,0,0,0,246,181,52 F,0,89047,89647,0,1 S,0,89047,89647,1.358484,0.3725406
Sprite,Overlay,Centre,"default-2.png",448.5,224.5 S,0,1,,0.2843339 F,0,89047,89647,0,1
Sprite,Overlay,Centre,"hitcircle.png",388.5,276.5 S,0,1,,0.3634878 C,0,1,,0,0,0,246,181,52 F,0,89180,89780,0,1 S,0,89780,89830,0.3634878,0.4738898 F,0,89780,89980,1,0
Sprite,Overlay,Centre,"hitcircleoverlay.png",388.5,276.5 S,0,1,,0.3634878 F,0,89180,89780,0,1 S,0,89780,89830,0.3634878,0.4738898 F,0,89780,89980,1,0
Sprite,Overlay,Centre,"approachcircle.png",388.5,276.5 C,0,1,,0,0,0,246,181,52 F,0,89180,89780,0,1 S,0,89180,89780,1.358484,0.3725406
Sprite,Overlay,Centre,"default-3.png",388.5,276.5 S,0,1,,0.2843339 F,0,89180,89780,0,1
Sprite,Overlay,Centre,"hitcircle.png",388.5,276.5 S,0,1,,0.3634878 C,0,1,,0,0,0,246,181,52 F,0,89314,89914,0,1 S,0,89914,89964,0.3634878,0.4738898 F,0,89914,90114,1,0
Sprite,Overlay,Centre,"hitcircleoverlay.png",388.5,276.5 S,0,1,,0.3634878 F,0,89314,89914,0,1 S,0,89914,89964,0.3634878,0.4738898 F,0,89914,90114,1,0
Sprite,Overlay,Centre,"approachcircle.png",388.5,276.5 C,0,1,,0,0,0,246,181,52 F,0,89314,89914,0,1 S,0,89314,89914,1.358484,0.3725406
Sprite,Overlay,Centre,"default-4.png",388.5,276.5 S,0,1,,0.2843339 F,0,89314,89914,0,1
Sprite,Overlay,Centre,"hitcircle.png",312.5,284.5 S,0,1,,0.3634878 C,0,1,,0,0,0,246,181,52 F,0,89447,90047,0,1 S,0,90047,90097,0.3634878,0.4738898 F,0,90047,90247,1,0
Sprite,Overlay,Centre,"hitcircleoverlay.png",312.5,284.5 S,0,1,,0.3634878 F,0,89447,90047,0,1 S,0,90047,90097,0.3634878,0.4738898 F,0,90047,90247,1,0
Sprite,Overlay,Centre,"approachcircle.png",312.5,284.5 C,0,1,,0,0,0,246,181,52 F,0,89447,90047,0,1 S,0,89447,90047,1.358484,0.3725406
Sprite,Overlay,Centre,"default-5.png",312.5,284.5 S,0,1,,0.2843339 F,0,89447,90047,0,1
Sprite,Overlay,Centre,"hitcircle.png",312.5,284.5 S,0,1,,0.3634878 C,0,1,,0,0,0,246,181,52 F,0,89580,90180,0,1 S,0,90180,90230,0.3634878,0.4738898 F,0,90180,90380,1,0
Sprite,Overlay,Centre,"hitcircleoverlay.png",312.5,284.5 S,0,1,,0.3634878 F,0,89580,90180,0,1 S,0,90180,90230,0.3634878,0.4738898 F,0,90180,90380,1,0
Sprite,Overlay,Centre,"approachcircle.png",312.5,284.5 C,0,1,,0,0,0,246,181,52 F,0,89580,90180,0,1 S,0,89580,90180,1.358484,0.3725406
Sprite,Overlay,Centre,"default-6.png",312.5,284.5 S,0,1,,0.2843339 F,0,89580,90180,0,1
Sprite,Overlay,Centre,"hitcircle.png",244.5,252.5 S,0,1,,0.3634878 C,0,1,,0,0,0,246,181,52 F,0,89714,90314,0,1 S,0,90314,90364,0.3634878,0.4738898 F,0,90314,90514,1,0
Sprite,Overlay,Centre,"hitcircleoverlay.png",244.5,252.5 S,0,1,,0.3634878 F,0,89714,90314,0,1 S,0,90314,90364,0.3634878,0.4738898 F,0,90314,90514,1,0
Sprite,Overlay,Centre,"approachcircle.png",244.5,252.5 C,0,1,,0,0,0,246,181,52 F,0,89714,90314,0,1 S,0,89714,90314,1.358484,0.3725406
Sprite,Overlay,Centre,"default-7.png",244.5,252.5 S,0,1,,0.2843339 F,0,89714,90314,0,1
Sprite,Overlay,Centre,"hitcircle.png",244.5,252.5 S,0,1,,0.3634878 C,0,1,,0,0,0,246,181,52 F,0,89847,90447,0,1 S,0,90447,90497,0.3634878,0.4738898 F,0,90447,90647,1,0
Sprite,Overlay,Centre,"hitcircleoverlay.png",244.5,252.5 S,0,1,,0.3634878 F,0,89847,90447,0,1 S,0,90447,90497,0.3634878,0.4738898 F,0,90447,90647,1,0
Sprite,Overlay,Centre,"approachcircle.png",244.5,252.5 C,0,1,,0,0,0,246,181,52 F,0,89847,90447,0,1 S,0,89847,90447,1.358484,0.3725406
Sprite,Overlay,Centre,"default-8.png",244.5,252.5 S,0,1,,0.2843339 F,0,89847,90447,0,1
Sprite,Overlay,Centre,"hitcircle.png",204.5,196.5 S,0,1,,0.3634878 C,0,1,,0,0,0,76,98,216 F,0,89980,90580,0,1 S,0,90580,90630,0.3634878,0.4738898 F,0,90580,90780,1,0
Sprite,Overlay,Centre,"hitcircleoverlay.png",204.5,196.5 S,0,1,,0.3634878 F,0,89980,90580,0,1 S,0,90580,90630,0.3634878,0.4738898 F,0,90580,90780,1,0
Sprite,Overlay,Centre,"approachcircle.png",204.5,196.5 C,0,1,,0,0,0,76,98,216 F,0,89980,90580,0,1 S,0,89980,90580,1.358484,0.3725406
Sprite,Overlay,Centre,"default-1.png",204.5,196.5 S,0,1,,0.2843339 F,0,89980,90580,0,1
Sprite,Overlay,Centre,"hitcircle.png",152.5,164.5 S,0,1,,0.3634878 C,0,1,,0,0,0,76,98,216 F,0,90110,90710,0,1 S,0,90710,90760,0.3634878,0.4738898 F,0,90710,90910,1,0
Sprite,Overlay,Centre,"hitcircleoverlay.png",152.5,164.5 S,0,1,,0.3634878 F,0,90110,90710,0,1 S,0,90710,90760,0.3634878,0.4738898 F,0,90710,90910,1,0
Sprite,Overlay,Centre,"approachcircle.png",152.5,164.5 C,0,1,,0,0,0,76,98,216 F,0,90110,90710,0,1 S,0,90110,90710,1.358484,0.3725406
Sprite,Overlay,Centre,"default-2.png",152.5,164.5 S,0,1,,0.2843339 F,0,90110,90710,0,1
Sprite,Overlay,Centre,"hitcircle.png",92.5,172.5 S,0,1,,0.3634878 C,0,1,,0,0,0,76,98,216 F,0,90240,90840,0,1 S,0,90840,90890,0.3634878,0.4738898 F,0,90840,91040,1,0
Sprite,Overlay,Centre,"hitcircleoverlay.png",92.5,172.5 S,0,1,,0.3634878 F,0,90240,90840,0,1 S,0,90840,90890,0.3634878,0.4738898 F,0,90840,91040,1,0
Sprite,Overlay,Centre,"approachcircle.png",92.5,172.5 C,0,1,,0,0,0,76,98,216 F,0,90240,90840,0,1 S,0,90240,90840,1.358484,0.3725406
Sprite,Overlay,Centre,"default-3.png",92.5,172.5 S,0,1,,0.2843339 F,0,90240,90840,0,1
Sprite,Overlay,Centre,"hitcircle.png",64.5,228.5 S,0,1,,0.3634878 C,0,1,,0,0,0,76,98,216 F,0,90371,90971,0,1 S,0,90971,91021,0.3634878,0.4738898 F,0,90971,91171,1,0
Sprite,Overlay,Centre,"hitcircleoverlay.png",64.5,228.5 S,0,1,,0.3634878 F,0,90371,90971,0,1 S,0,90971,91021,0.3634878,0.4738898 F,0,90971,91171,1,0
Sprite,Overlay,Centre,"approachcircle.png",64.5,228.5 C,0,1,,0,0,0,76,98,216 F,0,90371,90971,0,1 S,0,90371,90971,1.358484,0.3725406
Sprite,Overlay,Centre,"default-4.png",64.5,228.5 S,0,1,,0.2843339 F,0,90371,90971,0,1
Sprite,Overlay,Centre,"hitcircle.png",76.5,288.5 S,0,1,,0.3634878 C,0,1,,0,0,0,76,98,216 F,0,90501,91101,0,1 S,0,91101,91151,0.3634878,0.4738898 F,0,91101,91301,1,0
Sprite,Overlay,Centre,"hitcircleoverlay.png",76.5,288.5 S,0,1,,0.3634878 F,0,90501,91101,0,1 S,0,91101,91151,0.3634878,0.4738898 F,0,91101,91301,1,0
Sprite,Overlay,Centre,"approachcircle.png",76.5,288.5 C,0,1,,0,0,0,76,98,216 F,0,90501,91101,0,1 S,0,90501,91101,1.358484,0.3725406
Sprite,Overlay,Centre,"default-5.png",76.5,288.5 S,0,1,,0.2843339 F,0,90501,91101,0,1
Sprite,Overlay,Centre,"hitcircle.png",116.5,336.5 S,0,1,,0.3634878 C,0,1,,0,0,0,76,98,216 F,0,90632,91232,0,1 S,0,91232,91282,0.3634878,0.4738898 F,0,91232,91432,1,0
Sprite,Overlay,Centre,"hitcircleoverlay.png",116.5,336.5 S,0,1,,0.3634878 F,0,90632,91232,0,1 S,0,91232,91282,0.3634878,0.4738898 F,0,91232,91432,1,0
Sprite,Overlay,Centre,"approachcircle.png",116.5,336.5 C,0,1,,0,0,0,76,98,216 F,0,90632,91232,0,1 S,0,90632,91232,1.358484,0.3725406
Sprite,Overlay,Centre,"default-6.png",116.5,336.5 S,0,1,,0.2843339 F,0,90632,91232,0,1
Sprite,Overlay,Centre,"hitcircle.png",172.5,360.5 S,0,1,,0.3634878 C,0,1,,0,0,0,76,98,216 F,0,90762,91362,0,1 S,0,91362,91412,0.3634878,0.4738898 F,0,91362,91562,1,0
Sprite,Overlay,Centre,"hitcircleoverlay.png",172.5,360.5 S,0,1,,0.3634878 F,0,90762,91362,0,1 S,0,91362,91412,0.3634878,0.4738898 F,0,91362,91562,1,0
Sprite,Overlay,Centre,"approachcircle.png",172.5,360.5 C,0,1,,0,0,0,76,98,216 F,0,90762,91362,0,1 S,0,90762,91362,1.358484,0.3725406
Sprite,Overlay,Centre,"default-7.png",172.5,360.5 S,0,1,,0.2843339 F,0,90762,91362,0,1
Sprite,Overlay,Centre,"hitcircle.png",236.5,360.5 S,0,1,,0.3634878 C,0,1,,0,0,0,76,98,216 F,0,90893,91493,0,1 S,0,91493,91543,0.3634878,0.4738898 F,0,91493,91693,1,0
Sprite,Overlay,Centre,"hitcircleoverlay.png",236.5,360.5 S,0,1,,0.3634878 F,0,90893,91493,0,1 S,0,91493,91543,0.3634878,0.4738898 F,0,91493,91693,1,0
Sprite,Overlay,Centre,"approachcircle.png",236.5,360.5 C,0,1,,0,0,0,76,98,216 F,0,90893,91493,0,1 S,0,90893,91493,1.358484,0.3725406
Sprite,Overlay,Centre,"default-8.png",236.5,360.5 S,0,1,,0.2843339 F,0,90893,91493,0,1
Sprite,Overlay,Centre,"hitcircle.png",296.5,340.5 S,0,1,,0.3634878 C,0,1,,0,0,0,204,6,6 F,0,91023,91623,0,1 S,0,91623,91673,0.3634878,0.4738898 F,0,91623,91823,1,0
Sprite,Overlay,Centre,"hitcircleoverlay.png",296.5,340.5 S,0,1,,0.3634878 F,0,91023,91623,0,1 S,0,91623,91673,0.3634878,0.4738898 F,0,91623,91823,1,0
Sprite,Overlay,Centre,"approachcircle.png",296.5,340.5 C,0,1,,0,0,0,204,6,6 F,0,91023,91623,0,1 S,0,91023,91623,1.358484,0.3725406
Sprite,Overlay,Centre,"default-1.png",296.5,340.5 S,0,1,,0.2843339 F,0,91023,91623,0,1
Sprite,Overlay,Centre,"hitcircle.png",340.5,296.5 S,0,1,,0.3634878 C,0,1,,0,0,0,204,6,6 F,0,91150,91750,0,1 S,0,91750,91800,0.3634878,0.4738898 F,0,91750,91950,1,0
Sprite,Overlay,Centre,"hitcircleoverlay.png",340.5,296.5 S,0,1,,0.3634878 F,0,91150,91750,0,1 S,0,91750,91800,0.3634878,0.4738898 F,0,91750,91950,1,0
Sprite,Overlay,Centre,"approachcircle.png",340.5,296.5 C,0,1,,0,0,0,204,6,6 F,0,91150,91750,0,1 S,0,91150,91750,1.358484,0.3725406
Sprite,Overlay,Centre,"default-2.png",340.5,296.5 S,0,1,,0.2843339 F,0,91150,91750,0,1
Sprite,Overlay,Centre,"hitcircle.png",364.5,240.5 S,0,1,,0.3634878 C,0,1,,0,0,0,204,6,6 F,0,91278,91878,0,1 S,0,91878,91928,0.3634878,0.4738898 F,0,91878,92078,1,0
Sprite,Overlay,Centre,"hitcircleoverlay.png",364.5,240.5 S,0,1,,0.3634878 F,0,91278,91878,0,1 S,0,91878,91928,0.3634878,0.4738898 F,0,91878,92078,1,0
Sprite,Overlay,Centre,"approachcircle.png",364.5,240.5 C,0,1,,0,0,0,204,6,6 F,0,91278,91878,0,1 S,0,91278,91878,1.358484,0.3725406
Sprite,Overlay,Centre,"default-3.png",364.5,240.5 S,0,1,,0.2843339 F,0,91278,91878,0,1
Sprite,Overlay,Centre,"hitcircle.png",404.5,192.5 S,0,1,,0.3634878 C,0,1,,0,0,0,204,6,6 F,0,91405,92005,0,1 S,0,92005,92055,0.3634878,0.4738898 F,0,92005,92205,1,0
Sprite,Overlay,Centre,"hitcircleoverlay.png",404.5,192.5 S,0,1,,0.3634878 F,0,91405,92005,0,1 S,0,92005,92055,0.3634878,0.4738898 F,0,92005,92205,1,0
Sprite,Overlay,Centre,"approachcircle.png",404.5,192.5 C,0,1,,0,0,0,204,6,6 F,0,91405,92005,0,1 S,0,91405,92005,1.358484,0.3725406
Sprite,Overlay,Centre,"default-4.png",404.5,192.5 S,0,1,,0.2843339 F,0,91405,92005,0,1
Sprite,Overlay,Centre,"hitcircle.png",448.5,352.5 S,0,1,,0.3634878 C,0,1,,0,0,0,246,181,52 F,0,92044,92644,0,1 S,0,92644,92694,0.3634878,0.4738898 F,0,92644,92844,1,0
Sprite,Overlay,Centre,"hitcircleoverlay.png",448.5,352.5 S,0,1,,0.3634878 F,0,92044,92644,0,1 S,0,92644,92694,0.3634878,0.4738898 F,0,92644,92844,1,0
Sprite,Overlay,Centre,"approachcircle.png",448.5,352.5 C,0,1,,0,0,0,246,181,52 F,0,92044,92644,0,1 S,0,92044,92644,1.358484,0.3725406
Sprite,Overlay,Centre,"default-1.png",448.5,352.5 S,0,1,,0.2843339 F,0,92044,92644,0,1
Sprite,Overlay,Centre,"hitcircle.png",392.5,324.5 S,0,1,,0.3634878 C,0,1,,0,0,0,246,181,52 F,0,92169,92769,0,1 S,0,92769,92819,0.3634878,0.4738898 F,0,92769,92969,1,0
Sprite,Overlay,Centre,"hitcircleoverlay.png",392.5,324.5 S,0,1,,0.3634878 F,0,92169,92769,0,1 S,0,92769,92819,0.3634878,0.4738898 F,0,92769,92969,1,0
Sprite,Overlay,Centre,"approachcircle.png",392.5,324.5 C,0,1,,0,0,0,246,181,52 F,0,92169,92769,0,1 S,0,92169,92769,1.358484,0.3725406
Sprite,Overlay,Centre,"default-2.png",392.5,324.5 S,0,1,,0.2843339 F,0,92169,92769,0,1
Sprite,Overlay,Centre,"hitcircle.png",336.5,296.5 S,0,1,,0.3634878 C,0,1,,0,0,0,246,181,52 F,0,92294,92894,0,1 S,0,92894,92944,0.3634878,0.4738898 F,0,92894,93094,1,0
Sprite,Overlay,Centre,"hitcircleoverlay.png",336.5,296.5 S,0,1,,0.3634878 F,0,92294,92894,0,1 S,0,92894,92944,0.3634878,0.4738898 F,0,92894,93094,1,0
Sprite,Overlay,Centre,"approachcircle.png",336.5,296.5 C,0,1,,0,0,0,246,181,52 F,0,92294,92894,0,1 S,0,92294,92894,1.358484,0.3725406
Sprite,Overlay,Centre,"default-3.png",336.5,296.5 S,0,1,,0.2843339 F,0,92294,92894,0,1
Sprite,Overlay,Centre,"hitcircle.png",280.5,268.5 S,0,1,,0.3634878 C,0,1,,0,0,0,246,181,52 F,0,92419,93019,0,1 S,0,93019,93069,0.3634878,0.4738898 F,0,93019,93219,1,0
Sprite,Overlay,Centre,"hitcircleoverlay.png",280.5,268.5 S,0,1,,0.3634878 F,0,92419,93019,0,1 S,0,93019,93069,0.3634878,0.4738898 F,0,93019,93219,1,0
Sprite,Overlay,Centre,"approachcircle.png",280.5,268.5 C,0,1,,0,0,0,246,181,52 F,0,92419,93019,0,1 S,0,92419,93019,1.358484,0.3725406
Sprite,Overlay,Centre,"default-4.png",280.5,268.5 S,0,1,,0.2843339 F,0,92419,93019,0,1
Sprite,Overlay,Centre,"hitcircle.png",224.5,236.5 S,0,1,,0.3634878 C,0,1,,0,0,0,246,181,52 F,0,92544,93144,0,1 S,0,93144,93194,0.3634878,0.4738898 F,0,93144,93344,1,0
Sprite,Overlay,Centre,"hitcircleoverlay.png",224.5,236.5 S,0,1,,0.3634878 F,0,92544,93144,0,1 S,0,93144,93194,0.3634878,0.4738898 F,0,93144,93344,1,0
Sprite,Overlay,Centre,"approachcircle.png",224.5,236.5 C,0,1,,0,0,0,246,181,52 F,0,92544,93144,0,1 S,0,92544,93144,1.358484,0.3725406
Sprite,Overlay,Centre,"default-5.png",224.5,236.5 S,0,1,,0.2843339 F,0,92544,93144,0,1
Sprite,Overlay,Centre,"hitcircle.png",256.5,180.5 S,0,1,,0.3634878 C,0,1,,0,0,0,246,181,52 F,0,92669,93269,0,1 S,0,93269,93319,0.3634878,0.4738898 F,0,93269,93469,1,0
Sprite,Overlay,Centre,"hitcircleoverlay.png",256.5,180.5 S,0,1,,0.3634878 F,0,92669,93269,0,1 S,0,93269,93319,0.3634878,0.4738898 F,0,93269,93469,1,0
Sprite,Overlay,Centre,"approachcircle.png",256.5,180.5 C,0,1,,0,0,0,246,181,52 F,0,92669,93269,0,1 S,0,92669,93269,1.358484,0.3725406
Sprite,Overlay,Centre,"default-6.png",256.5,180.5 S,0,1,,0.2843339 F,0,92669,93269,0,1
Sprite,Overlay,Centre,"hitcircle.png",288.5,128.5 S,0,1,,0.3634878 C,0,1,,0,0,0,246,181,52 F,0,92794,93394,0,1 S,0,93394,93444,0.3634878,0.4738898 F,0,93394,93594,1,0
Sprite,Overlay,Centre,"hitcircleoverlay.png",288.5,128.5 S,0,1,,0.3634878 F,0,92794,93394,0,1 S,0,93394,93444,0.3634878,0.4738898 F,0,93394,93594,1,0
Sprite,Overlay,Centre,"approachcircle.png",288.5,128.5 C,0,1,,0,0,0,246,181,52 F,0,92794,93394,0,1 S,0,92794,93394,1.358484,0.3725406
Sprite,Overlay,Centre,"default-7.png",288.5,128.5 S,0,1,,0.2843339 F,0,92794,93394,0,1
Sprite,Overlay,Centre,"hitcircle.png",344.5,160.5 S,0,1,,0.3634878 C,0,1,,0,0,0,246,181,52 F,0,92919,93519,0,1 S,0,93519,93569,0.3634878,0.4738898 F,0,93519,93719,1,0
Sprite,Overlay,Centre,"hitcircleoverlay.png",344.5,160.5 S,0,1,,0.3634878 F,0,92919,93519,0,1 S,0,93519,93569,0.3634878,0.4738898 F,0,93519,93719,1,0
Sprite,Overlay,Centre,"approachcircle.png",344.5,160.5 C,0,1,,0,0,0,246,181,52 F,0,92919,93519,0,1 S,0,92919,93519,1.358484,0.3725406
Sprite,Overlay,Centre,"default-8.png",344.5,160.5 S,0,1,,0.2843339 F,0,92919,93519,0,1
Sprite,Overlay,Centre,"hitcircle.png",400.5,192.5 S,0,1,,0.3634878 C,0,1,,0,0,0,76,98,216 F,0,93044,93644,0,1 M,1,93644,93888,400.5,192.5,504.5,336.5 R,1,93644,94501,0,37.6991 S,0,94072,94133,0.3634878,0.4 S,0,94133,94256,0.4,0.2221928 C,0,94133,94256,76,98,216,204,6,6 S,0,94623,94673,0.2221928,0.2896793 F,0,94623,94823,1,0
Sprite,Overlay,Centre,"hitcircleoverlay.png",400.5,192.5 S,0,1,,0.3634878 F,0,93044,93644,0,1 M,1,93644,93888,400.5,192.5,504.5,336.5 R,1,93644,94501,0,37.6991 S,0,94072,94133,0.3634878,0.4 S,0,94133,94256,0.4,0.2221928 S,0,94623,94673,0.2221928,0.2896793 F,0,94623,94823,1,0
Sprite,Overlay,Centre,"approachcircle.png",400.5,192.5 C,0,1,,0,0,0,76,98,216 F,0,93044,93644,0,1 S,0,93044,93644,1.358484,0.3725406 M,1,93644,93888,400.5,192.5,504.5,336.5 F,0,94023,94623,0,1 S,0,94023,94623,0.8304139,0.2277265 C,0,94133,94256,76,98,216,204,6,6
Sprite,Overlay,Centre,"default-1.png",400.5,192.5 S,0,1,,0.2843339 F,0,93044,93644,0,1 M,1,93644,93888,400.5,192.5,504.5,336.5 R,1,93644,94501,0,37.6991 S,0,94133,94256,0.45,0.1738076 F,0,94623,,0
Sprite,Overlay,Centre,"hitcircle.png",444.5,348.5 S,0,1,,0.2221928 C,0,1,,0,0,0,204,6,6 F,0,94146,94746,0,1 S,0,94746,94796,0.2221928,0.2896793 F,0,94746,94946,1,0
Sprite,Overlay,Centre,"hitcircleoverlay.png",444.5,348.5 S,0,1,,0.2221928 F,0,94146,94746,0,1 S,0,94746,94796,0.2221928,0.2896793 F,0,94746,94946,1,0
Sprite,Overlay,Centre,"approachcircle.png",444.5,348.5 C,0,1,,0,0,0,204,6,6 F,0,94146,94746,0,1 S,0,94146,94746,0.8304139,0.2277265
Sprite,Overlay,Centre,"default-2.png",444.5,348.5 S,0,1,,0.1738076 F,0,94146,94746,0,1
Sprite,Overlay,Centre,"hitcircle.png",384.5,336.5 S,0,1,,0.2221928 C,0,1,,0,0,0,204,6,6 F,0,94268,94868,0,1 S,0,94868,94918,0.2221928,0.2896793 F,0,94868,95068,1,0
Sprite,Overlay,Centre,"hitcircleoverlay.png",384.5,336.5 S,0,1,,0.2221928 F,0,94268,94868,0,1 S,0,94868,94918,0.2221928,0.2896793 F,0,94868,95068,1,0
Sprite,Overlay,Centre,"approachcircle.png",384.5,336.5 C,0,1,,0,0,0,204,6,6 F,0,94268,94868,0,1 S,0,94268,94868,0.8304139,0.2277265
Sprite,Overlay,Centre,"default-3.png",384.5,336.5 S,0,1,,0.1738076 F,0,94268,94868,0,1
Sprite,Overlay,Centre,"hitcircle.png",340.5,292.5 S,0,1,,0.2221928 C,0,1,,0,0,0,204,6,6 F,0,94390,94990,0,1 S,0,94990,95040,0.2221928,0.2896793 F,0,94990,95190,1,0
Sprite,Overlay,Centre,"hitcircleoverlay.png",340.5,292.5 S,0,1,,0.2221928 F,0,94390,94990,0,1 S,0,94990,95040,0.2221928,0.2896793 F,0,94990,95190,1,0
Sprite,Overlay,Centre,"approachcircle.png",340.5,292.5 C,0,1,,0,0,0,204,6,6 F,0,94390,94990,0,1 S,0,94390,94990,0.8304139,0.2277265
Sprite,Overlay,Centre,"default-4.png",340.5,292.5 S,0,1,,0.1738076 F,0,94390,94990,0,1
Sprite,Overlay,Centre,"hitcircle.png",320.5,232.5 S,0,1,,0.2221928 C,0,1,,0,0,0,204,6,6 F,0,94513,95113,0,1 S,0,95113,95163,0.2221928,0.2896793 F,0,95113,95313,1,0
Sprite,Overlay,Centre,"hitcircleoverlay.png",320.5,232.5 S,0,1,,0.2221928 F,0,94513,95113,0,1 S,0,95113,95163,0.2221928,0.2896793 F,0,95113,95313,1,0
Sprite,Overlay,Centre,"approachcircle.png",320.5,232.5 C,0,1,,0,0,0,204,6,6 F,0,94513,95113,0,1 S,0,94513,95113,0.8304139,0.2277265
Sprite,Overlay,Centre,"default-5.png",320.5,232.5 S,0,1,,0.1738076 F,0,94513,95113,0,1
Sprite,Overlay,Centre,"hitcircle.png",284.5,180.5 S,0,1,,0.2221928 C,0,1,,0,0,0,204,6,6 F,0,94635,95235,0,1 S,0,95235,95285,0.2221928,0.2896793 F,0,95235,95435,1,0
Sprite,Overlay,Centre,"hitcircleoverlay.png",284.5,180.5 S,0,1,,0.2221928 F,0,94635,95235,0,1 S,0,95235,95285,0.2221928,0.2896793 F,0,95235,95435,1,0
Sprite,Overlay,Centre,"approachcircle.png",284.5,180.5 C,0,1,,0,0,0,204,6,6 F,0,94635,95235,0,1 S,0,94635,95235,0.8304139,0.2277265
Sprite,Overlay,Centre,"default-6.png",284.5,180.5 S,0,1,,0.1738076 F,0,94635,95235,0,1
Sprite,Overlay,Centre,"hitcircle.png",228.5,152.5 S,0,1,,0.2221928 C,0,1,,0,0,0,204,6,6 F,0,94758,95358,0,1 S,0,95358,95408,0.2221928,0.2896793 F,0,95358,95558,1,0
Sprite,Overlay,Centre,"hitcircleoverlay.png",228.5,152.5 S,0,1,,0.2221928 F,0,94758,95358,0,1 S,0,95358,95408,0.2221928,0.2896793 F,0,95358,95558,1,0
Sprite,Overlay,Centre,"approachcircle.png",228.5,152.5 C,0,1,,0,0,0,204,6,6 F,0,94758,95358,0,1 S,0,94758,95358,0.8304139,0.2277265
Sprite,Overlay,Centre,"default-7.png",228.5,152.5 S,0,1,,0.1738076 F,0,94758,95358,0,1
Sprite,Overlay,Centre,"hitcircle.png",168.5,164.5 S,0,1,,0.2221928 C,0,1,,0,0,0,204,6,6 F,0,94880,95480,0,1 S,0,95480,95530,0.2221928,0.2896793 F,0,95480,95680,1,0
Sprite,Overlay,Centre,"hitcircleoverlay.png",168.5,164.5 S,0,1,,0.2221928 F,0,94880,95480,0,1 S,0,95480,95530,0.2221928,0.2896793 F,0,95480,95680,1,0
Sprite,Overlay,Centre,"approachcircle.png",168.5,164.5 C,0,1,,0,0,0,204,6,6 F,0,94880,95480,0,1 S,0,94880,95480,0.8304139,0.2277265
Sprite,Overlay,Centre,"default-8.png",168.5,164.5 S,0,1,,0.1738076 F,0,94880,95480,0,1
Sprite,Overlay,Centre,"hitcircle.png",176.5,268.5 S,0,1,,0.2221928 C,0,1,,0,0,0,246,181,52 F,0,95248,95848,0,1 S,0,95848,95898,0.2221928,0.2896793 F,0,95848,96048,1,0
Sprite,Overlay,Centre,"hitcircleoverlay.png",176.5,268.5 S,0,1,,0.2221928 F,0,95248,95848,0,1 S,0,95848,95898,0.2221928,0.2896793 F,0,95848,96048,1,0
Sprite,Overlay,Centre,"approachcircle.png",176.5,268.5 C,0,1,,0,0,0,246,181,52 F,0,95248,95848,0,1 S,0,95248,95848,0.8304139,0.2277265
Sprite,Overlay,Centre,"default-2.png",176.5,268.5 S,0,1,,0.1738076 F,0,95248,95848,0,1
Sprite,Overlay,Centre,"hitcircle.png",176.5,268.5 S,0,1,,0.2221928 C,0,1,,0,0,0,246,181,52 F,0,95370,95970,0,1 S,0,95970,96020,0.2221928,0.2896793 F,0,95970,96170,1,0
Sprite,Overlay,Centre,"hitcircleoverlay.png",176.5,268.5 S,0,1,,0.2221928 F,0,95370,95970,0,1 S,0,95970,96020,0.2221928,0.2896793 F,0,95970,96170,1,0
Sprite,Overlay,Centre,"approachcircle.png",176.5,268.5 C,0,1,,0,0,0,246,181,52 F,0,95370,95970,0,1 S,0,95370,95970,0.8304139,0.2277265
Sprite,Overlay,Centre,"default-3.png",176.5,268.5 S,0,1,,0.1738076 F,0,95370,95970,0,1
Sprite,Overlay,Centre,"hitcircle.png",488.5,356.5 S,0,1,,0.2221928 C,0,1,,0,0,0,246,181,52 F,0,95737,96337,0,1 S,0,96337,96387,0.2221928,0.2896793 F,0,96337,96537,1,0
Sprite,Overlay,Centre,"hitcircleoverlay.png",488.5,356.5 S,0,1,,0.2221928 F,0,95737,96337,0,1 S,0,96337,96387,0.2221928,0.2896793 F,0,96337,96537,1,0
Sprite,Overlay,Centre,"approachcircle.png",488.5,356.5 C,0,1,,0,0,0,246,181,52 F,0,95737,96337,0,1 S,0,95737,96337,0.8304139,0.2277265
Sprite,Overlay,Centre,"default-5.png",488.5,356.5 S,0,1,,0.1738076 F,0,95737,96337,0,1
Sprite,Overlay,Centre,"hitcircle.png",488.5,356.5 S,0,1,,0.2221928 C,0,1,,0,0,0,246,181,52 F,0,95860,96460,0,1 S,0,96460,96510,0.2221928,0.2896793 F,0,96460,96660,1,0
Sprite,Overlay,Centre,"hitcircleoverlay.png",488.5,356.5 S,0,1,,0.2221928 F,0,95860,96460,0,1 S,0,96460,96510,0.2221928,0.2896793 F,0,96460,96660,1,0
Sprite,Overlay,Centre,"approachcircle.png",488.5,356.5 C,0,1,,0,0,0,246,181,52 F,0,95860,96460,0,1 S,0,95860,96460,0.8304139,0.2277265
Sprite,Overlay,Centre,"default-6.png",488.5,356.5 S,0,1,,0.1738076 F,0,95860,96460,0,1
Sprite,Overlay,Centre,"hitcircle.png",512.5,304.5 S,0,1,,0.2221928 C,0,1,,0,0,0,76,98,216 F,0,95982,96582,0,1 S,0,96582,96632,0.2221928,0.2896793 F,0,96582,96782,1,0
Sprite,Overlay,Centre,"hitcircleoverlay.png",512.5,304.5 S,0,1,,0.2221928 F,0,95982,96582,0,1 S,0,96582,96632,0.2221928,0.2896793 F,0,96582,96782,1,0
Sprite,Overlay,Centre,"approachcircle.png",512.5,304.5 C,0,1,,0,0,0,76,98,216 F,0,95982,96582,0,1 S,0,95982,96582,0.8304139,0.2277265
Sprite,Overlay,Centre,"default-1.png",512.5,304.5 S,0,1,,0.1738076 F,0,95982,96582,0,1
Sprite,Overlay,Centre,"hitcircle.png",516.5,240.5 S,0,1,,0.2221928 C,0,1,,0,0,0,76,98,216 F,0,96105,96705,0,1 S,0,96705,96755,0.2221928,0.2896793 F,0,96705,96905,1,0
Sprite,Overlay,Centre,"hitcircleoverlay.png",516.5,240.5 S,0,1,,0.2221928 F,0,96105,96705,0,1 S,0,96705,96755,0.2221928,0.2896793 F,0,96705,96905,1,0
Sprite,Overlay,Centre,"approachcircle.png",516.5,240.5 C,0,1,,0,0,0,76,98,216 F,0,96105,96705,0,1 S,0,96105,96705,0.8304139,0.2277265
Sprite,Overlay,Centre,"default-2.png",516.5,240.5 S,0,1,,0.1738076 F,0,96105,96705,0,1
Sprite,Overlay,Centre,"hitcircle.png",492.5,184.5 S,0,1,,0.2221928 C,0,1,,0,0,0,76,98,216 F,0,96227,96827,0,1 S,0,96827,96877,0.2221928,0.2896793 F,0,96827,97027,1,0
Sprite,Overlay,Centre,"hitcircleoverlay.png",492.5,184.5 S,0,1,,0.2221928 F,0,96227,96827,0,1 S,0,96827,96877,0.2221928,0.2896793 F,0,96827,97027,1,0
Sprite,Overlay,Centre,"approachcircle.png",492.5,184.5 C,0,1,,0,0,0,76,98,216 F,0,96227,96827,0,1 S,0,96227,96827,0.8304139,0.2277265
Sprite,Overlay,Centre,"default-3.png",492.5,184.5 S,0,1,,0.1738076 F,0,96227,96827,0,1
Sprite,Overlay,Centre,"hitcircle.png",444.5,144.5 S,0,1,,0.2221928 C,0,1,,0,0,0,76,98,216 F,0,96350,96950,0,1 S,0,96950,97000,0.2221928,0.2896793 F,0,96950,97150,1,0
Sprite,Overlay,Centre,"hitcircleoverlay.png",444.5,144.5 S,0,1,,0.2221928 F,0,96350,96950,0,1 S,0,96950,97000,0.2221928,0.2896793 F,0,96950,97150,1,0
Sprite,Overlay,Centre,"approachcircle.png",444.5,144.5 C,0,1,,0,0,0,76,98,216 F,0,96350,96950,0,1 S,0,96350,96950,0.8304139,0.2277265
Sprite,Overlay,Centre,"default-4.png",444.5,144.5 S,0,1,,0.1738076 F,0,96350,96950,0,1
Sprite,Overlay,Centre,"hitcircle.png",396.5,128.5 S,0,1,,0.2221928 C,0,1,,0,0,0,76,98,216 F,0,96472,97072,0,1 S,0,97072,97122,0.2221928,0.2896793 F,0,97072,97272,1,0
Sprite,Overlay,Centre,"hitcircleoverlay.png",396.5,128.5 S,0,1,,0.2221928 F,0,96472,97072,0,1 S,0,97072,97122,0.2221928,0.2896793 F,0,97072,97272,1,0
Sprite,Overlay,Centre,"approachcircle.png",396.5,128.5 C,0,1,,0,0,0,76,98,216 F,0,96472,97072,0,1 S,0,96472,97072,0.8304139,0.2277265
Sprite,Overlay,Centre,"default-5.png",396.5,128.5 S,0,1,,0.1738076 F,0,96472,97072,0,1
Sprite,Overlay,Centre,"hitcircle.png",344.5,124.5 S,0,1,,0.2221928 C,0,1,,0,0,0,76,98,216 F,0,96595,97195,0,1 S,0,97195,97245,0.2221928,0.2896793 F,0,97195,97395,1,0
Sprite,Overlay,Centre,"hitcircleoverlay.png",344.5,124.5 S,0,1,,0.2221928 F,0,96595,97195,0,1 S,0,97195,97245,0.2221928,0.2896793 F,0,97195,97395,1,0
Sprite,Overlay,Centre,"approachcircle.png",344.5,124.5 C,0,1,,0,0,0,76,98,216 F,0,96595,97195,0,1 S,0,96595,97195,0.8304139,0.2277265
Sprite,Overlay,Centre,"default-6.png",344.5,124.5 S,0,1,,0.1738076 F,0,96595,97195,0,1
Sprite,Overlay,Centre,"hitcircle.png",308.5,136.5 S,0,1,,0.2221928 C,0,1,,0,0,0,76,98,216 F,0,96717,97317,0,1 S,0,97317,97367,0.2221928,0.2896793 F,0,97317,97517,1,0
Sprite,Overlay,Centre,"hitcircleoverlay.png",308.5,136.5 S,0,1,,0.2221928 F,0,96717,97317,0,1 S,0,97317,97367,0.2221928,0.2896793 F,0,97317,97517,1,0
Sprite,Overlay,Centre,"approachcircle.png",308.5,136.5 C,0,1,,0,0,0,76,98,216 F,0,96717,97317,0,1 S,0,96717,97317,0.8304139,0.2277265
Sprite,Overlay,Centre,"default-7.png",308.5,136.5 S,0,1,,0.1738076 F,0,96717,97317,0,1
Sprite,Overlay,Centre,"hitcircle.png",292.5,152.5 S,0,1,,0.2221928 C,0,1,,0,0,0,76,98,216 F,0,96839,97439,0,1 S,0,97439,97489,0.2221928,0.2896793 F,0,97439,97639,1,0
Sprite,Overlay,Centre,"hitcircleoverlay.png",292.5,152.5 S,0,1,,0.2221928 F,0,96839,97439,0,1 S,0,97439,97489,0.2221928,0.2896793 F,0,97439,97639,1,0
Sprite,Overlay,Centre,"approachcircle.png",292.5,152.5 C,0,1,,0,0,0,76,98,216 F,0,96839,97439,0,1 S,0,96839,97439,0.8304139,0.2277265
Sprite,Overlay,Centre,"default-8.png",292.5,152.5 S,0,1,,0.1738076 F,0,96839,97439,0,1
Sprite,Overlay,Centre,"hitcircle.png",220.5,348.5 S,0,1,,0.2221928 C,0,1,,0,0,0,204,6,6 F,0,97452,98052,0,1 S,0,98052,98102,0.2221928,0.2896793 F,0,98052,98252,1,0
Sprite,Overlay,Centre,"hitcircleoverlay.png",220.5,348.5 S,0,1,,0.2221928 F,0,97452,98052,0,1 S,0,98052,98102,0.2221928,0.2896793 F,0,98052,98252,1,0
Sprite,Overlay,Centre,"approachcircle.png",220.5,348.5 C,0,1,,0,0,0,204,6,6 F,0,97452,98052,0,1 S,0,97452,98052,0.8304139,0.2277265
Sprite,Overlay,Centre,"default-3.png",220.5,348.5 S,0,1,,0.1738076 F,0,97452,98052,0,1
Sprite,Overlay,Centre,"hitcircle.png",180.5,300.5 S,0,1,,0.2221928 C,0,1,,0,0,0,204,6,6 F,0,97574,98174,0,1 S,0,98174,98224,0.2221928,0.2896793 F,0,98174,98374,1,0
Sprite,Overlay,Centre,"hitcircleoverlay.png",180.5,300.5 S,0,1,,0.2221928 F,0,97574,98174,0,1 S,0,98174,98224,0.2221928,0.2896793 F,0,98174,98374,1,0
Sprite,Overlay,Centre,"approachcircle.png",180.5,300.5 C,0,1,,0,0,0,204,6,6 F,0,97574,98174,0,1 S,0,97574,98174,0.8304139,0.2277265
Sprite,Overlay,Centre,"default-4.png",180.5,300.5 S,0,1,,0.1738076 F,0,97574,98174,0,1
Sprite,Overlay,Centre,"hitcircle.png",164.5,240.5 S,0,1,,0.2221928 C,0,1,,0,0,0,204,6,6 F,0,97697,98297,0,1 S,0,98297,98347,0.2221928,0.2896793 F,0,98297,98497,1,0
Sprite,Overlay,Centre,"hitcircleoverlay.png",164.5,240.5 S,0,1,,0.2221928 F,0,97697,98297,0,1 S,0,98297,98347,0.2221928,0.2896793 F,0,98297,98497,1,0
Sprite,Overlay,Centre,"approachcircle.png",164.5,240.5 C,0,1,,0,0,0,204,6,6 F,0,97697,98297,0,1 S,0,97697,98297,0.8304139,0.2277265
Sprite,Overlay,Centre,"default-5.png",164.5,240.5 S,0,1,,0.1738076 F,0,97697,98297,0,1
Sprite,Overlay,Centre,"hitcircle.png",176.5,180.5 S,0,1,,0.2221928 C,0,1,,0,0,0,204,6,6 F,0,97819,98419,0,1 S,0,98419,98469,0.2221928,0.2896793 F,0,98419,98619,1,0
Sprite,Overlay,Centre,"hitcircleoverlay.png",176.5,180.5 S,0,1,,0.2221928 F,0,97819,98419,0,1 S,0,98419,98469,0.2221928,0.2896793 F,0,98419,98619,1,0
Sprite,Overlay,Centre,"approachcircle.png",176.5,180.5 C,0,1,,0,0,0,204,6,6 F,0,97819,98419,0,1 S,0,97819,98419,0.8304139,0.2277265
Sprite,Overlay,Centre,"default-6.png",176.5,180.5 S,0,1,,0.1738076 F,0,97819,98419,0,1
Sprite,Overlay,Centre,"hitcircle.png",216.5,132.5 S,0,1,,0.2221928 C,0,1,,0,0,0,246,181,52 F,0,97941,98541,0,1 S,0,98541,98591,0.2221928,0.2896793 F,0,98541,98741,1,0
Sprite,Overlay,Centre,"hitcircleoverlay.png",216.5,132.5 S,0,1,,0.2221928 F,0,97941,98541,0,1 S,0,98541,98591,0.2221928,0.2896793 F,0,98541,98741,1,0
Sprite,Overlay,Centre,"approachcircle.png",216.5,132.5 C,0,1,,0,0,0,246,181,52 F,0,97941,98541,0,1 S,0,97941,98541,0.8304139,0.2277265
Sprite,Overlay,Centre,"default-1.png",216.5,132.5 S,0,1,,0.1738076 F,0,97941,98541,0,1
Sprite,Overlay,Centre,"hitcircle.png",276.5,112.5 S,0,1,,0.2221928 C,0,1,,0,0,0,246,181,52 F,0,98064,98664,0,1 S,0,98664,98714,0.2221928,0.2896793 F,0,98664,98864,1,0
Sprite,Overlay,Centre,"hitcircleoverlay.png",276.5,112.5 S,0,1,,0.2221928 F,0,98064,98664,0,1 S,0,98664,98714,0.2221928,0.2896793 F,0,98664,98864,1,0
Sprite,Overlay,Centre,"approachcircle.png",276.5,112.5 C,0,1,,0,0,0,246,181,52 F,0,98064,98664,0,1 S,0,98064,98664,0.8304139,0.2277265
Sprite,Overlay,Centre,"default-2.png",276.5,112.5 S,0,1,,0.1738076 F,0,98064,98664,0,1
Sprite,Overlay,Centre,"hitcircle.png",340.5,116.5 S,0,1,,0.2221928 C,0,1,,0,0,0,246,181,52 F,0,98186,98786,0,1 S,0,98786,98836,0.2221928,0.2896793 F,0,98786,98986,1,0
Sprite,Overlay,Centre,"hitcircleoverlay.png",340.5,116.5 S,0,1,,0.2221928 F,0,98186,98786,0,1 S,0,98786,98836,0.2221928,0.2896793 F,0,98786,98986,1,0
Sprite,Overlay,Centre,"approachcircle.png",340.5,116.5 C,0,1,,0,0,0,246,181,52 F,0,98186,98786,0,1 S,0,98186,98786,0.8304139,0.2277265
Sprite,Overlay,Centre,"default-3.png",340.5,116.5 S,0,1,,0.1738076 F,0,98186,98786,0,1
Sprite,Overlay,Centre,"hitcircle.png",412.5,140.5 S,0,1,,0.2221928 C,0,1,,0,0,0,246,181,52 F,0,98309,98909,0,1 S,0,98909,98959,0.2221928,0.2896793 F,0,98909,99109,1,0
Sprite,Overlay,Centre,"hitcircleoverlay.png",412.5,140.5 S,0,1,,0.2221928 F,0,98309,98909,0,1 S,0,98909,98959,0.2221928,0.2896793 F,0,98909,99109,1,0
Sprite,Overlay,Centre,"approachcircle.png",412.5,140.5 C,0,1,,0,0,0,246,181,52 F,0,98309,98909,0,1 S,0,98309,98909,0.8304139,0.2277265
Sprite,Overlay,Centre,"default-4.png",412.5,140.5 S,0,1,,0.1738076 F,0,98309,98909,0,1
Sprite,Overlay,Centre,"hitcircle.png",484.5,188.5 S,0,1,,0.2221928 C,0,1,,0,0,0,246,181,52 F,0,98431,99031,0,1 S,0,99031,99081,0.2221928,0.2896793 F,0,99031,99231,1,0
Sprite,Overlay,Centre,"hitcircleoverlay.png",484.5,188.5 S,0,1,,0.2221928 F,0,98431,99031,0,1 S,0,99031,99081,0.2221928,0.2896793 F,0,99031,99231,1,0
Sprite,Overlay,Centre,"approachcircle.png",484.5,188.5 C,0,1,,0,0,0,246,181,52 F,0,98431,99031,0,1 S,0,98431,99031,0.8304139,0.2277265
Sprite,Overlay,Centre,"default-5.png",484.5,188.5 S,0,1,,0.1738076 F,0,98431,99031,0,1
Sprite,Overlay,Centre,"hitcircle.png",192.5,332.5 S,0,1,,0.2221928 C,0,1,,0,0,0,76,98,216 F,0,98676,99031,0,0.5917 S,0,99215,99276,0.2221928,0.2 S,2,99276,99460,0.2,0.5752727 F,0,99276,99521,0.5917,1 S,0,99521,99571,0.5917,0.75 F,0,99521,99721,1,0
Sprite,Overlay,Centre,"hitcircleoverlay.png",192.5,332.5 S,0,1,,0.2221928 F,0,98676,99031,0,0.5917 S,0,99215,99276,0.2221928,0.2 S,2,99276,99460,0.2,0.5752727 F,0,99276,99521,0.5917,1 S,0,99521,99571,0.5917,0.75 F,0,99521,99721,1,0
Sprite,Overlay,Centre,"approachcircle.png",192.5,332.5 C,0,1,,0,0,0,76,98,216 F,0,98676,99031,0,0.5917 S,0,98676,99031,0.8304139,0.4738038 S,2,99276,99460,0.4738038,0.8896 F,0,99276,99521,0.5917,1 S,0,99460,99521,0.8896,0.5896
Sprite,Overlay,Centre,"default-1.png",192.5,332.5 S,0,1,,0.1738076 F,0,98676,99031,0,0.5917 S,2,99276,99460,0.1738076,0.45 F,0,99276,99521,0.5917,1
Sprite,Overlay,Centre,"hitcircle.png",156.5,252.5 S,0,1,,0.2221928 C,0,1,,0,0,0,76,98,216 F,0,98798,99031,0,0.3833 S,0,99215,99276,0.2221928,0.2 S,2,99276,99460,0.2,0.5752727 F,0,99276,99643,0.3833,1 S,0,99643,99693,0.5752727,0.75 F,0,99643,99843,1,0
Sprite,Overlay,Centre,"hitcircleoverlay.png",156.5,252.5 S,0,1,,0.2221928 F,0,98798,99031,0,0.3833 S,0,99215,99276,0.2221928,0.2 S,2,99276,99460,0.2,0.5752727 F,0,99276,99643,0.3833,1 S,0,99643,99693,0.5752727,0.75 F,0,99643,99843,1,0
Sprite,Overlay,Centre,"approachcircle.png",156.5,252.5 C,0,1,,0,0,0,76,98,216 F,0,98798,99031,0,0.3833 S,0,98798,99031,0.8304139,0.5994038 S,2,99276,99460,0.5994038,1.4896 F,0,99276,99643,0.3833,1 S,0,99460,99643,1.4896,0.5896
Sprite,Overlay,Centre,"default-2.png",156.5,252.5 S,0,1,,0.1738076 F,0,98798,99031,0,0.3833 S,2,99276,99460,0.1738076,0.45 F,0,99276,99643,0.3833,1
Sprite,Overlay,Centre,"hitcircle.png",437.5,117.5 S,0,1,,0.5752727 C,0,1,,0,0,0,76,98,216 F,0,105853,106378,0,1 S,0,106378,106428,0.5752727,0.75 F,0,106378,106578,1,0
Sprite,Overlay,Centre,"hitcircleoverlay.png",437.5,117.5 S,0,1,,0.5752727 F,0,105853,106378,0,1 S,0,106378,106428,0.5752727,0.75 F,0,106378,106578,1,0
Sprite,Overlay,Centre,"approachcircle.png",437.5,117.5 C,0,1,,0,0,0,76,98,216 F,0,105853,106378,0,1 S,0,105853,106378,2.15,0.5896
Sprite,Overlay,Centre,"default-1.png",437.5,117.5 S,0,1,,0.45 F,0,105853,106378,0,1
Sprite,Overlay,Centre,"hitcircle.png",173.5,155.5 S,0,1,,0.5752727 C,0,1,,0,0,0,76,98,216 F,0,106098,106623,0,1 S,0,106623,106673,0.5752727,0.75 F,0,106623,106823,1,0
Sprite,Overlay,Centre,"hitcircleoverlay.png",173.5,155.5 S,0,1,,0.5752727 F,0,106098,106623,0,1 S,0,106623,106673,0.5752727,0.75 F,0,106623,106823,1,0
Sprite,Overlay,Centre,"approachcircle.png",173.5,155.5 C,0,1,,0,0,0,76,98,216 F,0,106098,106623,0,1 S,0,106098,106623,2.15,0.5896
Sprite,Overlay,Centre,"default-2.png",173.5,155.5 S,0,1,,0.45 F,0,106098,106623,0,1
Sprite,Overlay,Centre,"hitcircle.png",290.5,218.5 S,0,1,,0.5752727 C,0,1,,0,0,0,76,98,216 F,0,106221,106746,0,1 S,0,106746,106796,0.5752727,0.75 F,0,106746,106946,1,0
Sprite,Overlay,Centre,"hitcircleoverlay.png",290.5,218.5 S,0,1,,0.5752727 F,0,106221,106746,0,1 S,0,106746,106796,0.5752727,0.75 F,0,106746,106946,1,0
Sprite,Overlay,Centre,"approachcircle.png",290.5,218.5 C,0,1,,0,0,0,76,98,216 F,0,106221,106746,0,1 S,0,106221,106746,2.15,0.5896
Sprite,Overlay,Centre,"default-3.png",290.5,218.5 S,0,1,,0.45 F,0,106221,106746,0,1
Sprite,Overlay,Centre,"hitcircle.png",130.5,429.5 S,0,1,,0.5752727 C,0,1,,0,0,0,76,98,216 F,0,106465,106990,0,1 S,0,106990,107040,0.5752727,0.75 F,0,106990,107190,1,0
Sprite,Overlay,Centre,"hitcircleoverlay.png",130.5,429.5 S,0,1,,0.5752727 F,0,106465,106990,0,1 S,0,106990,107040,0.5752727,0.75 F,0,106990,107190,1,0
Sprite,Overlay,Centre,"approachcircle.png",130.5,429.5 C,0,1,,0,0,0,76,98,216 F,0,106465,106990,0,1 S,0,106465,106990,2.15,0.5896
Sprite,Overlay,Centre,"default-4.png",130.5,429.5 S,0,1,,0.45 F,0,106465,106990,0,1
Sprite,Overlay,Centre,"hitcircle.png",211.5,322.5 S,0,1,,0.5752727 C,0,1,,0,0,0,76,98,216 F,0,106588,107113,0,1 S,0,107113,107163,0.5752727,0.75 F,0,107113,107313,1,0
Sprite,Overlay,Centre,"hitcircleoverlay.png",211.5,322.5 S,0,1,,0.5752727 F,0,106588,107113,0,1 S,0,107113,107163,0.5752727,0.75 F,0,107113,107313,1,0
Sprite,Overlay,Centre,"approachcircle.png",211.5,322.5 C,0,1,,0,0,0,76,98,216 F,0,106588,107113,0,1 S,0,106588,107113,2.15,0.5896
Sprite,Overlay,Centre,"default-5.png",211.5,322.5 S,0,1,,0.45 F,0,106588,107113,0,1
Sprite,Overlay,Centre,"hitcircle.png",319.5,398.5 S,0,1,,0.5752727 C,0,1,,0,0,0,76,98,216 F,0,106710,107235,0,1 S,0,107235,107285,0.5752727,0.75 F,0,107235,107435,1,0
Sprite,Overlay,Centre,"hitcircleoverlay.png",319.5,398.5 S,0,1,,0.5752727 F,0,106710,107235,0,1 S,0,107235,107285,0.5752727,0.75 F,0,107235,107435,1,0
Sprite,Overlay,Centre,"approachcircle.png",319.5,398.5 C,0,1,,0,0,0,76,98,216 F,0,106710,107235,0,1 S,0,106710,107235,2.15,0.5896
Sprite,Overlay,Centre,"default-6.png",319.5,398.5 S,0,1,,0.45 F,0,106710,107235,0,1
Sprite,Overlay,Centre,"hitcircle.png",487.5,191.5 S,0,1,,0.5752727 C,0,1,,0,0,0,76,98,216 F,0,106955,107480,0,1 S,0,107480,107530,0.5752727,0.75 F,0,107480,107680,1,0
Sprite,Overlay,Centre,"hitcircleoverlay.png",487.5,191.5 S,0,1,,0.5752727 F,0,106955,107480,0,1 S,0,107480,107530,0.5752727,0.75 F,0,107480,107680,1,0
Sprite,Overlay,Centre,"approachcircle.png",487.5,191.5 C,0,1,,0,0,0,76,98,216 F,0,106955,107480,0,1 S,0,106955,107480,2.15,0.5896
Sprite,Overlay,Centre,"default-7.png",487.5,191.5 S,0,1,,0.45 F,0,106955,107480,0,1
Sprite,Overlay,Centre,"hitcircle.png",222.5,163.5 S,0,1,,0.5752727 C,0,1,,0,0,0,204,6,6 F,0,107275,107725,0,1 S,0,107725,107775,0.5752727,0.75 F,0,107725,107925,1,0
Sprite,Overlay,Centre,"hitcircleoverlay.png",222.5,163.5 S,0,1,,0.5752727 F,0,107275,107725,0,1 S,0,107725,107775,0.5752727,0.75 F,0,107725,107925,1,0
Sprite,Overlay,Centre,"approachcircle.png",222.5,163.5 C,0,1,,0,0,0,204,6,6 F,0,107275,107725,0,1 S,0,107275,107725,2.15,0.5896
Sprite,Overlay,Centre,"default-1.png",222.5,163.5 S,0,1,,0.45 F,0,107275,107725,0,1
Sprite,Overlay,Centre,"hitcircle.png",287.5,279.5 S,0,1,,0.5752727 C,0,1,,0,0,0,204,6,6 F,0,107398,107848,0,1 S,0,107848,107898,0.5752727,0.75 F,0,107848,108048,1,0
Sprite,Overlay,Centre,"hitcircleoverlay.png",287.5,279.5 S,0,1,,0.5752727 F,0,107398,107848,0,1 S,0,107848,107898,0.5752727,0.75 F,0,107848,108048,1,0
Sprite,Overlay,Centre,"approachcircle.png",287.5,279.5 C,0,1,,0,0,0,204,6,6 F,0,107398,107848,0,1 S,0,107398,107848,2.15,0.5896
Sprite,Overlay,Centre,"default-2.png",287.5,279.5 S,0,1,,0.45 F,0,107398,107848,0,1
Sprite,Overlay,Centre,"hitcircle.png",174.5,349.5 S,0,1,,0.5752727 C,0,1,,0,0,0,204,6,6 F,0,107520,107970,0,1 S,0,107970,108020,0.5752727,0.75 F,0,107970,108170,1,0
Sprite,Overlay,Centre,"hitcircleoverlay.png",174.5,349.5 S,0,1,,0.5752727 F,0,107520,107970,0,1 S,0,107970,108020,0.5752727,0.75 F,0,107970,108170,1,0
Sprite,Overlay,Centre,"approachcircle.png",174.5,349.5 C,0,1,,0,0,0,204,6,6 F,0,107520,107970,0,1 S,0,107520,107970,2.15,0.5896
Sprite,Overlay,Centre,"default-3.png",174.5,349.5 S,0,1,,0.45 F,0,107520,107970,0,1
Sprite,Overlay,Centre,"hitcircle.png",104.5,236.5 S,0,1,,0.5752727 C,0,1,,0,0,0,204,6,6 F,0,107642,108092,0,1 S,0,108092,108142,0.5752727,0.75 F,0,108092,108292,1,0
Sprite,Overlay,Centre,"hitcircleoverlay.png",104.5,236.5 S,0,1,,0.5752727 F,0,107642,108092,0,1 S,0,108092,108142,0.5752727,0.75 F,0,108092,108292,1,0
Sprite,Overlay,Centre,"approachcircle.png",104.5,236.5 C,0,1,,0,0,0,204,6,6 F,0,107642,108092,0,1 S,0,107642,108092,2.15,0.5896
Sprite,Overlay,Centre,"default-4.png",104.5,236.5 S,0,1,,0.45 F,0,107642,108092,0,1
Sprite,Overlay,Centre,"hitcircle.png",467.5,343.5 S,0,1,,0.5752727 C,0,1,,0,0,0,246,181,52 F,0,107887,108337,0,1 S,0,108337,108387,0.5752727,0.75 F,0,108337,108537,1,0
Sprite,Overlay,Centre,"hitcircleoverlay.png",467.5,343.5 S,0,1,,0.5752727 F,0,107887,108337,0,1 S,0,108337,108387,0.5752727,0.75 F,0,108337,108537,1,0
Sprite,Overlay,Centre,"approachcircle.png",467.5,343.5 C,0,1,,0,0,0,246,181,52 F,0,107887,108337,0,1 S,0,107887,108337,2.15,0.5896
Sprite,Overlay,Centre,"default-1.png",467.5,343.5 S,0,1,,0.45 F,0,107887,108337,0,1
Sprite,Overlay,Centre,"hitcircle.png",320.5,120.5 S,0,1,,0.5752727 C,0,1,,0,0,0,246,181,52 F,0,108132,108582,0,1 S,0,108582,108632,0.5752727,0.75 F,0,108582,108782,1,0
Sprite,Overlay,Centre,"hitcircleoverlay.png",320.5,120.5 S,0,1,,0.5752727 F,0,108132,108582,0,1 S,0,108582,108632,0.5752727,0.75 F,0,108582,108782,1,0
Sprite,Overlay,Centre,"approachcircle.png",320.5,120.5 C,0,1,,0,0,0,246,181,52 F,0,108132,108582,0,1 S,0,108132,108582,2.15,0.5896
Sprite,Overlay,Centre,"default-2.png",320.5,120.5 S,0,1,,0.45 F,0,108132,108582,0,1
Sprite,Overlay,Centre,"hitcircle.png",276.5,246.5 S,0,1,,0.5752727 C,0,1,,0,0,0,246,181,52 F,0,108255,108705,0,1 S,0,108705,108755,0.5752727,0.75 F,0,108705,108905,1,0
Sprite,Overlay,Centre,"hitcircleoverlay.png",276.5,246.5 S,0,1,,0.5752727 F,0,108255,108705,0,1 S,0,108705,108755,0.5752727,0.75 F,0,108705,108905,1,0
Sprite,Overlay,Centre,"approachcircle.png",276.5,246.5 C,0,1,,0,0,0,246,181,52 F,0,108255,108705,0,1 S,0,108255,108705,2.15,0.5896
Sprite,Overlay,Centre,"default-3.png",276.5,246.5 S,0,1,,0.45 F,0,108255,108705,0,1
Sprite,Overlay,Centre,"hitcircle.png",192.5,431.5 S,0,1,,0.5752727 C,0,1,,0,0,0,246,181,52 F,0,108500,108950,0,1 S,0,108950,109000,0.5752727,0.75 F,0,108950,109150,1,0
Sprite,Overlay,Centre,"hitcircleoverlay.png",192.5,431.5 S,0,1,,0.5752727 F,0,108500,108950,0,1 S,0,108950,109000,0.5752727,0.75 F,0,108950,109150,1,0
Sprite,Overlay,Centre,"approachcircle.png",192.5,431.5 C,0,1,,0,0,0,246,181,52 F,0,108500,108950,0,1 S,0,108500,108950,2.15,0.5896
Sprite,Overlay,Centre,"default-4.png",192.5,431.5 S,0,1,,0.45 F,0,108500,108950,0,1
Sprite,Overlay,Centre,"hitcircle.png",160.5,302.5 S,0,1,,0.5752727 C,0,1,,0,0,0,246,181,52 F,0,108622,109072,0,1 S,0,109072,109122,0.5752727,0.75 F,0,109072,109272,1,0
Sprite,Overlay,Centre,"hitcircleoverlay.png",160.5,302.5 S,0,1,,0.5752727 F,0,108622,109072,0,1 S,0,109072,109122,0.5752727,0.75 F,0,109072,109272,1,0
Sprite,Overlay,Centre,"approachcircle.png",160.5,302.5 C,0,1,,0,0,0,246,181,52 F,0,108622,109072,0,1 S,0,108622,109072,2.15,0.5896
Sprite,Overlay,Centre,"default-5.png",160.5,302.5 S,0,1,,0.45 F,0,108622,109072,0,1
Sprite,Overlay,Centre,"hitcircle.png",286.5,346.5 S,0,1,,0.5752727 C,0,1,,0,0,0,246,181,52 F,0,108745,109195,0,1 S,0,109195,109245,0.5752727,0.75 F,0,109195,109395,1,0
Sprite,Overlay,Centre,"hitcircleoverlay.png",286.5,346.5 S,0,1,,0.5752727 F,0,108745,109195,0,1 S,0,109195,109245,0.5752727,0.75 F,0,109195,109395,1,0
Sprite,Overlay,Centre,"approachcircle.png",286.5,346.5 C,0,1,,0,0,0,246,181,52 F,0,108745,109195,0,1 S,0,108745,109195,2.15,0.5896
Sprite,Overlay,Centre,"default-6.png",286.5,346.5 S,0,1,,0.45 F,0,108745,109195,0,1
Sprite,Overlay,Centre,"hitcircle.png",257.5,82.5 S,0,1,,0.5752727 C,0,1,,0,0,0,246,181,52 F,0,108989,109439,0,1 S,0,109439,109489,0.5752727,0.75 F,0,109439,109639,1,0
Sprite,Overlay,Centre,"hitcircleoverlay.png",257.5,82.5 S,0,1,,0.5752727 F,0,108989,109439,0,1 S,0,109439,109489,0.5752727,0.75 F,0,109439,109639,1,0
Sprite,Overlay,Centre,"approachcircle.png",257.5,82.5 C,0,1,,0,0,0,246,181,52 F,0,108989,109439,0,1 S,0,108989,109439,2.15,0.5896
Sprite,Overlay,Centre,"default-7.png",257.5,82.5 S,0,1,,0.45 F,0,108989,109439,0,1
Sprite,Overlay,Centre,"hitcircle.png",504.5,179.5 S,0,1,,0.5752727 C,0,1,,0,0,0,76,98,216 F,0,109384,109684,0,1 S,0,109684,109734,0.5752727,0.75 F,0,109684,109884,1,0
Sprite,Overlay,Centre,"hitcircleoverlay.png",504.5,179.5 S,0,1,,0.5752727 F,0,109384,109684,0,1 S,0,109684,109734,0.5752727,0.75 F,0,109684,109884,1,0
Sprite,Overlay,Centre,"approachcircle.png",504.5,179.5 C,0,1,,0,0,0,76,98,216 F,0,109384,109684,0,1 S,0,109384,109684,2.15,0.5896
Sprite,Overlay,Centre,"default-1.png",504.5,179.5 S,0,1,,0.45 F,0,109384,109684,0,1
Sprite,Overlay,Centre,"hitcircle.png",418.5,281.5 S,0,1,,0.5752727 C,0,1,,0,0,0,76,98,216 F,0,109507,109807,0,1 S,0,109807,109857,0.5752727,0.75 F,0,109807,110007,1,0
Sprite,Overlay,Centre,"hitcircleoverlay.png",418.5,281.5 S,0,1,,0.5752727 F,0,109507,109807,0,1 S,0,109807,109857,0.5752727,0.75 F,0,109807,110007,1,0
Sprite,Overlay,Centre,"approachcircle.png",418.5,281.5 C,0,1,,0,0,0,76,98,216 F,0,109507,109807,0,1 S,0,109507,109807,2.15,0.5896
Sprite,Overlay,Centre,"default-2.png",418.5,281.5 S,0,1,,0.45 F,0,109507,109807,0,1
Sprite,Overlay,Centre,"hitcircle.png",286.5,346.5 S,0,1,,0.5752727 C,0,1,,0,0,0,76,98,216 F,0,109629,109929,0,1 S,0,109929,109979,0.5752727,0.75 F,0,109929,110129,1,0
Sprite,Overlay,Centre,"hitcircleoverlay.png",286.5,346.5 S,0,1,,0.5752727 F,0,109629,109929,0,1 S,0,109929,109979,0.5752727,0.75 F,0,109929,110129,1,0
Sprite,Overlay,Centre,"approachcircle.png",286.5,346.5 C,0,1,,0,0,0,76,98,216 F,0,109629,109929,0,1 S,0,109629,109929,2.15,0.5896
Sprite,Overlay,Centre,"default-3.png",286.5,346.5 S,0,1,,0.45 F,0,109629,109929,0,1
Sprite,Overlay,Centre,"hitcircle.png",152.5,344.5 S,0,1,,0.5752727 C,0,1,,0,0,0,76,98,216 F,0,109752,110052,0,1 S,0,110052,110102,0.5752727,0.75 F,0,110052,110252,1,0
Sprite,Overlay,Centre,"hitcircleoverlay.png",152.5,344.5 S,0,1,,0.5752727 F,0,109752,110052,0,1 S,0,110052,110102,0.5752727,0.75 F,0,110052,110252,1,0
Sprite,Overlay,Centre,"approachcircle.png",152.5,344.5 C,0,1,,0,0,0,76,98,216 F,0,109752,110052,0,1 S,0,109752,110052,2.15,0.5896
Sprite,Overlay,Centre,"default-4.png",152.5,344.5 S,0,1,,0.45 F,0,109752,110052,0,1
Sprite,Overlay,Centre,"hitcircle.png",228.5,188.5 S,0,1,,0.5752727 C,0,1,,0,0,0,204,6,6 F,0,110147,110297,0,1 S,0,110297,110347,0.5752727,0.75 F,0,110297,110497,1,0
Sprite,Overlay,Centre,"hitcircleoverlay.png",228.5,188.5 S,0,1,,0.5752727 F,0,110147,110297,0,1 S,0,110297,110347,0.5752727,0.75 F,0,110297,110497,1,0
Sprite,Overlay,Centre,"approachcircle.png",228.5,188.5 C,0,1,,0,0,0,204,6,6 F,0,110147,110297,0,1 S,0,110147,110297,2.15,0.5896
Sprite,Overlay,Centre,"default-1.png",228.5,188.5 S,0,1,,0.45 F,0,110147,110297,0,1
Sprite,Overlay,Centre,"hitcircle.png",407.5,188.5 S,0,1,,0.5752727 C,0,1,,0,0,0,204,6,6 F,0,110391,110521,0,0.86667 F,0,112501,,1,0
Sprite,Overlay,Centre,"hitcircleoverlay.png",407.5,188.5 S,0,1,,0.5752727 F,0,110391,110521,0,0.86667 F,0,112501,,1,0
Sprite,Overlay,Centre,"approachcircle.png",407.5,188.5 C,0,1,,0,0,0,204,6,6 F,0,110391,110521,0,0.86667 S,0,110391,110521,2.15,0.7977 F,0,112501,,1,0
Sprite,Overlay,Centre,"default-2.png",407.5,188.5 S,0,1,,0.45 F,0,110391,110521,0,86667 F,0,112501,,1,0
Sprite,Overlay,Centre,"selection-mods-ar9_5.png",648.7,100 S,0,1,,0.5 F,0,106133,106378,0,1 F,0,107480,107725,1,0
Sprite,Overlay,Centre,"selection-mods-ar10.png",648.7,100 S,0,1,,0.5 F,0,107480,107725,0,1 F,0,109439,109684,1,0
Sprite,Overlay,Centre,"selection-mods-ar11.png",648.7,100 S,0,1,,0.5 F,0,109439,109684,0,1 F,0,110052,110297,1,0
Sprite,Overlay,Centre,"selection-mods-ar12.png",648.7,100 S,0,1,,0.5 F,0,110052,110297,0,1 F,0,112501,,1,0
//Storyboard Sound Samples

[TimingPoints]
34,431.654676258993,4,1,0,50,1,0
34,-66.6666666666667,4,1,0,50,0,0
4782,-66.6666666666667,4,1,0,20,0,0
5321,-66.6666666666667,4,1,0,50,0,0
7156,-66.6666666666667,4,1,0,20,0,0
7480,-66.6666666666667,4,1,0,50,0,0
8127,-66.6666666666667,4,1,0,20,0,0
8775,-66.6666666666667,4,1,0,50,0,0
12120,-66.6666666666667,4,1,0,20,0,0
12228,-66.6666666666667,4,1,0,50,0,0
13631,-66.6666666666667,4,1,0,20,0,0
13712,-66.6666666666667,4,1,0,50,0,0
15573,428.571428571429,4,1,0,70,1,0
17287,400,4,1,0,70,1,0
18887,375,4,1,0,70,1,0
20387,352.941176470588,4,1,0,70,1,0
21798,333.333333333333,4,1,0,70,1,0
23131,315.789473684211,4,1,0,70,1,0
24394,300,4,1,0,70,1,0
25594,285.714285714286,4,1,0,70,1,0
29022,-100,4,1,0,40,0,0
31308,-66.6666666666667,4,1,0,70,0,0
32522,-66.6666666666667,4,1,0,40,0,0
33665,-66.6666666666667,4,1,0,70,0,0
34879,-66.6666666666667,4,1,0,40,0,0
35951,-66.6666666666667,4,1,0,70,0,0
37094,-66.6666666666667,4,1,0,40,0,0
38236,-66.6666666666667,4,1,0,70,0,0
38522,-76.9230769230769,4,1,0,70,0,0
38736,-90.9090909090909,4,1,0,70,0,0
39094,-111.111111111111,4,1,0,70,0,0
40451,-100,4,1,0,40,0,0
41522,-100,4,1,0,70,0,0
42665,-100,4,1,0,40,0,0
43808,-100,4,1,0,70,0,0
44951,-100,4,1,0,40,0,0
46094,-100,4,1,0,70,0,0
47236,-100,4,1,0,40,0,0
49522,-58.8235294117647,4,1,0,70,0,0
58736,-66.6666666666667,4,1,0,70,0,0
59022,-66.6666666666667,4,1,0,40,0,0
59094,-66.6666666666667,4,1,0,70,0,0
59236,-66.6666666666667,4,1,0,40,0,0
59290,-66.6666666666667,4,1,0,70,0,0
59451,-66.6666666666667,4,1,0,40,0,0
59522,-66.6666666666667,4,1,0,70,0,0
59736,-66.6666666666667,4,1,0,40,0,0
60379,-66.6666666666667,4,1,0,70,0,0
61254,-66.6666666666667,4,1,0,40,0,0
61290,-66.6666666666667,4,1,0,70,0,0
61540,-66.6666666666667,4,1,0,40,0,0
61576,-66.6666666666667,4,1,0,70,0,0
61897,-66.6666666666667,4,1,0,40,0,0
62647,-100,4,1,0,70,0,0
63236,-66.6666666666667,4,1,0,70,0,0
63736,-66.6666666666667,4,1,0,40,0,0
63951,-66.6666666666667,4,1,0,70,0,0
64308,-66.6666666666667,4,1,0,40,0,0
64951,-66.6666666666667,4,1,0,70,0,0
65826,-66.6666666666667,4,1,0,40,0,0
65861,-66.6666666666667,4,1,0,70,0,0
66594,-66.6666666666667,4,1,0,40,0,0
67219,-100,4,1,0,70,0,0
67879,-100,4,1,0,40,0,0
68951,-100,4,1,0,70,0,0
70165,-100,4,1,0,40,0,0
71236,-100,4,1,0,70,0,0
72451,-100,4,1,0,40,0,0
73522,-100,4,1,0,70,0,0
74736,-100,4,1,0,40,0,0
75808,-100,4,1,0,70,0,0
76451,-100,4,1,0,40,0,0
77094,-100,4,1,0,70,0,0
80451,-100,4,1,0,40,0,0
81236,-100,4,1,0,20,0,0
81546,-100,4,1,0,70,0,0
82736,-100,4,1,0,40,0,0
82808,-100,4,1,0,70,0,0
83879,-100,4,1,0,40,0,0
83951,-100,4,1,0,70,0,0
84451,-100,4,1,0,40,0,0
84522,-100,4,1,0,70,0,0
85022,-100,4,1,0,40,0,0
85094,-100,4,1,0,70,0,0
85522,-100,4,1,0,20,0,0
86094,-100,4,1,0,40,0,0
87308,279.06976744186,4,1,0,40,1,0
88424,272.727272727273,4,1,0,40,1,0
89514,266.666666666667,4,1,0,40,1,0
90580,260.869565217391,4,1,0,40,1,0
91623,255.31914893617,4,1,0,40,1,0
92644,250,4,1,0,40,1,0
93644,244.897959183673,4,1,0,40,1,0
99950,-100,4,1,0,70,0,0
102460,-66.6666666666667,4,1,0,70,0,0
106317,-66.6666666666667,4,1,0,40,0,0
114950,-66.6666666666667,4,1,0,5,0,0

[Colours]
Combo1 : 246,181,52
Combo2 : 76,98,216
Combo3 : 204,6,6

[HitObjects]
80,88,34,5,0,0:0:0:0:
148,244,249,2,0,L|224:184,1,93.7500035762788
336,196,465,2,0,L|260:256,1,93.7500035762788
284,128,681,2,0,L|360:68,1,93.7500035762788
480,132,1113,1,0,0:0:0:0:
96,132,1328,1,0,0:0:0:0:
200,264,1544,1,0,0:0:0:0:
276,68,1760,6,0,P|344:128|400:208,1,187.500007152558
416,248,2084,1,0,0:0:0:0:
428,292,2192,2,0,P|372:312|316:376,1,93.7500035762788
264,312,2408,1,0,0:0:0:0:
180,324,2516,2,0,B|136:136|136:136|148:184|148:184|200:172,1,281.250010728836
185,175,2839,2,0,L|-96:252,1,281.250010728836
396,60,3487,21,0,0:0:0:0:
316,80,3595,1,0,0:0:0:0:
288,160,3703,1,0,0:0:0:0:
320,240,3810,1,0,0:0:0:0:
284,316,3918,1,0,0:0:0:0:
15,199,4836,22,0,L,1,46.8750017881394
69,161,4944,2,0,L,1,46.8750017881394
135,145,5051,2,0,L,1,46.8750017881394
198,155,5159,2,0,L,1,46.8750017881394
258,181,5267,2,0,L,1,46.8750017881394
372,80,5429,22,0,L|460:132,1,93.7500035762788
472,248,5645,2,0,L|384:196,1,93.7500035762788
396,312,5861,2,0,B|484:364|484:364|228:212,1,375.000014305115
28,100,6616,1,0,0:0:0:0:
188,40,6832,5,0,0:0:0:0:
188,40,6940,1,0,0:0:0:0:
308,160,7210,2,0,L,1,46.8750017881394
232,196,7318,2,0,L,1,46.8750017881394
156,236,7426,2,0,L,1,46.8750017881394
300,324,7587,1,0,0:0:0:0:
448,240,7803,2,0,L|364:288,1,93.7500035762788
156,236,8289,6,0,L,1,46.8750017881394
232,196,8397,2,0,L,1,46.8750017881394
308,160,8505,2,0,L,1,46.8750017881394
384,124,8613,2,0,L,1,46.8750017881394
460,88,8721,2,0,L,1,46.8750017881394
294,59,8882,22,0,L|382:13,1,93.7500035762788
137,142,9098,2,0,L|225:96,1,93.7500035762788
220,98,9314,1,0,0:0:0:0:
137,142,9422,2,0,B|204:268|204:268|72:344,1,281.250010728836
83,337,9746,2,0,B|16:208|16:208|140:140,1,281.250010728836
318,50,10393,21,0,0:0:0:0:
400,240,10609,1,0,0:0:0:0:
349,218,10717,1,0,0:0:0:0:
297,196,10825,1,0,0:0:0:0:
246,174,10933,1,0,0:0:0:0:
194,152,11041,1,0,0:0:0:0:
144,128,11149,2,0,B|44:288|44:288|168:288,1,281.250010728836
248,296,12174,6,0,L,1,93.7500035762788
352,248,12336,1,0,0:0:0:0:
352,248,12444,1,0,0:0:0:0:
352,248,12551,1,0,0:0:0:0:
6,166,13685,54,0,L,1,46.8750017881394
72,120,13739,1,0,0:0:0:0:
136,76,13846,1,0,0:0:0:0:
208,228,14062,1,0,0:0:0:0:
376,76,14278,1,0,0:0:0:0:
408,104,14386,1,0,0:0:0:0:
440,132,14494,1,0,0:0:0:0:
208,228,14710,2,0,P|328:192|247:248,1,375.000014305115
128,44,15573,5,0,0:0:0:0:
224,64,15787,1,0,0:0:0:0:
320,88,16001,1,0,0:0:0:0:
312,272,16215,1,0,0:0:0:0:
292,248,16323,1,0,0:0:0:0:
272,224,16430,1,0,0:0:0:0:
252,200,16537,1,0,0:0:0:0:
232,176,16644,1,0,0:0:0:0:
192,268,16858,2,0,L|276:368,1,125
192,268,17287,5,0,0:0:0:0:
276,216,17487,1,0,0:0:0:0:
360,164,17687,1,0,0:0:0:0:
168,52,17887,1,0,0:0:0:0:
176,84,17987,1,0,0:0:0:0:
184,116,18087,1,0,0:0:0:0:
192,148,18187,1,0,0:0:0:0:
200,176,18287,1,0,0:0:0:0:
100,156,18487,2,0,L|72:24,1,125
344,80,18887,5,0,0:0:0:0:
428,172,19074,1,0,0:0:0:0:
476,56,19262,1,0,0:0:0:0:
400,296,19449,1,0,0:0:0:0:
360,280,19543,1,0,0:0:0:0:
320,264,19637,1,0,0:0:0:0:
280,248,19730,1,0,0:0:0:0:
240,232,19824,1,0,0:0:0:0:
116,252,20012,2,0,L|180:116,1,125
320,264,20387,5,0,0:0:0:0:
368,380,20563,1,0,0:0:0:0:
456,292,20739,1,0,0:0:0:0:
168,232,20916,1,0,0:0:0:0:
196,200,21004,1,0,0:0:0:0:
224,168,21092,1,0,0:0:0:0:
252,136,21181,1,0,0:0:0:0:
280,104,21269,1,0,0:0:0:0:
412,76,21445,2,0,L|312:-8,1,125
100,88,21798,5,0,0:0:0:0:
100,88,21964,1,0,0:0:0:0:
100,88,22131,1,0,0:0:0:0:
168,232,22298,1,0,0:0:0:0:
168,232,22381,1,0,0:0:0:0:
168,232,22464,1,0,0:0:0:0:
168,232,22548,1,0,0:0:0:0:
168,232,22631,1,0,0:0:0:0:
332,224,22798,2,0,P|304:148|264:104,1,125
256,332,23131,5,0,0:0:0:0:
256,332,23288,1,0,0:0:0:0:
256,332,23446,1,0,0:0:0:0:
412,292,23604,1,0,0:0:0:0:
412,292,23683,1,0,0:0:0:0:
412,292,23762,1,0,0:0:0:0:
412,292,23841,1,0,0:0:0:0:
412,292,23920,1,0,0:0:0:0:
292,180,24078,2,0,P|356:140|416:132,1,125
200,256,24394,5,0,0:0:0:0:
24,164,24544,1,0,0:0:0:0:
200,256,24694,1,0,0:0:0:0:
24,164,24844,2,0,L|92:200,4,62.5
200,256,25294,2,0,L|320:320,1,125
200,256,25594,5,0,0:0:0:0:
296,80,25736,1,0,0:0:0:0:
200,256,25879,1,0,0:0:0:0:
296,80,26022,2,0,L|256:152,4,62.5
200,256,26451,2,0,L|128:380,1,125
148,88,26736,6,0,L|60:224,1,125
364,88,27022,2,0,L|452:224,1,125
148,88,27308,2,0,L|12:148,1,125
364,88,27594,2,0,L|500:148,1,125
148,88,27879,2,0,L|12:28,1,125
364,88,28165,2,0,L|500:28,1,125
148,88,28451,2,0,L|92:-24,1,125
364,88,28736,2,0,L|420:-24,1,125
80,188,29058,6,0,L,1,62.5
136,288,29201,2,0,L,1,62.5
184,188,29344,2,0,L,1,62.5
232,292,29486,2,0,L,1,62.5
280,188,29629,2,0,L,1,62.5
324,292,29772,2,0,L,1,62.5
372,188,29915,2,0,L,1,62.5
420,292,30058,2,0,L,1,62.5
28,64,31308,53,0,0:0:0:0:
228,12,31451,2,0,L|140:196,1,187.500007152558
288,100,31736,2,0,L|200:284,1,187.500007152558
404,72,32022,2,0,L|316:256,1,187.500007152558
456,172,32308,2,0,L|368:356,1,187.500007152558
260,172,32629,6,0,L,1,46.8750017881394
272,320,32772,2,0,L,1,46.8750017881394
176,200,32915,2,0,L,1,46.8750017881394
180,352,33058,2,0,L,1,46.8750017881394
100,208,33201,2,0,L,1,46.8750017881394
84,356,33344,2,0,L,1,46.8750017881394
28,180,33486,2,0,L,1,46.8750017881394
0,328,33629,2,0,L,1,46.8750017881394
156,256,33736,6,0,L|320:380,1,187.500007152558
472,328,34022,2,0,L|308:204,1,187.500007152558
156,256,34308,2,0,L|320:380,1,187.500007152558
472,328,34594,2,0,L|308:204,1,187.500007152558
104,76,34915,6,0,L,1,46.8750017881394
260,140,35058,2,0,L,1,46.8750017881394
72,176,35201,2,0,L,1,46.8750017881394
236,216,35344,2,0,L,1,46.8750017881394
64,276,35486,2,0,L,1,46.8750017881394
232,288,35629,2,0,L,1,46.8750017881394
80,376,35772,2,0,L,1,46.8750017881394
248,368,35915,2,0,L,1,46.8750017881394
376,256,36022,6,0,B|472:256|472:256|376:256,1,187.500007152558
168,184,36308,6,0,B|264:184|264:184|168:184,1,187.500007152558
320,100,36594,6,0,B|416:100|416:100|320:100,1,187.500007152558
112,32,36879,6,0,B|208:32|208:32|112:32,1,187.500007152558
324,372,37201,6,0,L,1,93.7500035762788
440,200,37344,2,0,L,1,93.7500035762788
268,316,37486,2,0,L,1,93.7500035762788
360,132,37629,2,0,L,1,93.7500035762788
200,280,37772,2,0,L,1,93.7500035762788
252,80,37915,2,0,L,1,93.7500035762788
128,264,38058,2,0,L,1,93.7500035762788
140,56,38201,2,0,L,1,93.7500035762788
64,248,38308,6,0,L|-4:60,1,187.500007152558
128,252,38594,2,0,L|112:72,1,162.499992561341
184,268,38879,2,0,L|216:112,1,137.500004196167
240,296,39165,2,0,L|299:185,1,112.499996566773
440,68,40486,22,0,L,1,31.25
336,176,40629,6,0,L,1,31.25
292,32,40772,6,0,L,1,31.25
440,68,40915,6,0,L,1,31.25
216,132,41058,6,0,L,1,31.25
88,52,41201,6,0,L,1,31.25
156,200,41344,6,0,L,1,31.25
28,124,41486,6,0,L,1,31.25
216,132,41594,22,0,L|344:96,1,125
456,188,41879,2,0,L|335:221,1,125
232,152,42165,2,0,L|360:116,1,125
472,208,42450,2,0,L|351:241,1,125
164,88,42772,22,0,L,1,31.25
192,236,42915,6,0,L,1,31.25
84,132,43058,6,0,L,1,31.25
232,152,43201,6,0,L,1,31.25
100,220,43344,6,0,L,1,31.25
164,88,43486,6,0,L,1,31.25
192,236,43629,6,0,L,1,31.25
320,156,43772,6,0,L,1,31.25
164,88,43879,22,0,L|276:20,1,125
320,156,44165,2,0,L|208:224,1,125
176,108,44451,2,0,L|288:40,1,125
332,176,44737,2,0,L|220:244,1,125
282,43,45058,22,0,L,1,31.25
136,8,45201,6,0,L,1,31.25
96,152,45344,6,0,L,1,31.25
240,188,45486,6,0,L,1,31.25
282,43,45629,6,0,L,1,31.25
396,140,45772,6,0,L,1,31.25
282,43,45915,6,0,L,1,31.25
240,188,46058,6,0,L,1,31.25
8,144,46165,22,0,L|48:296,1,125
156,168,46451,2,0,L|116:16,1,125
28,144,46736,2,0,L|68:296,1,125
176,168,47022,2,0,L|136:16,1,125
196,260,47344,22,0,L,1,31.25
328,328,47486,6,0,L,1,31.25
328,176,47629,6,0,L,1,31.25
196,260,47772,6,0,L,1,31.25
328,176,47915,6,0,L,1,31.25
328,328,48058,6,0,L,1,31.25
328,176,48201,6,0,L,1,31.25
192,112,48344,6,0,L,1,31.25
256,192,48451,12,0,49307,0:0:0:0:
440,48,49594,22,0,B|440:236|440:236|348:168|348:168|348:352,1,425.000008106232
40,312,50022,2,0,B|160:312|160:312|120:236|120:236|244:236|244:236|184:144,1,425.000008106232
272,136,50451,2,0,B|348:248|348:248|348:48|348:48|236:48,1,425.000008106232
424,164,50879,2,0,B|424:356|424:356|324:356|324:356|236:232,1,425.000008106232
424,164,51308,1,0,0:0:0:0:
312,188,51451,2,0,B|312:52|312:52|220:124|220:124|220:20|220:20|108:20,1,425.000008106232
32,288,51879,6,0,B|120:208|120:208|120:352|120:352|204:352|204:352|292:256,1,425.000008106232
16,176,52308,2,0,B|92:112|92:112|244:112|244:112|172:16|172:16|64:16,1,425.000008106232
376,44,52736,2,0,B|460:124|460:124|344:124|344:124|448:208|448:208|448:304,1,425.000008106232
268,168,53165,2,0,B|344:228|344:228|180:228|180:228|180:128|180:128|240:88,1,425.000008106232
156,340,53594,1,0,0:0:0:0:
272,340,53736,1,0,0:0:0:0:
388,340,53879,2,0,B|480:288|480:288|384:244|384:244|480:196|480:196|380:148,1,425.000008106232
120,4,54308,6,0,L|32:244,1,212.500004053116
256,192,54594,1,0,0:0:0:0:
216,16,54736,2,0,L|132:252,1,212.500004053116
256,192,55022,1,0,0:0:0:0:
296,16,55165,2,0,L|376:252,1,212.500004053116
256,192,55451,1,0,0:0:0:0:
392,4,55594,2,0,L|472:240,1,212.500004053116
256,192,55879,1,0,0:0:0:0:
256,192,56022,2,0,P|116:240|192:168,1,425.000008106232
256,192,56451,5,0,0:0:0:0:
105,68,56594,2,0,L|344:4,1,212.500004053116
256,192,56879,1,0,0:0:0:0:
379,74,57022,2,0,L|123:146,1,212.500004053116
256,192,57308,1,0,0:0:0:0:
331,255,57451,2,0,L|127:312,1,212.500004053116
256,192,57736,1,0,0:0:0:0:
200,373,57879,2,0,L|405:316,1,212.500004053116
256,192,58165,1,0,0:0:0:0:
256,192,58308,1,0,0:0:0:0:
256,192,58451,5,0,0:0:0:0:
228,152,58522,1,0,0:0:0:0:
192,124,58594,1,0,0:0:0:0:
148,108,58665,1,0,0:0:0:0:
104,100,58736,5,0,0:0:0:0:
464,56,59058,2,0,L,1,46.8750017881394
336,136,59165,1,0,0:0:0:0:
300,104,59272,2,0,L,1,46.8750017881394
264,72,59308,1,0,0:0:0:0:
104,100,59486,2,0,L,1,46.8750017881394
16,48,59594,1,0,0:0:0:0:
72,276,59772,6,0,L,1,46.8750017881394
264,324,60058,2,0,L,1,46.8750017881394
424,264,60344,2,0,L,1,46.8750017881394
280,168,60451,1,0,0:0:0:0:
280,168,60522,1,0,0:0:0:0:
280,168,60594,1,0,0:0:0:0:
412,96,60736,1,0,0:0:0:0:
412,96,60808,1,0,0:0:0:0:
412,96,60879,1,0,0:0:0:0:
220,16,61022,6,0,L|40:104,1,187.500007152558
28,120,61272,2,0,L,1,46.8750017881394
48,148,61308,2,0,L|228:240,1,187.500007152558
232,268,61558,2,0,L,1,46.8750017881394
232,304,61594,2,0,L|48:384,1,187.500007152558
96,268,61915,2,0,L,1,46.8750017881394
356,268,62058,6,0,L,1,46.8750017881394
456,124,62344,2,0,L,1,46.8750017881394
296,16,62629,2,0,L,1,46.8750017881394
264,124,62736,2,0,L|217:205,2,62.5
140,40,63022,2,0,L|44:72,2,62.5
88,244,63308,6,0,P|160:324|256:336,1,187.500007152558
232,184,63594,1,0,0:0:0:0:
320,64,63772,2,0,L,1,46.8750017881394
368,80,63844,2,0,L,1,46.8750017881394
416,96,63915,2,0,L,1,46.8750017881394
344,228,64022,1,0,0:0:0:0:
484,284,64165,1,0,0:0:0:0:
272,320,64344,6,0,L,1,46.8750017881394
184,72,64629,2,0,L,1,46.8750017881394
8,264,64915,2,0,L,1,46.8750017881394
168,280,65022,1,0,0:0:0:0:
180,260,65094,1,0,0:0:0:0:
192,240,65165,1,0,0:0:0:0:
335,231,65308,1,0,0:0:0:0:
323,251,65380,1,0,0:0:0:0:
311,271,65451,1,0,0:0:0:0:
192,240,65594,6,0,L|300:68,1,187.500007152558
264,48,65844,2,0,L,1,46.8750017881394
224,44,65879,2,0,L|112:220,1,187.500007152558
92,212,66094,1,0,0:0:0:0:
60,200,66165,2,0,B|92:16,2,187.500007152558
401,241,66629,22,0,L,1,46.8750017881394
439,32,66915,6,0,L,1,46.8750017881394
181,307,67201,6,0,L,1,46.8750017881394
294,143,67308,6,0,L|201:186,2,62.5
148,103,67594,2,0,L|238:61,2,62.5
198,303,67915,6,0,L,1,46.8750017881394
294,143,68058,6,0,L,1,46.8750017881394
396,300,68201,6,0,L,1,46.8750017881394
228,212,68344,6,0,L,1,46.8750017881394
336,364,68486,6,0,L,1,46.8750017881394
376,180,68629,6,0,L,1,46.8750017881394
488,328,68772,6,0,L,1,46.8750017881394
512,140,68915,6,0,L,1,46.8750017881394
226,191,69022,6,0,P|158:216|56:144,1,125
90,79,69308,2,0,P|157:53|259:125,1,125
246,207,69594,2,0,P|158:239|51:163,1,125
70,61,69880,2,0,P|157:28|265:94,1,125
304,40,70201,6,0,L,1,31.25
408,164,70344,6,0,L,1,31.25
468,12,70486,6,0,L,1,31.25
304,40,70629,6,0,L,1,31.25
240,188,70772,6,0,L,1,31.25
108,92,70915,6,0,L,1,31.25
136,252,71058,6,0,L,1,31.25
4,156,71201,6,0,L,1,31.25
304,148,71308,6,0,L|204:248,1,125
80,144,71594,2,0,L|180:44,1,125
264,128,71879,2,0,L|164:228,1,125
40,124,72165,2,0,L|140:24,1,125
40,344,72486,6,0,L,1,46.8750017881394
104,252,72629,6,0,L,1,46.8750017881394
168,344,72772,6,0,L,1,46.8750017881394
232,252,72915,6,0,L,1,46.8750017881394
300,340,73058,6,0,L,1,46.8750017881394
364,248,73201,6,0,L,1,46.8750017881394
424,344,73344,6,0,L,1,46.8750017881394
480,248,73486,6,0,L,1,46.8750017881394
288,260,73594,6,0,L|144:296,1,125
224,124,73879,2,0,L|368:88,1,125
288,279,74165,2,0,L|144:326,1,125
224,104,74450,2,0,L|368:57,1,125
20,28,74772,6,0,L,1,31.25
80,124,74915,6,0,L,1,31.25
140,28,75058,6,0,L,1,31.25
200,124,75201,6,0,L,1,31.25
200,236,75344,6,0,L,1,31.25
304,284,75486,6,0,L,1,31.25
200,332,75629,6,0,L,1,31.25
304,376,75772,6,0,L,1,31.25
408,248,75879,22,0,P|457:216|487:181,2,83.3333333333333
387,151,76165,2,0,P|423:105|441:62,2,83.3333333333333
301,189,76487,22,0,L,1,41.6666666666667
243,195,76582,6,0,L,1,41.6666666666667
190,169,76677,6,0,L,1,41.6666666666667
142,135,76772,6,0,L,1,41.6666666666667
83,136,76868,6,0,L,1,41.6666666666667
42,177,76963,6,0,L,1,41.6666666666667
47,234,77058,6,0,L,1,41.6666666666667
208,376,77213,21,0,0:0:0:0:
208,376,77308,1,0,0:0:0:0:
384,280,77498,1,0,0:0:0:0:
384,280,77594,1,0,0:0:0:0:
452,108,77784,1,0,0:0:0:0:
404,96,77879,1,0,0:0:0:0:
356,96,77974,1,0,0:0:0:0:
308,108,78070,1,0,0:0:0:0:
264,136,78165,6,0,P|176:184|76:160,1,166.666666666667
88,100,78451,2,0,P|176:52|276:76,1,166.666666666667
264,136,78736,5,0,0:0:0:0:
148,276,78927,1,0,0:0:0:0:
192,300,79022,2,0,P|240:324|304:324,2,83.3333333333333
124,360,79308,5,0,0:0:0:0:
44,196,79498,1,0,0:0:0:0:
44,196,79594,1,0,0:0:0:0:
136,36,79784,1,0,0:0:0:0:
136,36,79879,1,0,0:0:0:0:
320,36,80070,1,0,0:0:0:0:
368,48,80165,1,0,0:0:0:0:
408,76,80260,1,0,0:0:0:0:
436,116,80355,1,0,0:0:0:0:
440,168,80487,6,0,L,1,31.25
262,224,80677,6,0,L,1,41.6666666666667
351,197,80868,6,0,L,1,41.6666666666667
173,253,81058,6,0,L,1,41.6666666666667
48,48,81308,6,0,L|72:52,12,15.625
152,68,81594,6,0,P|260:100|312:160,1,166.666666666667
256,220,81879,2,0,P|148:188|96:128,1,166.666666666667
152,68,82165,1,0,0:0:0:0:
400,328,82772,6,0,L,1,31.25
284,232,82927,1,0,0:0:0:0:
284,232,83022,2,0,P|248:140|276:72,1,166.666666666667
364,80,83308,1,0,0:0:0:0:
68,168,83915,6,0,L,1,31.25
96,116,83974,1,0,0:0:0:0:
140,76,84070,1,0,0:0:0:0:
280,312,84486,6,0,L,1,31.25
336,296,84546,1,0,0:0:0:0:
388,268,84641,1,0,0:0:0:0:
164,184,85058,6,0,L,1,31.25
228,104,85165,1,0,0:0:0:0:
128,16,85451,1,0,0:0:0:0:
24,104,85594,2,0,L|4:120,28,15.625
64,160,86201,6,0,L,1,31.25
116,236,86486,2,0,L,1,31.25
180,160,86772,2,0,L,1,31.25
240,236,87058,2,0,L,1,31.25
304,160,87342,2,0,L,1,31.25
360,236,87621,2,0,L,1,31.25
420,160,87901,2,0,L,1,31.25
480,236,88180,2,0,L,1,31.25
304,320,88458,6,0,L,1,31.25
244,308,88594,2,0,L,1,31.25
188,280,88730,2,0,L,1,31.25
164,220,88867,2,0,L,1,31.25
176,160,89003,2,0,L,1,31.25
220,116,89139,2,0,L,1,31.25
280,100,89276,2,0,L,1,31.25
340,120,89412,2,0,L,1,31.25
384,168,89547,6,0,L,1,31.25
384,168,89680,2,0,L,1,31.25
324,220,89814,2,0,L,1,31.25
324,220,89947,2,0,L,1,31.25
248,228,90080,2,0,L,1,31.25
248,228,90214,2,0,L,1,31.25
180,196,90347,2,0,L,1,31.25
180,196,90480,2,0,L,1,31.25
140,140,90612,6,0,L,1,31.25
88,108,90743,2,0,L,1,31.25
28,116,90873,2,0,L,1,31.25
0,172,91003,2,0,L,1,31.25
12,232,91134,2,0,L,1,31.25
52,280,91264,2,0,L,1,31.25
108,304,91395,2,0,L,1,31.25
172,304,91525,2,0,L,1,31.25
232,284,91654,6,0,L,1,31.25
276,240,91782,2,0,L,1,31.25
300,184,91910,2,0,L,1,31.25
340,136,92037,2,0,L,1,31.25
396,108,92133,2,0,B|452:72|452:72|396:108,1,125
408,196,92388,2,0,B|464:160|464:160|408:196,1,125
384,296,92675,6,0,L,1,31.25
328,268,92800,2,0,L,1,31.25
272,240,92925,2,0,L,1,31.25
216,212,93050,2,0,L,1,31.25
160,180,93175,2,0,L,1,31.25
192,124,93300,2,0,L,1,31.25
224,72,93425,2,0,L,1,31.25
280,104,93550,2,0,L,1,31.25
336,136,93674,6,0,L,1,31.25
440,280,94654,6,0,L,1,31.25
380,292,94776,2,0,L,1,31.25
320,280,94899,2,0,L,1,31.25
276,236,95021,2,0,L,1,31.25
256,176,95144,2,0,L,1,31.25
220,124,95266,2,0,L,1,31.25
164,96,95388,2,0,L,1,31.25
104,108,95511,2,0,L,1,31.25
52,144,95603,6,0,P|32:196|48:280,1,125
112,212,95878,2,0,L,1,31.25
112,212,96001,2,0,L,1,31.25
212,240,96092,2,0,L|340:280,1,125
424,300,96368,2,0,L,1,31.25
424,300,96490,2,0,L,1,31.25
448,248,96613,6,0,L,1,31.25
452,184,96735,2,0,L,1,31.25
428,128,96858,2,0,L,1,31.25
380,88,96980,2,0,L,1,31.25
332,72,97103,2,0,L,1,31.25
280,68,97225,2,0,L,1,31.25
244,80,97348,2,0,L,1,31.25
228,96,97470,2,0,L,1,31.25
280,152,97562,6,0,L|344:268,1,125
216,220,97807,2,0,L|280:336,1,125
156,292,98082,22,0,L,1,31.25
116,244,98205,2,0,L,1,31.25
100,184,98327,2,0,L,1,31.25
112,124,98450,2,0,L,1,31.25
152,76,98572,22,0,L,1,31.25
212,56,98695,2,0,L,1,31.25
276,60,98817,2,0,L,1,31.25
348,84,98939,2,0,L,1,31.25
420,132,99062,6,0,L,1,31.25
128,276,99552,6,0,L,1,31.25
92,196,99674,6,0,L,1,31.25
328,48,100011,21,0,0:0:0:0:
384,72,100133,1,0,0:0:0:0:
428,116,100256,1,0,0:0:0:0:
452,172,100378,1,0,0:0:0:0:
440,232,100501,6,0,L|188:312,1,250
120,280,100868,1,0,0:0:0:0:
60,216,100990,2,0,L|304:144,1,250
384,168,101358,1,0,0:0:0:0:
396,256,101480,6,0,L|324:368,1,125
191,145,101725,2,0,L|263:33,1,125
379,238,101970,2,0,L|307:350,1,125
174,127,102215,2,0,L|246:15,1,125
352,212,102460,6,0,B|296:300|296:300|208:296|208:296|164:224|164:224|220:136,1,375.000014305115
404,276,102827,2,0,B|484:148|484:148|340:128|340:128|256:72,1,375.000014305115
80,228,103195,2,0,B|172:384|172:384|240:296|240:296|320:392,1,375.000014305115
136,172,103562,2,0,B|68:52|68:52|188:84|188:84|304:16,1,375.000014305115
348,264,103929,1,0,0:0:0:0:
408,152,104052,1,0,0:0:0:0:
480,264,104174,1,0,0:0:0:0:
224,360,104419,6,0,B|84:268|84:268|152:160|152:160|60:100,1,375.000014305115
196,236,104786,2,0,B|260:132|260:132|416:232|416:232|468:152,1,375.000014305115
416,68,105154,1,0,0:0:0:0:
276,32,105276,2,0,B|80:8|80:8|172:164,1,375.000014305115
204,220,105521,2,0,B|295:373|295:373|99:349,1,375.000014305115
0,340,105888,1,0,0:0:0:0:
0,340,106011,1,0,0:0:0:0:
0,340,106133,1,0,0:0:0:0:
373,61,106409,6,0,L,1,35
109,99,106654,6,0,L,1,35
226,162,106776,6,0,L,1,35
66,373,107021,6,0,L,1,35
147,266,107143,6,0,L,1,35
255,342,107266,6,0,L,1,35
423,135,107511,6,0,L,1,35
158,107,107756,6,0,L,1,35
223,223,107878,6,0,L,1,35
110,293,108001,6,0,L,1,35
40,180,108123,6,0,L,1,35
403,287,108368,6,0,L,1,35
256,64,108613,6,0,L,1,35
212,190,108735,6,0,L,1,35
128,375,108980,6,0,L,1,35
96,246,109103,6,0,L,1,35
222,290,109225,6,0,L,1,35
193,26,109470,6,0,L,1,35
440,123,109715,6,0,L,1,35
354,225,109837,6,0,L,1,35
222,290,109960,6,0,L,1,35
88,288,110082,6,0,L,1,35
164,132,110327,6,0,L,1,35
256,192,115195,12,0,115210,0:0:0:0:
