osu file format v14

[General]
AudioFilename: audio.mp3
AudioLeadIn: 0
PreviewTime: 49594
Countdown: 1
SampleSet: Normal
StackLeniency: 0.7
Mode: 0
LetterboxInBreaks: 0
WidescreenStoryboard: 0

[Editor]
DistanceSpacing: 0.3
BeatDivisor: 4
GridSize: 32
TimelineZoom: 1

[Metadata]
Title:Disconnected Hardkore (CanBlaster Remix)
TitleUnicode:Disconnected Hardkore (CanBlaster Remix)
Artist:Inspector K
ArtistUnicode:Inspector K
Creator:Kyshiro
Version:SetDifficulty (Error);
Source:
Tags:
BeatmapID:1970855
BeatmapSetID:943686

[Difficulty]
HPDrainRate:4.5
CircleSize:4
OverallDifficulty:8
ApproachRate:9.8
SliderMultiplier:1.99999990463257
SliderTickRate:1

[Events]
//Background and Video events
0,0,"disconnectedhardcorebg.png",0,0
//Break Periods
//Storyboard Layer 0 (Background)
//Storyboard Layer 1 (Fail)
//Storyboard Layer 2 (Pass)
//Storyboard Layer 3 (Foreground)
//Storyboard Sound Samples

[TimingPoints]
34,431.654676258993,4,1,0,70,1,0
34,-133.333333333333,4,1,0,70,0,0
465,-66.6666666666667,4,1,0,70,0,0
1436,-66.6666666666667,4,2,0,5,0,0
1544,-66.6666666666667,4,1,0,70,0,0
1652,-66.6666666666667,4,2,0,5,0,0
1760,-263.157894736842,4,1,0,70,0,0
2516,-133.333333333333,4,1,0,70,0,0
3487,-45.4545454545455,4,1,0,70,0,0
3918,-133.333333333333,4,1,0,70,0,0
4080,-133.333333333333,4,2,0,5,0,0
4134,-33.3333333333333,4,1,0,70,0,0
4566,-133.333333333333,4,1,0,70,0,0
4728,-133.333333333333,4,2,0,5,0,0
4782,-100,4,1,0,70,0,0
5213,-100,4,1,0,70,0,0
7102,-100,4,1,0,5,0,0
7156,-1000,4,1,0,70,0,0
7587,-100,4,1,0,70,0,0
7749,-100,4,1,0,5,0,0
7803,-33.3333333333333,4,1,0,70,0,0
8235,-40,4,1,0,70,0,0
8289,-40,4,2,0,5,0,0
8343,-40,4,1,0,70,0,0
8397,-40,4,2,0,5,0,0
8451,-40,4,1,0,70,0,0
8505,-40,4,2,0,5,0,0
8559,-40,4,1,0,70,0,0
8613,-40,4,2,0,5,0,0
8667,-100,4,1,0,70,0,0
10177,-1000,4,1,0,70,0,0
10339,-1000,4,2,0,5,0,0
10393,-100,4,1,0,70,0,0
11688,-66.6666666666667,4,1,0,70,0,0
12120,-100,4,1,0,70,0,0
12767,-200,4,1,0,70,0,0
13631,-66.6666666666667,4,1,0,70,0,0
15573,428.571428571429,4,1,0,70,1,0
15573,-153.846153846154,4,1,0,70,0,0
17287,400,4,1,0,70,1,0
17287,-153.846153846154,4,1,0,70,0,0
17387,-153.846153846154,4,2,0,5,0,0
17487,-153.846153846154,4,1,0,70,0,0
17587,-153.846153846154,4,2,0,5,0,0
17687,-153.846153846154,4,1,0,70,0,0
18887,375,4,1,0,70,1,0
18887,-128.205128205128,4,1,0,70,0,0
20387,352.941176470588,4,1,0,70,1,0
20387,-117.647058823529,4,1,0,70,0,0
21798,333.333333333333,4,1,0,70,1,0
21798,-105.263157894737,4,1,0,70,0,0
23131,315.789473684211,4,1,0,70,1,0
23131,-99.009900990099,4,1,0,70,0,0
23209,-99.009900990099,4,2,0,5,0,0
23288,-99.009900990099,4,1,0,70,0,0
23367,-99.009900990099,4,2,0,5,0,0
23446,-99.009900990099,4,1,0,70,0,0
24394,300,4,1,0,70,1,0
24394,-95.2380952380952,4,1,0,70,0,0
24469,-95.2380952380952,4,2,0,5,0,0
24544,-95.2380952380952,4,1,0,70,0,0
24619,-95.2380952380952,4,2,0,5,0,0
24694,-95.2380952380952,4,1,0,70,0,0
25594,285.714285714286,4,1,0,70,1,0
25594,-95.2380952380952,4,1,0,70,0,0
26736,-80,4,1,0,70,0,0
31308,-57.1428571428571,4,1,0,70,0,0
39308,-100,4,1,0,70,0,0
40451,-57.1428571428571,4,1,0,70,0,0
49594,-45.045045045045,4,1,0,70,0,1
53665,-45.045045045045,4,2,0,5,0,1
53736,-45.045045045045,4,1,0,70,0,1
53808,-45.045045045045,4,2,0,5,0,1
53879,-45.045045045045,4,1,0,70,0,1
58236,-45.045045045045,4,2,0,5,0,1
58307,-45.045045045045,4,1,0,70,0,1
58379,-45.045045045045,4,2,0,5,0,1
58450,-45.045045045045,4,1,0,70,0,1
58736,-58.8235294117647,4,1,0,70,0,0
60808,-58.8235294117647,4,2,0,5,0,0
60879,-58.8235294117647,4,1,0,70,0,0
60951,-58.8235294117647,4,2,0,5,0,0
61022,-58.8235294117647,4,1,0,70,0,0
61665,-58.8235294117647,4,2,0,5,0,0
61736,-58.8235294117647,4,1,0,70,0,0
61808,-58.8235294117647,4,2,0,5,0,0
61879,-58.8235294117647,4,1,0,70,0,0
61951,-58.8235294117647,4,2,0,5,0,0
62022,-58.8235294117647,4,1,0,70,0,0
63094,-58.8235294117647,4,2,0,5,0,0
63165,-58.8235294117647,4,1,0,70,0,0
63237,-58.8235294117647,4,2,0,5,0,0
63308,-58.8235294117647,4,1,0,70,0,0
65379,-58.8235294117647,4,2,0,5,0,0
65450,-58.8235294117647,4,1,0,70,0,0
65522,-58.8235294117647,4,2,0,5,0,0
65593,-58.8235294117647,4,1,0,70,0,0
77022,-64.5161290322581,4,1,0,70,0,0
80451,-57.1428571428571,4,1,0,70,0,0
81594,-64.5161290322581,4,1,0,70,0,0
82451,-200,4,1,0,70,0,0
82736,-64.5161290322581,4,1,0,70,0,0
83594,-200,4,1,0,70,0,0
85022,-66.6666666666667,4,1,0,70,0,0
86165,-86.9565217391304,4,1,0,70,0,0
87308,279.06976744186,4,1,0,70,1,0
87308,-86.9565217391304,4,1,0,70,0,0
88424,272.727272727273,4,1,0,70,1,0
88424,-86.9565217391304,4,1,0,70,0,0
89514,266.666666666667,4,1,0,70,1,0
89514,-86.9565217391304,4,1,0,70,0,0
90580,260.869565217391,4,1,0,70,1,0
90580,-71.4285714285714,4,1,0,70,0,0
91623,255.31914893617,4,1,0,70,1,0
91623,-64.5161290322581,4,1,0,70,0,0
92133,-100,4,1,0,70,0,0
92644,250,4,1,0,70,1,0
92644,-62.5,4,1,0,70,0,0
93644,244.897959183673,4,1,0,70,1,0
94623,-57.1428571428571,4,1,0,70,0,0
99276,-133.333333333333,4,1,0,70,0,0
99521,-57.1428571428571,4,1,0,70,0,0
99766,-133.333333333333,4,1,0,70,0,0
100011,-57.1428571428571,4,1,0,70,0,0
102460,-45.045045045045,4,1,0,70,0,1
103990,-45.045045045045,4,2,0,5,0,1
104052,-45.045045045045,4,1,0,70,0,1
104113,-45.045045045045,4,2,0,5,0,1
104174,-45.045045045045,4,1,0,70,0,1
104419,-40,4,1,0,70,0,1
105950,-40,4,1,0,5,0,1
106011,-40,4,1,0,70,0,1
106072,-40,4,1,0,5,0,1
106133,-40,4,1,0,70,0,1
107909,-40,4,1,0,5,0,1
107970,-40,4,1,0,70,0,1
108031,-40,4,1,0,5,0,1
108092,-40,4,1,0,70,0,1
108337,-36.3636363636364,4,1,0,70,0,1
110297,-30.3030303030303,4,1,0,70,0,1
110541,-30.3030303030303,4,1,0,70,0,0

[Colours]
Combo1 : 251,174,186
Combo2 : 232,202,228
Combo3 : 193,221,255

[HitObjects]
56,116,34,6,0,P|107:88|145:90,1,74.9999992847443
184,178,357,1,0,0:0:0:0:
201,172,465,2,0,P|243:172|281:186,1,74.9999992847443
342,235,681,1,0,0:0:0:0:
423,148,789,2,0,L|438:335,2,149.999998569489
266,291,1328,2,0,L|258:372,1,74.9999992847443
201,174,1544,2,0,L|193:99,1,74.9999992847443
62,271,1760,6,0,L|143:279,1,75.9999954483033
366,131,2516,2,0,B|328:137|328:137|290:131|290:131|252:138,1,112.499998927116
345,299,3055,1,0,0:0:0:0:
469,226,3271,1,0,0:0:0:0:
134,85,3487,6,0,B|115:164|115:164|138:140,1,109.999998111725
180,273,3703,2,0,B|199:194|199:194|176:218,1,109.999998111725
218,113,3918,2,0,L|283:107,1,56.2499994635582
349,86,4134,6,0,B|389:86|419:69|419:69|421:107|452:141,1,149.999998569489
406,228,4350,2,0,B|366:228|336:245|336:245|334:207|303:173,1,149.999998569489
252,249,4566,2,0,L|257:310,1,56.2499994635582
171,359,4782,5,0,0:0:0:0:
159,366,4890,2,0,P|126:371|100:364,1,49.9999976158143
6,229,5105,1,0,0:0:0:0:
18,220,5213,6,0,P|71:217|132:289,1,149.999992847443
182,178,5645,1,0,0:0:0:0:
187,158,5969,2,0,P|206:100|272:35,2,149.999992847443
187,158,6940,6,0,P|166:109|143:76,1,74.9999964237214
74,130,7156,1,0,0:0:0:0:
71,139,7264,1,0,0:0:0:0:
10,68,7372,1,0,0:0:0:0:
20,289,7587,2,0,L|31:370,1,74.9999964237214
194,323,7803,5,0,0:0:0:0:
280,346,7911,1,0,0:0:0:0:
356,285,8019,5,0,0:0:0:0:
443,265,8127,1,0,0:0:0:0:
487,159,8235,6,0,P|495:122|491:88,1,62.4999970197678
472,82,8343,2,0,P|464:119|468:153,1,62.4999970197678
385,187,8451,6,0,P|393:150|389:116,1,62.4999970197678
370,110,8559,2,0,P|362:147|366:181,1,62.4999970197678
268,222,8667,6,0,P|241:157|181:94,1,149.999992847443
95,63,9098,1,0,0:0:0:0:
95,63,9422,2,0,P|72:134|79:208,1,149.999992847443
203,332,9962,1,0,0:0:0:0:
334,220,10177,2,0,L|332:213,1,7.49999964237214
288,155,10393,6,0,L|273:273,1,99.9999952316285
146,127,10825,2,0,P|124:66|103:26,1,99.9999952316285
211,30,11149,2,0,P|248:61|365:83,1,149.999992847443
472,199,11688,6,0,P|408:208|379:235,1,74.9999992847443
430,355,11904,2,0,P|493:345|522:318,1,74.9999992847443
452,277,12120,2,0,L|225:257,1,199.999990463257
63,120,12767,5,0,0:0:0:0:
159,148,12875,1,0,0:0:0:0:
59,150,12983,2,0,P|24:159|15:163,1,24.9999988079071
224,224,13199,5,0,0:0:0:0:
128,252,13307,1,0,0:0:0:0:
228,254,13415,2,0,P|263:263|272:267,1,24.9999988079071
462,119,13631,6,0,B|456:153|444:175|444:175|433:169|431:159,1,74.9999992847443
380,233,13846,6,0,B|353:210|340:189|340:189|351:182|360:186,1,74.9999992847443
323,106,14062,6,0,B|355:93|380:93|380:93|380:106|373:112,1,74.9999992847443
256,171,14278,5,0,0:0:0:0:
166,154,14386,1,0,0:0:0:0:
36,209,14494,1,0,0:0:0:0:
489,308,14710,1,0,0:0:0:0:
46,120,15573,6,0,P|118:115|156:156,1,129.99998785019
260,78,16215,2,0,P|306:35|369:44,1,129.99998785019
452,124,16858,2,0,L|464:204,1,64.9999939250949
387,327,17287,6,0,L|327:313,1,32.4999969625475
280,245,17487,2,0,L|220:259,1,32.4999969625475
156,328,17687,1,0,0:0:0:0:
47,238,17887,1,0,0:0:0:0:
53,219,17987,1,0,0:0:0:0:
59,200,18087,1,0,0:0:0:0:
65,181,18187,1,0,0:0:0:0:
158,53,18387,1,0,0:0:0:0:
162,72,18487,2,0,P|177:119|194:149,1,64.9999939250949
327,311,18887,6,0,P|342:264|338:216,1,77.9999988990784
318,98,19262,1,0,0:0:0:0:
191,258,19449,1,0,0:0:0:0:
195,280,19543,1,0,0:0:0:0:
200,302,19637,1,0,0:0:0:0:
205,324,19730,1,0,0:0:0:0:
217,147,19918,1,0,0:0:0:0:
200,130,20012,2,0,P|153:113|116:110,1,77.9999988990784
356,319,20387,5,0,0:0:0:0:
376,317,20475,1,0,0:0:0:0:
396,315,20563,1,0,0:0:0:0:
416,313,20651,1,0,0:0:0:0:
436,311,20739,2,0,L|465:228,1,84.9999975681305
410,141,21004,1,0,0:0:0:0:
391,142,21092,2,0,L|360:227,1,84.9999975681305
141,336,21445,1,0,0:0:0:0:
113,330,21534,1,0,0:0:0:0:
88,317,21622,1,0,0:0:0:0:
66,298,21710,1,0,0:0:0:0:
46,270,21798,5,0,0:0:0:0:
65,117,21964,1,0,0:0:0:0:
224,154,22131,2,0,L|206:257,1,94.9999929332736
254,356,22381,1,0,0:0:0:0:
262,367,22464,2,0,L|309:356,1,47.4999964666368
112,163,22714,1,0,0:0:0:0:
101,152,22798,2,0,P|48:134|7:130,1,94.9999929332736
356,69,23131,6,0,P|384:87|405:96,1,50.499996590233
283,151,23288,2,0,P|255:169|234:178,1,50.499996590233
393,202,23446,1,0,0:0:0:0:
252,291,23604,1,0,0:0:0:0:
266,289,23683,1,0,0:0:0:0:
280,287,23762,1,0,0:0:0:0:
294,285,23841,1,0,0:0:0:0:
139,241,23999,1,0,0:0:0:0:
126,231,24078,2,0,P|89:184|76:135,1,100.999993180466
315,36,24394,6,0,L|306:105,1,52.4999958944322
211,159,24544,2,0,L|204:106,1,52.4999958944322
279,258,24694,1,0,0:0:0:0:
419,128,24844,1,0,0:0:0:0:
417,112,24919,1,0,0:0:0:0:
415,96,24994,1,0,0:0:0:0:
413,80,25069,1,0,0:0:0:0:
499,222,25219,1,0,0:0:0:0:
489,230,25294,2,0,P|470:283|468:338,1,104.999991788864
316,190,25594,5,0,0:0:0:0:
220,321,25736,1,0,0:0:0:0:
204,319,25808,1,0,0:0:0:0:
188,317,25879,2,0,L|95:307,1,52.4999958944322
48,179,26022,1,0,0:0:0:0:
64,177,26094,1,0,0:0:0:0:
80,175,26165,2,0,L|173:165,1,52.4999958944322
291,153,26308,1,0,0:0:0:0:
305,168,26379,1,0,0:0:0:0:
318,184,26451,1,0,0:0:0:0:
330,200,26522,1,0,0:0:0:0:
341,217,26594,1,0,0:0:0:0:
350,235,26665,1,0,0:0:0:0:
356,251,26736,6,0,P|366:312|356:374,1,124.999994039536
197,292,27022,2,0,P|136:302|74:292,1,124.999994039536
156,133,27308,2,0,P|146:72|156:10,1,124.999994039536
315,92,27594,2,0,P|376:82|438:92,1,124.999994039536
260,241,27879,6,0,B|189:278|189:278|24:233,1,249.999988079071
360,177,28308,1,0,0:0:0:0:
189,43,28451,2,0,L|176:174,1,124.999994039536
343,339,28736,1,0,0:0:0:0:
363,342,28808,1,0,0:0:0:0:
383,342,28879,1,0,0:0:0:0:
403,338,28951,1,0,0:0:0:0:
420,331,29022,6,0,P|460:277|463:203,1,124.999994039536
287,51,29308,6,0,P|300:101|354:154,1,124.999994039536
272,308,29594,2,0,P|171:243|40:250,1,249.999988079071
32,257,30165,5,0,0:0:0:0:
79,163,30308,1,0,0:0:0:0:
173,211,30451,1,0,0:0:0:0:
125,304,30594,1,0,0:0:0:0:
9,264,30736,5,0,0:0:0:0:
71,140,30879,1,0,0:0:0:0:
195,203,31022,1,0,0:0:0:0:
132,326,31165,1,0,0:0:0:0:
179,93,31308,6,0,L|352:118,1,174.99999332428
491,273,31594,2,0,P|398:284|326:349,1,174.99999332428
227,228,31879,1,0,0:0:0:0:
437,171,32022,1,0,0:0:0:0:
343,28,32165,2,0,L|330:212,1,174.99999332428
250,327,32379,5,0,0:0:0:0:
241,339,32451,2,0,B|155:359|155:359|79:314,1,174.99999332428
10,94,32736,2,0,B|96:74|96:74|172:119,1,174.99999332428
451,192,33022,1,0,0:0:0:0:
242,232,33165,1,0,0:0:0:0:
346,94,33308,1,0,0:0:0:0:
343,124,33379,1,0,0:0:0:0:
341,155,33451,1,0,0:0:0:0:
339,185,33522,1,0,0:0:0:0:
337,216,33594,6,0,P|385:286|478:315,1,174.99999332428
420,55,33879,2,0,L|236:79,1,174.99999332428
11,145,34165,2,0,P|98:158|167:217,1,174.99999332428
250,343,34380,1,0,0:0:0:0:
249,328,34451,2,0,P|262:246|335:172,1,174.99999332428
439,84,34736,5,0,0:0:0:0:
385,257,34879,1,0,0:0:0:0:
236,112,35022,1,0,0:0:0:0:
459,182,35165,1,0,0:0:0:0:
472,188,35236,1,0,0:0:0:0:
486,194,35308,2,0,L|511:370,1,174.99999332428
248,199,35594,2,0,L|273:23,1,174.99999332428
107,158,35808,5,0,0:0:0:0:
96,171,35879,2,0,B|70:221|70:221|106:336,1,174.99999332428
340,259,36165,2,0,P|198:229|159:253,1,174.99999332428
42,48,36451,2,0,L|219:79,1,174.99999332428
498,89,36736,2,0,P|423:139|335:137,1,174.99999332428
258,268,36951,5,0,0:0:0:0:
273,264,37022,2,0,B|335:249|335:249|445:297,1,174.99999332428
157,347,37308,1,0,0:0:0:0:
95,128,37451,1,0,0:0:0:0:
243,147,37594,1,0,0:0:0:0:
45,258,37736,1,0,0:0:0:0:
227,54,37879,1,0,0:0:0:0:
242,57,37951,1,0,0:0:0:0:
256,60,38022,1,0,0:0:0:0:
271,64,38094,1,0,0:0:0:0:
285,68,38165,6,0,L|259:260,1,174.99999332428
418,371,38451,1,0,0:0:0:0:
369,174,38594,1,0,0:0:0:0:
173,262,38736,2,0,L|350:281,1,174.99999332428
213,73,39022,1,0,0:0:0:0:
28,130,39165,1,0,0:0:0:0:
141,273,39308,6,0,L|152:159,1,99.9999952316285
369,32,39594,2,0,L|378:131,1,99.9999952316285
349,349,39879,1,0,0:0:0:0:
347,339,39951,1,0,0:0:0:0:
345,329,40022,1,0,0:0:0:0:
343,319,40094,1,0,0:0:0:0:
341,309,40165,1,0,0:0:0:0:
339,299,40236,1,0,0:0:0:0:
337,289,40308,1,0,0:0:0:0:
335,279,40379,1,0,0:0:0:0:
333,267,40451,6,0,B|166:183|166:348|0:267,1,349.99998664856
208,117,40879,1,0,0:0:0:0:
111,22,41022,2,0,P|69:126|88:185,1,174.99999332428
299,215,41308,2,0,P|341:111|322:52,1,174.99999332428
193,191,41522,1,0,0:0:0:0:
183,206,41594,6,0,L|212:387,1,174.99999332428
431,240,41879,2,0,L|458:67,1,174.99999332428
120,75,42165,2,0,L|301:104,1,174.99999332428
86,354,42451,1,0,0:0:0:0:
83,338,42522,1,0,0:0:0:0:
80,322,42594,1,0,0:0:0:0:
77,306,42665,1,0,0:0:0:0:
73,290,42736,6,0,B|131:266|168:237|168:237|180:278|206:303|206:303|216:282|235:272|235:272|257:285|288:283|288:283|354:276,1,349.99998664856
249,103,43165,1,0,0:0:0:0:
357,20,43308,2,0,B|402:95|402:95|371:182,1,174.99999332428
76,130,43594,2,0,L|259:101,1,174.99999332428
479,200,43879,5,0,0:0:0:0:
252,259,44022,1,0,0:0:0:0:
358,372,44165,2,0,L|375:189,1,174.99999332428
319,35,44379,1,0,0:0:0:0:
304,22,44451,2,0,P|254:105|269:180,1,174.99999332428
175,367,44736,2,0,P|186:282|138:211,1,174.99999332428
0,51,44951,5,0,0:0:0:0:
9,66,45022,2,0,B|53:125|53:125|236:45|236:45|286:114,1,349.99998664856
361,301,45451,1,0,0:0:0:0:
505,220,45594,2,0,L|325:199,1,174.99999332428
62,297,45879,2,0,P|137:265|230:278,1,174.99999332428
234,186,46094,5,0,0:0:0:0:
222,171,46165,2,0,P|183:107|184:6,1,174.99999332428
434,108,46451,2,0,L|418:308,1,174.99999332428
144,350,46736,2,0,P|226:285|297:280,1,174.99999332428
254,34,47022,1,0,0:0:0:0:
242,44,47094,1,0,0:0:0:0:
229,52,47165,1,0,0:0:0:0:
215,59,47236,1,0,0:0:0:0:
200,64,47308,6,0,B|141:82|84:58|84:58|132:179|97:217|97:217|72:200|33:198,1,349.99998664856
312,64,47879,2,0,B|370:82|427:58|427:58|379:179|414:217|414:217|439:200|478:198,1,349.99998664856
157,303,48451,6,0,L|103:136,1,174.99999332428
355,303,48736,2,0,L|409:136,1,174.99999332428
255,39,49022,1,0,0:0:0:0:
255,54,49094,1,0,0:0:0:0:
255,69,49165,1,0,0:0:0:0:
255,84,49236,1,0,0:0:0:0:
255,99,49308,1,0,0:0:0:0:
255,114,49379,1,0,0:0:0:0:
255,129,49451,1,0,0:0:0:0:
255,144,49522,1,0,0:0:0:0:
254,159,49594,6,0,B|195:256|101:269|-7:231|-38:111|84:38|141:117,1,443.999989668274
288,285,50022,2,0,B|346:382|440:395|549:357|580:237|457:164|400:243,1,443.999989668274
181,30,50451,6,0,B|167:97|221:156|221:156|125:128|18:211|18:211|36:168|15:121,1,443.999989668274
338,132,50879,2,0,B|351:199|297:258|297:258|393:230|500:313|500:313|482:270|503:223,1,443.999989668274
314,44,51308,5,0,0:0:0:0:
137,185,51451,2,0,B|64:273|260:426|274:90|470:240|399:330,1,443.999989668274
254,97,51879,6,0,B|187:76|187:76|157:99|157:99|106:99|65:65|48:22|48:22|40:91|-2:132|-2:132|28:145|53:172,1,443.999989668274
458,211,52308,2,0,B|483:238|514:251|514:251|471:292|463:361|463:361|446:318|405:284|354:284|354:284|324:307|324:307|258:287,1,443.999989668274
131,50,52736,6,0,B|178:108|248:133|248:133|177:132|129:161|129:161|177:172|200:208|200:208|160:238|160:299,1,443.999989668274
438,358,53165,2,0,B|390:299|320:274|320:274|391:275|439:246|439:246|391:235|368:199|368:199|409:170|408:108,1,443.999989668274
92,354,53594,6,0,P|161:383|208:369,1,110.999997417069
230,212,53736,2,0,P|161:183|114:197,1,110.999997417069
160,283,53879,1,0,0:0:0:0:
202,272,53951,1,0,0:0:0:0:
245,261,54022,1,0,0:0:0:0:
288,250,54094,1,0,0:0:0:0:
330,239,54165,6,0,B|391:237|391:237|439:212|439:212|467:273|467:273|515:306|515:306|507:395|452:394|415:395|371:343|416:293,1,443.999989668274
330,52,54594,2,0,B|300:29|344:-22|376:-26|436:-22|444:66|444:66|396:99|396:99|368:160|368:160|320:135|320:135|259:133,1,443.999989668274
86,184,55022,6,0,B|59:168|24:175|24:175|38:130|25:96|25:96|58:94|93:66|93:66|106:104|143:117|143:117|113:147|105:184|113:225|113:225|135:217|159:214,1,443.999989668274
369,291,55451,2,0,B|396:275|431:282|431:282|417:237|430:203|430:203|397:201|362:173|362:173|349:211|312:224|312:224|342:254|350:291|342:332|342:332|319:324|296:321,1,443.999989668274
440,90,55879,5,0,0:0:0:0:
219,25,56022,2,0,B|216:80|216:80|250:121|250:121|139:99|139:99|51:151|51:151|60:91|60:91|-13:78,1,443.999989668274
64,354,56451,6,0,B|138:300|110:216|110:216|170:238|170:238|203:192|203:192|222:280|314:300,1,443.999989668274
512,74,56879,2,0,B|437:127|465:211|465:211|405:189|405:189|372:235|372:235|353:147|261:127,1,443.999989668274
88,70,57308,5,0,0:0:0:0:
347,60,57451,2,0,B|319:117|333:175|333:175|302:146|261:127|261:127|299:258|197:349,2,443.999989668274
75,205,58165,2,0,P|102:226|184:235,1,110.999997417069
435,143,58308,2,0,P|380:145|333:174,1,110.999997417069
275,349,58451,5,0,0:0:0:0:
265,272,58522,1,0,0:0:0:0:
255,194,58594,1,0,0:0:0:0:
246,117,58665,1,0,0:0:0:0:
235,41,58736,6,0,L|40:18,1,169.999995136261
333,173,59022,2,0,L|528:150,1,169.999995136261
368,55,59236,1,0,0:0:0:0:
354,64,59308,2,0,L|190:161,2,169.999995136261
49,152,59736,6,0,P|190:143|319:290,2,339.999990272522
59,332,60451,1,0,0:0:0:0:
100,322,60522,1,0,0:0:0:0:
141,312,60594,1,0,0:0:0:0:
374,222,60736,2,0,P|310:216|274:200,1,84.9999975681305
49,152,60879,2,0,P|89:139|131:138,1,84.9999975681305
225,40,61022,6,0,L|203:229,1,169.999995136261
258,323,61236,1,0,0:0:0:0:
272,338,61308,2,0,P|377:334|430:283,1,169.999995136261
473,207,61522,1,0,0:0:0:0:
478,195,61594,2,0,L|454:100,1,84.9999975681305
426,5,61736,2,0,L|355:73,1,84.9999975681305
287,149,61879,2,0,L|381:175,1,84.9999975681305
272,56,62022,6,0,B|210:3|94:53|184:171|67:220|6:168,2,339.999990272522
328,271,62736,1,0,0:0:0:0:
286,262,62808,1,0,0:0:0:0:
244,253,62879,1,0,0:0:0:0:
397,193,63022,2,0,B|427:223|427:223|428:277,1,84.9999975681305
179,325,63165,2,0,B|149:295|149:295|148:241,1,84.9999975681305
291,175,63308,6,0,L|281:367,1,169.999995136261
183,105,63594,2,0,P|277:46|368:70,1,169.999995136261
198,226,63808,1,0,0:0:0:0:
184,238,63879,2,0,B|96:252|96:252|21:199,2,169.999995136261
469,332,64308,6,0,P|398:279|302:288,1,169.999995136261
155,117,64594,2,0,P|238:116|304:65,1,169.999995136261
43,48,64879,1,0,0:0:0:0:
352,185,65022,1,0,0:0:0:0:
394,178,65094,1,0,0:0:0:0:
435,171,65165,1,0,0:0:0:0:
177,323,65308,2,0,L|77:306,1,84.9999975681305
191,234,65451,2,0,L|291:251,1,84.9999975681305
384,352,65594,6,0,B|435:323|435:323|462:198,1,169.999995136261
352,185,65808,1,0,0:0:0:0:
352,173,65879,2,0,B|352:114|352:114|257:28,1,169.999995136261
184,120,66094,1,0,0:0:0:0:
173,113,66165,2,0,B|122:83|122:83|0:122,1,169.999995136261
237,244,66451,1,0,0:0:0:0:
150,352,66594,6,0,P|99:243|113:187,1,169.999995136261
316,142,66879,2,0,P|367:251|353:307,1,169.999995136261
187,94,67165,1,0,0:0:0:0:
454,92,67308,1,0,0:0:0:0:
453,108,67379,1,0,0:0:0:0:
452,125,67451,1,0,0:0:0:0:
451,141,67522,1,0,0:0:0:0:
450,158,67594,1,0,0:0:0:0:
449,174,67665,1,0,0:0:0:0:
448,190,67736,1,0,0:0:0:0:
447,207,67808,1,0,0:0:0:0:
447,222,67879,6,0,B|331:222|331:222|254:145|254:145|139:145,1,339.999990272522
42,307,68308,1,0,0:0:0:0:
276,364,68451,2,0,B|282:279|282:279|221:218,1,169.999995136261
311,5,68736,2,0,B|305:90|305:90|366:151,1,169.999995136261
211,120,68950,5,0,0:0:0:0:
195,109,69022,2,0,P|99:88|26:106,1,169.999995136261
300,299,69308,2,0,L|480:278,1,169.999995136261
97,338,69594,2,0,P|21:273|-1:192,1,169.999995136261
152,16,69879,1,0,0:0:0:0:
150,33,69951,1,0,0:0:0:0:
148,49,70022,1,0,0:0:0:0:
146,66,70094,1,0,0:0:0:0:
144,82,70165,6,0,B|211:58|211:58|243:112|243:112|231:125|231:125|259:109|259:109|249:124|249:124|283:180|283:180|351:147,1,339.999990272522
137,197,70594,1,0,0:0:0:0:
320,276,70736,2,0,P|207:288|158:337,1,169.999995136261
50,291,70950,1,0,0:0:0:0:
35,283,71022,2,0,L|9:103,1,169.999995136261
208,28,71308,6,0,P|198:126|147:191,1,169.999995136261
321,342,71594,2,0,B|394:294|394:294|491:309,1,169.999995136261
345,205,71808,1,0,0:0:0:0:
326,202,71879,2,0,L|128:178,1,169.999995136261
20,354,72165,1,0,0:0:0:0:
36,350,72236,1,0,0:0:0:0:
52,346,72308,1,0,0:0:0:0:
68,342,72379,1,0,0:0:0:0:
84,338,72451,6,0,B|134:342|163:368|163:368|211:296|211:296|273:371|376:348,1,339.999990272522
452,214,72879,1,0,0:0:0:0:
254,171,73022,2,0,P|162:175|94:240,1,169.999995136261
348,78,73308,2,0,L|357:264,1,169.999995136261
251,58,73523,5,0,0:0:0:0:
246,41,73594,2,0,P|331:-20|437:140,1,339.999990272522
173,140,74022,1,0,0:0:0:0:
284,292,74165,2,0,B|341:229|341:229|322:134,1,169.999995136261
7,77,74451,1,0,0:0:0:0:
6,93,74522,1,0,0:0:0:0:
5,110,74594,1,0,0:0:0:0:
4,126,74665,1,0,0:0:0:0:
3,142,74736,6,0,B|15:54|146:45|181:123|126:193|197:236|250:197,1,339.999990272522
74,157,75165,1,0,0:0:0:0:
308,102,75308,2,0,P|367:218|340:271,1,169.999995136261
174,337,75594,2,0,B|182:252|182:252|247:198,1,169.999995136261
488,115,75879,6,0,L|473:243,2,113.333330090841
308,131,76165,2,0,L|294:18,2,113.333330090841
344,285,76451,1,0,0:0:0:0:
307,311,76546,1,0,0:0:0:0:
264,325,76641,1,0,0:0:0:0:
218,328,76736,1,0,0:0:0:0:
172,321,76832,1,0,0:0:0:0:
132,299,76927,1,0,0:0:0:0:
100,266,77022,6,0,P|72:154|117:54,1,206.666658388774
412,118,77308,2,0,P|440:230|395:330,1,206.666658388774
182,36,77594,2,0,P|294:8|394:53,1,206.666658388774
330,348,77880,2,0,P|218:376|118:331,1,206.666658388774
4,156,78165,6,0,L|226:185,1,206.666658388774
293,318,78451,1,0,0:0:0:0:
338,262,78546,1,0,0:0:0:0:
381,319,78641,1,0,0:0:0:0:
420,259,78736,2,0,B|447:158|447:158|391:63,1,206.666658388774
198,33,79022,1,0,0:0:0:0:
201,74,79117,1,0,0:0:0:0:
204,115,79213,1,0,0:0:0:0:
207,156,79308,6,0,P|81:143|24:87,1,206.666658388774
323,212,79594,2,0,P|428:141|452:65,1,206.666658388774
205,282,79879,2,0,P|145:170|159:91,1,206.666658388774
307,343,80165,2,0,L|544:320,1,206.666658388774
267,160,80451,6,0,B|211:141|211:141|135:230|135:230|67:208,3,233.333324432373
79,212,81308,6,0,L|52:273,4,58.3333311080933
30,106,81594,6,0,P|142:110|202:198,1,206.666658388774
301,362,81879,2,0,B|258:267|258:267|307:174,1,206.666658388774
427,52,82165,2,0,L|456:281,1,206.666658388774
386,263,82451,6,0,L|471:255,1,66.6666634877523
301,362,82736,6,0,P|211:313|96:329,1,206.666658388774
8,182,83022,1,0,0:0:0:0:
64,227,83117,1,0,0:0:0:0:
104,166,83213,1,0,0:0:0:0:
161,209,83308,2,0,L|375:182,1,206.666658388774
351,119,83594,6,0,P|365:150|361:199,1,66.6666634877523
276,328,83879,5,0,0:0:0:0:
233,319,83974,1,0,0:0:0:0:
190,310,84070,1,0,0:0:0:0:
147,302,84165,2,0,P|105:304|75:315,1,66.6666634877523
279,200,84451,5,0,0:0:0:0:
322,191,84546,1,0,0:0:0:0:
365,182,84642,1,0,0:0:0:0:
408,174,84737,2,0,P|450:176|480:187,1,66.6666634877523
346,270,85022,6,0,L|184:240,1,149.999998569489
8,162,85451,5,0,0:0:0:0:
84,60,85594,1,0,0:0:0:0:
89,96,85665,1,0,0:0:0:0:
94,132,85736,1,0,0:0:0:0:
100,169,85808,1,0,0:0:0:0:
106,205,85879,1,0,0:0:0:0:
112,242,85951,1,0,0:0:0:0:
117,278,86022,1,0,0:0:0:0:
123,315,86094,1,0,0:0:0:0:
129,351,86165,6,0,P|196:362|237:340,1,114.999996709824
452,150,86593,1,0,0:0:0:0:
371,63,86736,2,0,L|332:301,1,229.999993419647
159,114,87165,1,0,0:0:0:0:
236,177,87308,2,0,P|175:212|58:131,2,229.999993419647
501,57,88145,1,0,0:0:0:0:
475,45,88214,1,0,0:0:0:0:
446,44,88284,1,0,0:0:0:0:
418,51,88354,1,0,0:0:0:0:
396,71,88424,6,0,L|411:189,1,114.999996709824
487,292,88696,2,0,L|369:307,1,114.999996709824
263,379,88969,2,0,L|248:261,1,114.999996709824
172,158,89241,2,0,L|290:143,1,114.999996709824
64,121,89514,5,0,0:0:0:0:
26,229,89647,1,0,0:0:0:0:
135,267,89780,1,0,0:0:0:0:
172,158,89914,1,0,0:0:0:0:
26,229,90047,2,0,P|24:294|54:346,1,114.999996709824
172,158,90314,2,0,P|174:93|144:41,1,114.999996709824
363,302,90580,6,0,L|215:279,1,139.999989051819
369,153,90840,2,0,L|517:130,1,139.999989051819
336,19,91101,1,0,0:0:0:0:
271,168,91232,1,0,0:0:0:0:
73,136,91362,1,0,0:0:0:0:
138,285,91493,1,0,0:0:0:0:
184,83,91623,6,0,B|134:24|134:24|57:15,1,154.99999379158
328,301,91878,2,0,B|378:360|378:360|455:369,1,154.99999379158
183,239,92133,6,0,B|144:272|144:272|138:323,1,99.9999952316285
328,144,92388,2,0,B|367:111|367:111|373:60,1,99.9999952316285
118,174,92644,6,0,P|33:126|-4:66,1,159.999992370606
297,254,92894,2,0,L|469:235,1,159.999992370606
164,311,93144,2,0,L|-8:292,1,159.999992370606
233,22,93394,2,0,B|265:95|265:95|223:190,1,159.999992370606
392,339,93644,6,0,L|453:324,3,49.9999976158143
296,283,93888,2,0,L|235:268,3,49.9999976158143
390,239,94133,1,0,0:0:0:0:
396,229,94195,1,0,0:0:0:0:
401,218,94256,1,0,0:0:0:0:
405,207,94317,1,0,0:0:0:0:
409,196,94378,1,0,0:0:0:0:
412,185,94439,1,0,0:0:0:0:
414,173,94501,1,0,0:0:0:0:
416,161,94562,1,0,0:0:0:0:
417,153,94623,6,0,L|202:122,1,174.99999332428
105,337,94868,2,0,P|194:325|274:261,1,174.99999332428
122,25,95113,2,0,B|68:98|68:98|84:190,1,174.99999332428
459,225,95358,2,0,L|433:25,1,174.99999332428
272,256,95603,5,0,0:0:0:0:
211,71,95725,1,0,0:0:0:0:
13,183,95848,2,0,B|99:158|99:158|187:196,1,174.99999332428
368,336,96092,1,0,0:0:0:0:
143,290,96215,1,0,0:0:0:0:
276,156,96337,1,0,0:0:0:0:
277,173,96399,1,0,0:0:0:0:
278,190,96460,1,0,0:0:0:0:
279,207,96521,1,0,0:0:0:0:
280,224,96582,6,0,L|461:194,1,174.99999332428
177,113,96827,2,0,P|81:75|36:22,1,174.99999332428
357,107,97072,2,0,B|403:184|403:184|377:288,1,174.99999332428
82,325,97317,1,0,0:0:0:0:
269,244,97439,1,0,0:0:0:0:
177,113,97562,6,0,L|171:296,1,174.99999332428
339,358,97807,1,0,0:0:0:0:
456,154,97929,1,0,0:0:0:0:
352,231,98052,1,0,0:0:0:0:
235,27,98174,1,0,0:0:0:0:
339,96,98297,1,0,0:0:0:0:
327,109,98358,1,0,0:0:0:0:
314,120,98419,1,0,0:0:0:0:
300,131,98480,1,0,0:0:0:0:
285,140,98541,6,0,P|174:130|122:69,1,174.99999332428
329,278,98786,2,0,L|507:242,1,174.99999332428
206,345,99031,2,0,B|120:323|120:323|26:374,1,174.99999332428
255,228,99276,6,0,B|239:261|239:261|231:224,1,74.9999992847443
148,134,99521,6,0,L|334:106,1,174.99999332428
64,226,99766,6,0,B|30:241|30:241|67:249,1,74.9999992847443
296,311,100011,5,0,0:0:0:0:
167,261,100133,2,0,L|181:355,2,87.4999966621399
364,197,100378,1,0,0:0:0:0:
230,142,100501,1,0,0:0:0:0:
205,150,100562,1,0,0:0:0:0:
178,152,100623,1,0,0:0:0:0:
152,147,100684,1,0,0:0:0:0:
128,133,100746,1,0,0:0:0:0:
186,44,100868,1,0,0:0:0:0:
39,97,100990,6,0,B|27:139|27:139|55:192,3,87.4999966621399
208,141,101235,2,0,B|169:120|169:120|127:132,3,87.4999966621399
132,229,101480,6,0,L|148:335,1,87.4999966621399
316,184,101603,2,0,L|329:97,1,87.4999966621399
253,276,101725,2,0,L|269:382,1,87.4999966621399
437,231,101848,2,0,L|450:144,1,87.4999966621399
378,19,101970,1,0,0:0:0:0:
360,22,102031,1,0,0:0:0:0:
342,25,102092,1,0,0:0:0:0:
324,28,102154,1,0,0:0:0:0:
306,31,102215,1,0,0:0:0:0:
288,34,102276,1,0,0:0:0:0:
270,37,102337,1,0,0:0:0:0:
252,40,102399,1,0,0:0:0:0:
238,43,102460,6,0,B|153:109|36:81|36:81|111:195|282:150,1,443.999989668274
512,222,102827,2,0,B|401:246|328:125|328:125|352:253|255:322,1,443.999989668274
76,203,103195,6,0,P|193:96|123:253,1,443.999989668274
392,334,103562,2,0,B|345:293|284:298|284:298|319:265|345:209|335:144|322:101|322:101|391:84|411:14,1,443.999989668274
433,161,103929,6,0,L|449:307,1,110.999997417069
242,180,104052,2,0,L|226:34,1,110.999997417069
319,286,104174,1,0,0:0:0:0:
302,314,104235,1,0,0:0:0:0:
274,333,104297,1,0,0:0:0:0:
243,345,104358,1,0,0:0:0:0:
210,349,104419,6,0,B|157:278|80:265|80:265|151:248|151:248|109:212|109:212|178:204|178:204|112:176|80:99,1,499.999976158142
310,42,104786,2,0,B|427:-9|531:249|165:160|266:417|385:369,1,499.999976158142
478,230,105154,5,0,0:0:0:0:
222,181,105276,2,0,B|361:184|459:114|459:114|441:246|499:362,2,499.999976158142
27,149,105888,2,0,L|10:11,1,124.999994039536
119,203,106011,2,0,L|103:327,1,124.999994039536
141,81,106133,1,0,0:0:0:0:
172,60,106195,1,0,0:0:0:0:
208,50,106256,1,0,0:0:0:0:
245,46,106317,1,0,0:0:0:0:
282,49,106378,6,0,B|328:214|328:214|368:104|368:104|446:105|446:105|481:48|481:48|513:108,1,499.999976158142
432,221,106746,2,0,B|405:309|344:339|272:325|213:271|224:180|224:180|199:267|89:281,1,499.999976158142
23,137,107113,6,0,B|43:202|81:219|144:205|173:163|170:128|119:92|98:34|142:-3|234:-24|294:-1|296:55|294:145,1,499.999976158142
407,246,107480,2,0,B|324:259|324:259|265:338|265:338|167:272|167:272|221:188|221:188|217:44,1,499.999976158142
69,226,107848,6,0,B|49:285|49:285|99:358,1,124.999994039536
109,155,107971,2,0,B|129:96|129:96|79:23,1,124.999994039536
151,228,108092,1,0,0:0:0:0:
181,250,108154,1,0,0:0:0:0:
216,262,108215,1,0,0:0:0:0:
253,264,108276,1,0,0:0:0:0:
290,259,108337,6,0,P|310:57|145:221,1,549.999979019165
277,360,108705,2,0,B|339:281|461:262|461:262|329:231|238:143|238:143|240:196|211:240,1,549.999979019165
115,330,109072,6,0,B|10:238|10:238|56:109,2,274.999989509583
156,102,109439,2,0,B|191:20|311:24|353:160|285:202|232:267|319:350|426:338|461:310|463:190|373:217,1,549.999979019165
208,190,109807,2,0,L|195:345,1,137.499994754791
120,181,109929,2,0,L|108:43,1,137.499994754791
284,29,110052,1,0,0:0:0:0:
291,69,110113,1,0,0:0:0:0:
298,109,110174,1,0,0:0:0:0:
305,149,110235,1,0,0:0:0:0:
311,188,110297,6,0,B|325:255|325:255|430:106|430:106|220:108|220:108|257:303,1,659.999974822998
