osu file format v14

[General]
AudioFilename: audio.mp3
AudioLeadIn: 0
PreviewTime: -1
Countdown: 0
SampleSet: None
StackLeniency: 0
Mode: 0
LetterboxInBreaks: 0
WidescreenStoryboard: 0

[Editor]
Bookmarks: 90461
DistanceSpacing: 0.8
BeatDivisor: 4
GridSize: 32
TimelineZoom: 1.7

[Metadata]
Title:Disconnected -Hyper-
TitleUnicode:Disconnected -Hyper-
Artist:Inspector K
ArtistUnicode:Inspector K
Creator:Musty
Version:EX
Source:In the Groove
Tags:
BeatmapID:1852731
BeatmapSetID:886280

[Difficulty]
HPDrainRate:6
CircleSize:3
OverallDifficulty:9
ApproachRate:8
SliderMultiplier:3.2
SliderTickRate:1

[Events]
//Background and Video events
0,0,"Disconnected -Hyper--bg.png",0,0
//Break Periods
2,88815,89711
//Storyboard Layer 0 (Background)
//Storyboard Layer 1 (Fail)
//Storyboard Layer 2 (Pass)
//Storyboard Layer 3 (Foreground)
//Storyboard Sound Samples

[TimingPoints]
0,307.692307692308,4,1,0,70,1,0
29538,-50,4,1,0,70,0,0
59076,-100,4,1,0,70,0,0
60307,-50,4,1,0,70,0,0
61230,-100,4,1,0,70,0,0
62769,-50,4,1,0,70,0,0
63538,-100,4,1,0,70,0,0
65230,-50,4,1,0,70,0,0
66153,-100,4,1,0,70,0,0
67384,-50,4,1,0,70,0,0
68923,-100,4,1,0,70,0,1
88615,-100,4,1,0,70,0,0
91076,-66.6666666666667,4,1,0,70,0,0
110769,-25,4,1,0,70,0,0

[HitObjects]
160,320,0,6,0,L|512:320,1,320,4|0,0:0|0:0,0:0:0:0:
32,320,615,1,0,0:0:0:0:
384,224,923,2,0,L|224:224,1,160,0|0,0:0|2:0,0:0:0:0:
480,96,1230,6,0,L|288:96,1,160,0|0,0:0|2:0,0:0:0:0:
192,96,1538,2,0,L|32:96,1,160,0|0,0:0|2:0,0:0:0:0:
32,224,1846,2,0,L|224:224,1,160,0|0,0:0|2:0,0:0:0:0:
320,224,2154,2,0,L|480:224,1,160,0|0,0:0|2:0,0:0:0:0:
32,224,2461,1,0,0:0:0:0:
256,352,2769,6,0,L|96:352,1,160,0|0,0:0|2:0,0:0:0:0:
96,352,3000,1,0,2:0:0:0:
96,352,3076,1,2,2:0:0:0:
384,352,3230,1,2,2:0:0:0:
96,224,3384,1,2,2:0:0:0:
384,224,3538,1,2,2:0:0:0:
96,96,3692,6,0,L|0:96,4,53.3333333333333
192,96,4000,2,0,L|384:96,1,160,0|0,0:0|2:0,0:0:0:0:
64,192,4307,1,0,0:0:0:0:
256,192,4461,1,0,0:0:0:0:
448,192,4615,1,0,0:0:0:0:
32,320,4923,6,0,L|352:320,2,320
256,192,5846,2,0,L|96:192,1,160
352,320,6153,2,0,L|512:320,1,160
256,192,6461,1,0,0:0:0:0:
352,64,6615,1,0,0:0:0:0:
448,192,6769,2,0,L|512:192,1,53.3333333333333
256,192,7076,5,0,0:0:0:0:
160,64,7230,2,0,L|96:64,1,53.3333333333333
0,64,7384,5,0,0:0:0:0:
512,64,7692,1,0,0:0:0:0:
0,192,8000,1,0,0:0:0:0:
512,192,8308,1,0,0:0:0:0:
53,320,8615,2,0,L|0:320,4,53.3333333333333
160,320,8923,6,0,L|320:320,1,160
512,320,9230,1,0,0:0:0:0:
320,192,9384,1,0,0:0:0:0:
512,192,9538,1,0,0:0:0:0:
320,320,9692,1,0,0:0:0:0:
160,192,9846,6,0,L|0:192,1,160,2|0,0:0|0:0,0:0:0:0:
160,32,10153,2,0,L|0:32,1,160,2|0,0:0|0:0,0:0:0:0:
352,32,10461,2,0,L|512:32,1,160,2|0,0:0|0:0,0:0:0:0:
352,192,10769,2,0,L|512:192,1,160,2|0,0:0|0:0,0:0:0:0:
256,320,11076,1,2,0:0:0:0:
256,320,11230,1,0,0:0:0:0:
256,320,11384,1,2,0:0:0:0:
416,320,11538,1,0,0:0:0:0:
256,160,11692,1,2,0:0:0:0:
256,320,11846,1,0,0:0:0:0:
256,160,12000,1,2,0:0:0:0:
0,320,12307,6,0,P|128:320|160:320,1,160,2|0,0:0|0:0,0:0:0:0:
0,192,12615,2,0,P|128:192|160:192,1,160,2|0,0:0|0:0,0:0:0:0:
512,192,12923,2,0,P|384:192|352:192,1,160,2|0,0:0|0:0,0:0:0:0:
512,320,13230,2,0,P|384:320|352:320,1,160,2|0,0:0|0:0,0:0:0:0:
256,224,13538,1,2,0:0:0:0:
256,64,13692,1,0,0:0:0:0:
416,64,13846,1,2,0:0:0:0:
256,224,14000,1,0,0:0:0:0:
256,64,14153,1,2,0:0:0:0:
416,64,14307,1,0,0:0:0:0:
96,64,14461,1,2,0:0:0:0:
256,224,14615,1,0,0:0:0:0:
160,320,14769,6,0,B|64:320|64:320|0:320|0:320,1,160,2|0,0:0|0:0,0:0:0:0:
352,320,15076,2,0,B|448:320|448:320|512:320|512:320,1,160,2|0,0:0|0:0,0:0:0:0:
160,128,15384,2,0,B|64:128|64:128|0:128|0:128,1,160,2|0,0:0|0:0,0:0:0:0:
352,128,15691,2,0,B|448:128|448:128|512:128|512:128,1,160,2|0,0:0|0:0,0:0:0:0:
256,224,16000,1,0,0:0:0:0:
256,224,16153,1,0,0:0:0:0:
416,224,16307,1,0,0:0:0:0:
256,224,16461,1,0,0:0:0:0:
96,224,16615,1,0,0:0:0:0:
256,224,16769,1,0,0:0:0:0:
416,224,16923,1,0,0:0:0:0:
416,224,17076,1,0,0:0:0:0:
256,128,17230,6,0,L|96:128,1,160,2|0,0:0|0:0,0:0:0:0:
96,320,17538,2,0,L|256:320,1,160,2|0,0:0|0:0,0:0:0:0:
352,128,17846,2,0,L|512:128,1,160,2|0,0:0|0:0,0:0:0:0:
512,320,18154,2,0,L|352:320,1,160,2|0,0:0|0:0,0:0:0:0:
256,224,18461,1,0,0:0:0:0:
96,224,18615,1,0,0:0:0:0:
256,224,18769,1,0,0:0:0:0:
96,224,18923,1,0,0:0:0:0:
96,224,19076,1,0,0:0:0:0:
256,224,19230,1,0,0:0:0:0:
256,224,19384,1,0,0:0:0:0:
96,224,19538,1,0,0:0:0:0:
256,352,19692,6,0,L|416:352,1,160,2|0,0:0|0:0,0:0:0:0:
512,224,20000,2,0,L|352:224,1,160,2|0,0:0|0:0,0:0:0:0:
160,224,20307,2,0,L|0:224,1,160,2|0,0:0|0:0,0:0:0:0:
96,96,20615,2,0,L|256:96,1,160,2|0,0:0|0:0,0:0:0:0:
416,96,20923,1,0,0:0:0:0:
416,96,21076,1,0,0:0:0:0:
256,96,21230,1,0,0:0:0:0:
416,96,21384,1,0,0:0:0:0:
256,96,21538,1,0,0:0:0:0:
96,96,21692,1,0,0:0:0:0:
416,96,21846,1,0,0:0:0:0:
192,288,22153,6,0,L|32:288,1,160,2|0,0:0|0:0,0:0:0:0:
416,288,22461,1,0,0:0:0:0:
256,96,22615,2,0,L|448:96,1,160,2|0,0:0|0:0,0:0:0:0:
416,288,22923,1,0,0:0:0:0:
416,288,23076,1,0,0:0:0:0:
160,96,23230,2,0,L|-32:96,1,160,2|0,0:0|0:0,0:0:0:0:
256,96,23538,1,0,0:0:0:0:
224,224,23692,2,0,L|64:224,1,160,2|0,0:0|0:0,0:0:0:0:
352,192,24000,2,0,L|512:192,1,160,2|0,0:0|0:0,0:0:0:0:
352,192,24307,1,0,0:0:0:0:
352,192,24461,1,0,0:0:0:0:
192,320,24615,6,0,L|32:320,1,160,6|0,0:0|0:0,0:0:0:0:
192,192,24923,1,0,0:0:0:0:
192,192,25076,2,0,L|32:192,1,160,6|0,0:0|0:0,0:0:0:0:
192,64,25384,1,0,0:0:0:0:
192,64,25537,2,0,L|32:64,1,160,6|0,0:0|0:0,0:0:0:0:
320,128,25846,2,0,L|512:128,1,160,2|0,0:0|0:0,0:0:0:0:
480,256,26153,2,0,L|320:256,1,160,2|0,0:0|0:0,0:0:0:0:
192,256,26461,2,0,L|32:256,1,160,2|0,0:0|0:0,0:0:0:0:
32,128,26768,2,0,L|192:128,1,160,2|0,0:0|0:0,0:0:0:0:
320,64,27076,6,0,L|480:64,1,160,2|0,0:0|0:0,0:0:0:0:
192,192,27384,1,0,0:0:0:0:
192,192,27538,2,0,L|32:192,1,160,2|0,0:0|0:0,0:0:0:0:
320,320,27846,1,0,0:0:0:0:
320,320,28000,2,0,L|480:320,1,160,2|0,0:0|0:0,0:0:0:0:
192,192,28307,1,0,0:0:0:0:
192,192,28461,2,0,L|32:192,1,160,2|0,0:0|0:0,0:0:0:0:
320,192,28769,2,0,L|480:192,1,160,2|0,0:0|0:0,0:0:0:0:
160,96,29076,1,0,0:0:0:0:
352,96,29230,1,0,0:0:0:0:
96,352,29538,6,0,L|416:352,1,320,0|0,0:0|2:0,0:0:0:0:
96,32,30153,2,0,L|416:32,1,320,0|0,0:0|2:0,0:0:0:0:
64,352,30615,5,0,0:0:0:0:
64,352,30769,2,0,L|64:32,1,320,0|0,0:0|2:0,0:0:0:0:
448,352,31384,2,0,L|448:32,1,320,0|0,0:0|2:0,0:0:0:0:
256,352,32000,6,0,L|256:32,1,320,0|0,0:0|2:0,0:0:0:0:
256,32,32923,6,0,L|256:352,1,320,0|0,0:0|2:0,0:0:0:0:
64,352,33230,1,0,0:0:0:0:
64,192,33384,1,0,0:0:0:0:
64,128,33461,1,0,0:0:0:0:
64,64,33538,1,0,0:0:0:0:
448,352,33692,1,0,0:0:0:0:
448,64,33846,1,4,0:0:0:0:
416,192,34000,2,0,L|96:192,1,320
416,320,34461,6,0,L|96:320,1,320,4|0,0:0|2:0,0:0:0:0:
96,64,35076,2,0,L|416:64,1,320,4|0,0:0|2:0,0:0:0:0:
64,352,35692,6,0,L|64:32,1,320,4|0,0:0|2:0,0:0:0:0:
448,32,36307,2,0,L|448:352,1,320,4|0,0:0|2:0,0:0:0:0:
256,352,36615,2,0,L|256:32,1,320,4|0,0:0|2:0,0:0:0:0:
64,32,36923,2,0,L|64:352,1,320,4|0,0:0|2:0,0:0:0:0:
384,32,37846,6,0,L|32:32,1,320,4|0,0:0|0:0,0:0:0:0:
320,160,38153,2,0,L|480:160,1,160
384,256,38307,2,0,L|32:256,1,320
320,352,38615,1,0,0:0:0:0:
320,64,38769,1,0,0:0:0:0:
32,352,39076,1,0,0:0:0:0:
320,64,39384,6,0,L|512:64,1,160
192,64,39538,2,0,L|0:64,1,160
352,160,39692,6,0,L|544:160,1,160
160,160,39846,2,0,L|-32:160,1,160
256,256,40000,5,0,0:0:0:0:
384,256,40153,1,0,0:0:0:0:
256,256,40307,1,0,0:0:0:0:
128,256,40461,1,0,0:0:0:0:
352,352,40615,6,0,B|512:352|512:352|512:192,1,320
0,192,40923,2,0,B|0:352|0:352|160:352,1,320
256,64,41230,2,0,L|256:384,2,320
256,64,41692,5,0,0:0:0:0:
0,192,41846,2,0,L|0:32,1,160
96,96,42000,1,0,0:0:0:0:
512,192,42153,2,0,L|512:32,1,160
416,96,42307,1,0,0:0:0:0:
96,320,42461,6,0,L|416:320,2,320
256,64,42923,1,0,0:0:0:0:
0,320,43076,6,0,L|0:0,1,320
512,0,43384,2,0,L|512:320,1,320
256,192,43692,1,0,0:0:0:0:
512,0,43846,1,0,0:0:0:0:
256,192,44000,1,0,0:0:0:0:
0,0,44153,1,0,0:0:0:0:
448,352,44307,6,0,L|288:352,1,160
128,352,44461,1,0,0:0:0:0:
128,64,44615,2,0,L|288:64,1,160
448,64,44769,1,0,0:0:0:0:
192,192,44923,6,0,B|32:192|32:192|32:32,1,320
320,192,45230,2,0,B|480:192|480:192|480:352,1,320
192,352,45538,1,0,0:0:0:0:
320,32,45692,1,0,0:0:0:0:
320,352,45846,1,0,0:0:0:0:
192,32,46000,1,0,0:0:0:0:
96,256,46153,6,0,L|416:256,1,320
416,128,46461,6,0,L|96:128,1,320
0,288,46769,5,0,0:0:0:0:
256,352,46923,1,0,0:0:0:0:
512,288,47076,1,0,0:0:0:0:
512,96,47384,5,0,0:0:0:0:
256,32,47538,1,0,0:0:0:0:
0,96,47691,1,0,0:0:0:0:
384,352,48000,6,0,L|384:32,1,320
384,32,48230,1,0,0:0:0:0:
384,32,48307,1,0,0:0:0:0:
128,32,48461,1,0,0:0:0:0:
128,32,48538,1,0,0:0:0:0:
128,32,48615,1,0,0:0:0:0:
256,288,48769,1,0,0:0:0:0:
384,32,48923,1,0,0:0:0:0:
160,288,49230,6,0,L|0:288,2,160
352,288,49538,2,0,L|512:288,2,160
96,192,49846,2,0,B|96:32|96:32|256:32,1,320
416,192,50153,2,0,B|416:32|416:32|256:32,1,320
256,320,50461,5,0,0:0:0:0:
96,192,50615,1,0,0:0:0:0:
416,192,50769,1,0,0:0:0:0:
256,320,50923,1,0,0:0:0:0:
96,64,51076,2,0,L|448:64,1,320
416,320,51384,2,0,L|64:320,1,320
160,64,51692,6,0,L|0:64,2,160
352,64,52000,2,0,L|512:64,2,160
192,160,52307,5,0,0:0:0:0:
384,160,52461,1,0,0:0:0:0:
384,352,52615,1,0,0:0:0:0:
192,352,52769,1,0,0:0:0:0:
192,160,52923,2,0,B|32:160|32:160|32:320,1,320
320,224,53230,2,0,B|480:224|480:224|480:64,1,320
288,64,53538,5,0,0:0:0:0:
96,64,53692,1,0,0:0:0:0:
96,256,53846,1,0,0:0:0:0:
288,256,54000,1,0,0:0:0:0:
512,352,54153,6,0,L|352:352,2,160
512,32,54461,2,0,L|352:32,2,160
352,128,54769,2,0,L|32:128,1,320
32,256,55076,2,0,L|352:256,1,320
512,192,55384,1,0,0:0:0:0:
384,352,55538,1,0,0:0:0:0:
384,352,55615,1,0,0:0:0:0:
384,352,55692,1,0,0:0:0:0:
256,192,55846,1,0,0:0:0:0:
128,352,56000,6,0,L|128:32,1,320
384,32,56307,2,0,L|384:352,1,320
256,224,56615,1,0,0:0:0:0:
256,224,56692,1,0,0:0:0:0:
256,224,56769,1,0,0:0:0:0:
256,32,56923,1,0,0:0:0:0:
160,192,57076,2,0,L|0:192,1,160
32,288,57230,2,0,L|384:288,1,320
352,288,57461,1,0,0:0:0:0:
352,288,57538,1,0,0:0:0:0:
256,128,57692,1,0,0:0:0:0:
448,128,57846,6,0,L|448:288,3,160
64,128,58153,2,0,L|64:288,3,160
256,32,58461,5,0,0:0:0:0:
256,192,58615,1,0,0:0:0:0:
256,352,58769,1,0,0:0:0:0:
160,192,59076,5,0,0:0:0:0:
256,192,59230,1,0,0:0:0:0:
352,192,59384,1,0,0:0:0:0:
448,192,59538,1,0,0:0:0:0:
480,96,59692,2,0,L|160:96,1,320
0,352,60307,6,0,B|480:352|480:352|480:192|480:192|320:192|320:192|320:256|320:256|64:256|64:256|64:192|64:192|160:192,1,1280
480,192,61230,2,0,L|480:32,1,160
352,32,61538,2,0,L|352:352,1,320
224,352,62000,2,0,L|224:192,1,160
64,352,62461,1,0,0:0:0:0:
480,32,62769,6,0,B|0:32|0:32|0:128|0:128|160:128|160:128|160:192|160:192|0:192|0:192|0:288|0:288|320:288|320:288,1,1280
480,288,63538,2,0,L|288:288,1,160
256,192,63846,2,0,L|416:192,1,160
480,288,64153,2,0,L|288:288,1,160
192,288,64461,1,0,0:0:0:0:
64,192,64615,1,0,0:0:0:0:
480,352,65230,6,0,B|480:32|480:32|160:32|160:32|160:352|160:352|384:352|384:352|384:256,1,1280
384,256,65923,1,0,0:0:0:0:
384,256,66000,1,0,0:0:0:0:
384,256,66076,1,0,0:0:0:0:
384,256,66153,1,0,0:0:0:0:
384,256,66230,1,0,0:0:0:0:
384,256,66307,1,0,0:0:0:0:
256,96,66461,2,0,L|256:256,1,160
384,256,66769,1,0,0:0:0:0:
384,256,66923,2,0,L|384:96,1,160
32,32,67384,6,0,L|256:32,1,160
480,32,67538,2,0,L|256:32,1,160
160,128,67692,2,0,B|160:352|160:352|352:352|352:352|352:128,3,640
0,320,68923,5,0,0:0:0:0:
512,320,69230,1,0,0:0:0:0:
0,320,69538,1,0,0:0:0:0:
512,320,69846,1,0,0:0:0:0:
256,320,70000,1,0,0:0:0:0:
0,320,70153,1,0,0:0:0:0:
256,320,70307,1,0,0:0:0:0:
512,320,70461,1,0,0:0:0:0:
0,320,70769,6,0,L|0:160,1,160
128,32,71076,2,0,L|128:192,1,160
0,64,71384,5,0,0:0:0:0:
512,64,71692,1,0,0:0:0:0:
0,64,72000,1,0,0:0:0:0:
512,64,72307,1,0,0:0:0:0:
256,64,72461,1,0,0:0:0:0:
0,64,72769,1,0,0:0:0:0:
256,64,72923,1,0,0:0:0:0:
512,64,73230,1,0,0:0:0:0:
0,64,73538,1,0,0:0:0:0:
512,192,73846,5,4,0:0:0:0:
0,192,74153,1,0,0:0:0:0:
512,192,74461,1,0,0:0:0:0:
0,192,74769,1,0,0:0:0:0:
256,192,74923,1,0,0:0:0:0:
512,192,75076,1,0,0:0:0:0:
256,192,75230,1,0,0:0:0:0:
0,192,75384,1,0,0:0:0:0:
512,192,75692,6,0,L|512:352,1,160
384,352,76000,2,0,L|384:192,1,160
416,64,76307,6,0,L|64:64,1,320
96,320,76923,2,0,L|448:320,1,320
416,320,77307,1,0,0:0:0:0:
416,320,77384,1,0,0:0:0:0:
416,320,77461,1,0,0:0:0:0:
416,320,77538,1,0,0:0:0:0:
0,192,78461,5,0,0:0:0:0:
256,384,78615,1,0,0:0:0:0:
512,192,78769,5,4,0:0:0:0:
0,64,79076,1,0,0:0:0:0:
512,192,79384,1,0,0:0:0:0:
0,64,79692,1,0,0:0:0:0:
256,128,79846,1,0,0:0:0:0:
512,192,80000,1,0,0:0:0:0:
256,128,80153,1,0,0:0:0:0:
0,64,80307,1,0,0:0:0:0:
512,352,80615,6,0,L|512:192,1,160
384,192,80923,2,0,L|384:352,1,160
256,352,81230,5,0,0:0:0:0:
448,32,81538,1,0,0:0:0:0:
256,352,81846,1,0,0:0:0:0:
448,32,82153,1,0,0:0:0:0:
352,192,82307,1,0,0:0:0:0:
256,352,82615,1,0,0:0:0:0:
352,192,82769,1,0,0:0:0:0:
448,32,83076,1,0,0:0:0:0:
256,352,83384,1,0,0:0:0:0:
0,32,83692,6,0,L|352:32,1,320,4|0,0:0|0:0,0:0:0:0:
320,352,84307,2,0,L|0:352,1,320
96,256,84769,1,0,0:0:0:0:
224,256,84923,2,0,L|416:256,1,160
288,160,85230,2,0,L|128:160,1,160
32,64,85538,5,4,0:0:0:0:
256,64,85692,1,0,0:0:0:0:
480,64,85846,1,4,0:0:0:0:
256,352,86153,5,0,0:0:0:0:
256,64,86461,1,0,0:0:0:0:
256,352,86769,1,0,0:0:0:0:
256,64,87076,1,0,0:0:0:0:
256,64,87153,1,0,0:0:0:0:
256,64,87230,1,0,0:0:0:0:
256,64,87307,1,0,0:0:0:0:
256,64,87384,6,0,L|96:64,1,160
416,64,87692,1,4,0:0:0:0:
96,64,88000,1,4,0:0:0:0:
416,320,88307,1,4,0:0:0:0:
96,320,88615,1,4,0:0:0:0:
96,320,90461,5,4,0:0:0:0:
416,320,90615,1,4,0:0:0:0:
416,64,90769,1,4,0:0:0:0:
96,64,90923,2,0,L|32:64,2,40
192,64,91076,5,0,0:0:0:0:
192,256,91230,1,0,0:0:0:0:
96,256,91307,1,0,0:0:0:0:
0,256,91384,1,0,0:0:0:0:
128,160,91538,1,0,0:0:0:0:
224,160,91615,1,0,0:0:0:0:
320,160,91692,1,0,0:0:0:0:
480,256,91846,1,0,0:0:0:0:
384,256,91923,1,0,0:0:0:0:
288,256,92000,1,0,0:0:0:0:
416,160,92153,1,0,0:0:0:0:
288,64,92307,6,0,L|96:64,2,120.000004577637
224,320,92615,6,0,L|416:320,2,120.000004577637
128,160,92923,6,0,L|128:352,2,120.000004577637
384,224,93231,6,0,L|384:32,2,120.000004577637
384,224,93461,1,0,0:0:0:0:
384,224,93538,6,0,L|128:224,1,240.000009155274
256,64,93846,2,0,L|512:64,1,240.000009155274
256,352,94153,6,0,L|0:352,1,240.000009155274
128,160,94461,2,0,L|384:160,1,240.000009155274
32,192,94769,6,0,L|32:32,3,120.000004577637
256,256,95076,2,0,L|256:376,3,120.000004577637
480,192,95384,2,0,B|480:32|480:32|320:32|320:32|320:192,1,480.000018310548
32,352,96000,5,0,0:0:0:0:
224,352,96153,1,0,0:0:0:0:
320,352,96230,1,0,0:0:0:0:
416,352,96307,1,0,0:0:0:0:
256,256,96461,1,0,0:0:0:0:
352,256,96538,1,0,0:0:0:0:
448,256,96615,1,0,0:0:0:0:
288,160,96769,1,0,0:0:0:0:
384,160,96846,1,0,0:0:0:0:
480,160,96923,1,0,0:0:0:0:
320,64,97076,1,0,0:0:0:0:
160,160,97230,6,0,L|32:160,2,120.000004577637
0,256,97538,2,0,L|128:256,2,120.000004577637
160,352,97846,2,0,L|39:352,2,120.000004577637
352,352,98153,1,0,0:0:0:0:
352,160,98307,1,0,0:0:0:0:
160,160,98461,1,0,0:0:0:0:
320,256,98615,5,0,0:0:0:0:
416,256,98692,1,0,0:0:0:0:
512,256,98769,1,0,0:0:0:0:
224,64,98923,5,0,0:0:0:0:
224,160,99000,1,0,0:0:0:0:
224,256,99077,1,0,0:0:0:0:
320,64,99230,5,0,0:0:0:0:
224,64,99307,1,0,0:0:0:0:
128,64,99384,1,0,0:0:0:0:
416,256,99538,5,0,0:0:0:0:
416,160,99615,1,0,0:0:0:0:
416,64,99692,1,0,0:0:0:0:
416,64,99769,1,0,0:0:0:0:
416,64,99846,1,0,0:0:0:0:
416,64,99923,1,0,0:0:0:0:
416,64,100000,1,0,0:0:0:0:
416,64,100076,1,0,0:0:0:0:
416,64,100153,1,0,0:0:0:0:
416,64,100230,1,0,0:0:0:0:
416,64,100307,6,0,L|128:64,1,240.000009155274
0,64,100615,1,0,0:0:0:0:
416,64,100923,5,4,0:0:0:0:
256,192,101076,1,0,0:0:0:0:
256,288,101153,1,0,0:0:0:0:
256,384,101230,1,0,0:0:0:0:
480,384,101384,1,0,0:0:0:0:
480,288,101461,1,0,0:0:0:0:
480,192,101538,1,0,0:0:0:0:
352,64,101692,5,0,0:0:0:0:
256,64,101769,1,0,0:0:0:0:
160,64,101846,1,0,0:0:0:0:
32,192,102000,1,0,0:0:0:0:
32,288,102077,1,0,0:0:0:0:
32,384,102153,2,0,L|160:384,3,120.000004577637
192,288,102461,2,0,L|320:288,3,120.000004577637
352,192,102769,2,0,L|480:192,3,120.000004577637
480,96,103076,5,0,0:0:0:0:
256,96,103230,1,0,0:0:0:0:
32,96,103384,1,0,0:0:0:0:
128,256,103538,5,0,0:0:0:0:
128,160,103615,1,0,0:0:0:0:
128,64,103692,1,0,0:0:0:0:
256,192,103846,1,0,0:0:0:0:
256,288,103923,1,0,0:0:0:0:
256,384,104000,1,0,0:0:0:0:
384,256,104153,1,0,0:0:0:0:
384,160,104230,1,0,0:0:0:0:
384,64,104307,1,0,0:0:0:0:
256,384,104461,1,0,0:0:0:0:
128,64,104615,5,0,0:0:0:0:
480,64,104769,1,0,0:0:0:0:
384,320,104923,1,0,0:0:0:0:
32,320,105077,1,0,0:0:0:0:
32,320,105153,1,0,0:0:0:0:
32,320,105230,2,0,L|32:64,1,240.000009155274
224,128,105538,2,0,L|224:368,1,240.000009155274
384,288,105846,5,0,0:0:0:0:
480,128,106000,1,0,0:0:0:0:
480,128,106076,1,0,0:0:0:0:
480,128,106153,1,0,0:0:0:0:
320,32,106307,1,0,0:0:0:0:
320,32,106383,1,0,0:0:0:0:
320,32,106460,1,0,0:0:0:0:
192,32,106615,1,0,0:0:0:0:
192,32,106692,1,0,0:0:0:0:
192,32,106768,1,0,0:0:0:0:
32,128,106922,1,0,0:0:0:0:
32,128,106999,1,0,0:0:0:0:
32,128,107076,6,0,L|32:0,3,120.000004577637
32,256,107384,2,0,L|32:384,3,120.000004577637
128,192,107692,1,0,0:0:0:0:
224,192,107769,1,0,0:0:0:0:
320,192,107846,1,0,0:0:0:0:
416,192,107923,1,0,0:0:0:0:
512,192,108000,1,0,0:0:0:0:
128,192,108153,5,0,0:0:0:0:
128,96,108230,1,0,0:0:0:0:
128,0,108307,2,0,L|448:0,1,240.000009155274
368,0,108538,1,0,0:0:0:0:
368,0,108615,1,0,0:0:0:0:
384,384,108769,2,0,L|64:384,1,240.000009155274
256,192,109076,1,0,0:0:0:0:
416,64,109230,2,0,L|416:320,1,240.000009155274
96,304,109538,2,0,L|96:64,1,240.000009155274
96,63,109769,1,0,0:0:0:0:
96,63,109846,5,0,0:0:0:0:
416,63,110000,1,0,0:0:0:0:
96,320,110153,1,0,0:0:0:0:
416,320,110307,1,0,0:0:0:0:
256,64,110461,5,0,0:0:0:0:
256,320,110615,1,0,0:0:0:0:
32,32,110769,6,0,B|480:32|480:32|480:352|480:352|32:352|32:352|32:112|32:112|400:112|400:112|400:272|400:272|112:272|112:272|112:192|112:192|320:192,2,2560
32,352,112615,6,0,B|32:16|32:16|256:16|256:16|256:352|256:352|480:352|480:352|480:16|480:16|368:16|368:16|368:272|368:272|112:272|112:272|112:336|112:336|176:336|176:336|112:176|112:176|176:0|176:0,1,2560
480,192,114153,6,0,B|16:192|16:192|16:0|16:0|144:0|144:0|144:384|144:384|352:384|352:384|352:0|352:0|496:0|496:0|496:96|496:96|256:96|256:96|256:288|256:288|480:288|480:288|480:352|480:352|32:352|32:352|32:288|32:288|256:288|256:288|256:0|256:0|160:0,1,3840
160,0,115230,2,0,B|480:0|480:0|480:336,1,640
480,320,115692,2,0,B|480:0|480:0|160:0|160:0|160:320|160:320|16:320|16:320|16:144|16:144|16:0|16:0|80:0|80:0|80:368|80:368|384:368|384:368|384:96|384:96|240:96,1,2560
256,96,116615,1,0,0:0:0:0:
256,96,116923,6,0,B|384:96|384:96|384:368|384:368|32:368|32:368|32:0|32:0|512:0|512:0|512:384,1,1920
144,96,117538,2,0,B|144:288|144:288|464:288|464:288|464:80|464:80|240:80|240:80|240:0|240:0|32:0|32:0|32:304|32:304,1,1280
32,352,118153,6,0,B|480:352|480:352|480:32|480:32|192:32|192:32|192:256|192:256|384:256|384:256|384:128|384:128|31:128|31:128|32:32|32:32|128:32|128:32|128:256|128:256|32:256|32:256|32:160|32:160,1,2560
32,352,119076,6,0,B|512:352|512:352|512:224|512:224|32:224|32:224|32:96|32:96|512:96|512:96|512:0|512:0|256:0|256:0|256:288|256:288|32:288,1,2560
512,160,119846,1,0,0:0:0:0:
32,32,120000,1,0,0:0:0:0:
512,160,120307,1,0,0:0:0:0:
256,192,120615,5,4,0:0:0:0:
