osu file format v14

[General]
AudioFilename: audio.mp3
AudioLeadIn: 0
PreviewTime: 118316
Countdown: 1
SampleSet: Soft
StackLeniency: 0.7
Mode: 0
LetterboxInBreaks: 0
WidescreenStoryboard: 0

[Editor]
Bookmarks: 476,8156,27356,35036,50396,65756,81116,96476,115676,119516,150236,165596,180956,227036,242396,258133,273871,289609,310339,315924,319703,335063,368895,374439,382180,397777
DistanceSpacing: 1
BeatDivisor: 6
GridSize: 8
TimelineZoom: 1.4

[Metadata]
Title:Field of Hopes and Dreams
TitleUnicode:Field of Hopes and Dreams
Artist:Insaneintherainmusic
ArtistUnicode:Insaneintherainmusic
Creator:K4L1
Version:Fantasy
Source:DELTARUNE
Tags:delta rune chapter 1 jazz cover undertale toby fox radiation
BeatmapID:1858559
BeatmapSetID:889210

[Difficulty]
HPDrainRate:6
CircleSize:4.5
OverallDifficulty:9
ApproachRate:9.1
SliderMultiplier:1.4
SliderTickRate:1

[Events]
//Background and Video events
0,0,"964161.jpg",0,0
//Break Periods
2,19876,26756
//Storyboard Layer 0 (Background)
//Storyboard Layer 1 (Fail)
//Storyboard Layer 2 (Pass)
//Storyboard Layer 3 (Foreground)
//Storyboard Sound Samples

[TimingPoints]
476,480,4,2,0,20,1,0
7676,-100,4,2,0,60,0,0
8156,-133.333333333333,4,2,0,50,0,0
11036,-57.1428571428571,4,2,0,60,0,0
11756,-100,4,2,0,60,0,0
11996,-100,4,2,0,30,0,0
14876,-100,4,2,0,45,0,0
15356,-100,4,2,0,60,0,0
15596,-133.333333333333,4,2,0,50,0,0
18716,-57.1428571428571,4,2,0,60,0,0
19436,-100,4,2,0,50,0,0
19676,-100,4,2,0,30,0,0
27356,-100,4,2,0,35,0,0
34076,-100,4,2,0,20,0,0
35036,-100,4,2,0,50,0,0
39596,-66.6666666666667,4,2,0,50,0,0
39836,-80,4,2,0,50,0,0
41516,-66.6666666666667,4,2,0,50,0,0
43676,-80,4,2,0,50,0,0
44636,-100,4,2,0,50,0,0
45596,-80,4,2,0,50,0,0
46556,-66.6666666666667,4,2,0,50,0,0
47516,-57.1428571428571,4,2,0,50,0,0
48476,-50,4,2,0,50,0,0
50396,-80,4,2,0,50,0,0
54956,-57.1428571428571,4,2,0,50,0,0
55196,-80,4,2,0,50,0,0
56876,-66.6666666666667,4,2,0,50,0,0
58076,-57.1428571428571,4,2,0,50,0,0
59996,-66.6666666666667,4,2,0,50,0,0
60956,-80,4,2,0,50,0,0
61916,-66.6666666666667,4,2,0,50,0,0
62876,-57.1428571428571,4,2,0,50,0,0
63836,-50,4,2,0,50,0,0
64796,-44.4444444444445,4,2,0,50,0,0
65756,-66.6666666666667,4,2,0,55,0,0
73436,-66.6666666666667,4,2,0,55,0,0
73556,-66.6666666666667,4,2,0,5,0,0
73676,-66.6666666666667,4,2,0,55,0,0
73796,-66.6666666666667,4,2,0,5,0,0
73916,-66.6666666666667,4,2,0,55,0,0
74036,-66.6666666666667,4,2,0,5,0,0
74156,-66.6666666666667,4,2,0,55,0,0
74276,-66.6666666666667,4,2,0,5,0,0
74396,-66.6666666666667,4,2,0,55,0,0
75356,-66.6666666666667,4,2,0,55,0,0
75476,-66.6666666666667,4,2,0,5,0,0
75596,-66.6666666666667,4,2,0,55,0,0
75716,-66.6666666666667,4,2,0,5,0,0
75836,-66.6666666666667,4,2,0,55,0,0
75956,-66.6666666666667,4,2,0,5,0,0
76076,-66.6666666666667,4,2,0,55,0,0
76196,-66.6666666666667,4,2,0,5,0,0
76316,-66.6666666666667,4,2,0,55,0,0
79196,-100,4,2,0,45,0,0
81116,-100,4,2,0,40,0,0
88076,-66.6666666666667,4,2,0,50,0,0
88316,-57.1428571428571,4,2,0,50,0,0
88556,-50,4,2,0,45,0,0
88796,-100,4,2,0,40,0,0
94556,-200,4,2,0,40,0,0
95276,-100,4,2,0,45,0,0
95396,-100,4,2,0,5,0,0
95516,-80,4,2,0,50,0,0
95636,-80,4,2,0,5,0,0
95756,-66.6666666666667,4,2,0,55,0,0
95996,-57.1428571428571,4,2,0,60,0,0
96236,-50,4,2,0,65,0,0
96476,-66.6666666666667,4,2,0,50,0,1
96596,-66.6666666666667,4,2,0,5,0,1
96716,-66.6666666666667,4,2,0,50,0,1
96836,-66.6666666666667,4,2,0,5,0,1
96956,-66.6666666666667,4,2,0,50,0,1
97076,-66.6666666666667,4,2,0,5,0,1
97196,-66.6666666666667,4,2,0,50,0,1
97316,-66.6666666666667,4,2,0,5,0,1
97436,-66.6666666666667,4,2,0,50,0,1
97556,-66.6666666666667,4,2,0,5,0,1
97676,-66.6666666666667,4,2,0,50,0,1
98396,-66.6666666666667,4,2,0,50,0,1
98516,-66.6666666666667,4,2,0,5,0,1
98636,-66.6666666666667,4,2,0,50,0,1
98756,-66.6666666666667,4,2,0,5,0,1
98876,-66.6666666666667,4,2,0,50,0,1
98996,-66.6666666666667,4,2,0,5,0,1
99116,-66.6666666666667,4,2,0,50,0,1
99236,-66.6666666666667,4,2,0,5,0,1
99356,-66.6666666666667,4,2,0,50,0,1
100316,-66.6666666666667,4,2,0,50,0,1
100436,-66.6666666666667,4,2,0,5,0,1
100556,-66.6666666666667,4,2,0,50,0,1
100676,-66.6666666666667,4,2,0,5,0,1
100796,-66.6666666666667,4,2,0,50,0,1
100916,-66.6666666666667,4,2,0,5,0,1
101036,-66.6666666666667,4,2,0,50,0,1
101156,-66.6666666666667,4,2,0,5,0,1
101276,-66.6666666666667,4,2,0,50,0,1
101396,-66.6666666666667,4,2,0,5,0,1
101516,-66.6666666666667,4,2,0,50,0,1
101756,-50,4,2,0,50,0,1
104156,-66.6666666666667,4,2,0,50,0,1
104276,-66.6666666666667,4,2,0,5,0,1
104396,-66.6666666666667,4,2,0,50,0,1
104516,-66.6666666666667,4,2,0,5,0,1
104636,-66.6666666666667,4,2,0,50,0,1
104756,-66.6666666666667,4,2,0,5,0,1
104876,-66.6666666666667,4,2,0,50,0,1
104996,-66.6666666666667,4,2,0,5,0,1
105116,-66.6666666666667,4,2,0,50,0,1
105236,-66.6666666666667,4,2,0,5,0,1
105356,-66.6666666666667,4,2,0,50,0,1
106076,-66.6666666666667,4,2,0,50,0,1
106196,-66.6666666666667,4,2,0,5,0,1
106316,-66.6666666666667,4,2,0,50,0,1
106436,-66.6666666666667,4,2,0,5,0,1
106556,-66.6666666666667,4,2,0,50,0,1
106676,-66.6666666666667,4,2,0,5,0,1
106796,-66.6666666666667,4,2,0,50,0,1
106916,-66.6666666666667,4,2,0,5,0,1
107036,-66.6666666666667,4,2,0,50,0,1
110876,-80,4,2,0,50,0,1
115676,-133.333333333333,4,2,0,30,0,0
119036,-80,4,2,0,40,0,0
119516,-66.6666666666667,4,2,0,50,0,0
121076,-66.6666666666667,4,2,0,5,0,0
121196,-66.6666666666667,4,2,0,50,0,0
121316,-66.6666666666667,4,2,0,5,0,0
121436,-66.6666666666667,4,2,0,50,0,0
128396,-66.6666666666667,4,2,0,5,0,0
128516,-66.6666666666667,4,2,0,50,0,0
128756,-66.6666666666667,4,2,0,5,0,0
128876,-66.6666666666667,4,2,0,50,0,0
128996,-66.6666666666667,4,2,0,5,0,0
129116,-66.6666666666667,4,2,0,50,0,0
131276,-66.6666666666667,4,2,0,5,0,0
131396,-66.6666666666667,4,2,0,50,0,0
136316,-66.6666666666667,4,2,0,50,0,0
136436,-66.6666666666667,4,2,0,5,0,0
136556,-66.6666666666667,4,2,0,50,0,0
136676,-66.6666666666667,4,2,0,5,0,0
136796,-66.6666666666667,4,2,0,50,0,0
143756,-66.6666666666667,4,2,0,5,0,0
143876,-66.6666666666667,4,2,0,50,0,0
144116,-66.6666666666667,4,2,0,5,0,0
144236,-66.6666666666667,4,2,0,50,0,0
144356,-66.6666666666667,4,2,0,5,0,0
144476,-66.6666666666667,4,2,0,50,0,0
148316,-100,4,2,0,40,0,0
149276,-133.333333333333,4,2,0,35,0,0
149756,-100,4,2,0,40,0,0
150236,-66.6666666666667,4,2,0,50,0,0
158036,-66.6666666666667,4,2,0,5,0,0
158156,-66.6666666666667,4,2,0,50,0,0
158276,-66.6666666666667,4,2,0,5,0,0
158396,-66.6666666666667,4,2,0,50,0,0
158516,-66.6666666666667,4,2,0,5,0,0
158636,-66.6666666666667,4,2,0,50,0,0
158756,-66.6666666666667,4,2,0,5,0,0
158876,-66.6666666666667,4,2,0,50,0,0
159836,-66.6666666666667,4,2,0,50,0,0
159956,-66.6666666666667,4,2,0,5,0,0
160076,-66.6666666666667,4,2,0,50,0,0
160196,-66.6666666666667,4,2,0,5,0,0
160316,-66.6666666666667,4,2,0,50,0,0
160436,-66.6666666666667,4,2,0,5,0,0
160556,-66.6666666666667,4,2,0,50,0,0
160676,-66.6666666666667,4,2,0,5,0,0
160796,-66.6666666666667,4,2,0,50,0,0
163676,-100,4,2,0,40,0,0
164636,-200,4,2,0,40,0,0
165116,-100,4,2,0,20,0,0
165596,-100,4,2,0,25,0,0
173276,-100,4,2,0,30,0,0
179036,-80,4,2,0,35,0,0
179156,-80,4,2,0,5,0,0
179276,-80,4,2,0,35,0,0
179396,-80,4,2,0,5,0,0
179516,-66.6666666666667,4,2,0,40,0,0
179636,-66.6666666666667,4,2,0,5,0,0
179756,-66.6666666666667,4,2,0,40,0,0
179876,-66.6666666666667,4,2,0,5,0,0
179996,-57.1428571428571,4,2,0,45,0,0
180116,-57.1428571428571,4,2,0,5,0,0
180236,-57.1428571428571,4,2,0,45,0,0
180476,-50,4,2,0,50,0,0
180596,-50,4,2,0,5,0,0
180716,-50,4,2,0,50,0,0
180836,-50,4,2,0,5,0,0
180956,-57.1428571428571,4,2,0,50,0,1
181916,-66.6666666666667,4,2,0,50,0,1
185276,-57.1428571428571,4,2,0,50,0,1
185756,-66.6666666666667,4,2,0,50,0,1
186716,-57.1428571428571,4,2,0,60,0,1
187116,-57.1428571428571,4,2,0,5,0,1
187196,-57.1428571428571,4,2,0,60,0,1
187596,-57.1428571428571,4,2,0,5,0,1
187676,-57.1428571428571,4,2,0,60,0,1
188076,-57.1428571428571,4,2,0,5,0,1
188156,-57.1428571428571,4,2,0,60,0,1
188556,-57.1428571428571,4,2,0,5,0,1
188636,-66.6666666666667,4,2,0,50,0,1
194396,-57.1428571428571,4,2,0,60,0,1
194796,-57.1428571428571,4,2,0,5,0,1
194876,-57.1428571428571,4,2,0,60,0,1
195276,-57.1428571428571,4,2,0,5,0,1
195356,-57.1428571428571,4,2,0,60,0,1
195756,-57.1428571428571,4,2,0,5,0,1
195836,-57.1428571428571,4,2,0,60,0,1
196236,-57.1428571428571,4,2,0,5,0,1
196316,-66.6666666666667,4,2,0,30,0,1
196956,-66.6666666666667,4,2,0,5,0,1
197036,-66.6666666666667,4,2,0,30,0,1
197196,-66.6666666666667,4,2,0,5,0,1
197276,-66.6666666666667,4,2,0,30,0,1
202076,-57.1428571428571,4,2,0,60,0,1
202476,-57.1428571428571,4,2,0,5,0,1
202556,-57.1428571428571,4,2,0,60,0,1
202956,-57.1428571428571,4,2,0,5,0,1
203036,-57.1428571428571,4,2,0,60,0,1
203436,-57.1428571428571,4,2,0,5,0,1
203516,-57.1428571428571,4,2,0,60,0,1
203916,-57.1428571428571,4,2,0,5,0,1
203996,-57.1428571428571,4,2,0,50,0,1
204396,-57.1428571428571,4,2,0,5,0,1
204476,-66.6666666666667,4,2,0,50,0,1
207276,-66.6666666666667,4,2,0,5,0,1
207356,-66.6666666666667,4,2,0,50,0,1
209756,-57.1428571428571,4,2,0,60,0,1
210116,-57.1428571428571,4,2,0,5,0,1
210236,-57.1428571428571,4,2,0,60,0,1
211676,-66.6666666666667,4,2,0,50,0,1
211796,-66.6666666666667,4,2,0,5,0,1
211916,-66.6666666666667,4,2,0,50,0,1
212036,-66.6666666666667,4,2,0,5,0,1
212156,-66.6666666666667,4,2,0,50,0,1
212276,-66.6666666666667,4,2,0,5,0,1
212396,-66.6666666666667,4,2,0,50,0,1
212516,-66.6666666666667,4,2,0,5,0,1
212636,-66.6666666666667,4,2,0,50,0,1
222236,-66.6666666666667,4,2,0,50,0,1
222356,-66.6666666666667,4,2,0,5,0,1
222476,-66.6666666666667,4,2,0,50,0,1
222596,-66.6666666666667,4,2,0,5,0,1
222716,-66.6666666666667,4,2,0,50,0,1
225116,-50,4,2,0,60,0,1
225276,-50,4,2,0,5,0,1
225356,-57.1428571428571,4,2,0,60,0,1
226436,-80,4,2,0,60,0,1
227036,-133.333333333333,4,2,0,25,0,0
234236,-100,4,2,0,35,0,0
234716,-100,4,2,0,35,0,0
242396,491.803278688525,4,2,0,30,1,0
256166,-100,4,2,0,20,0,0
256904,-100,4,2,0,30,0,0
257150,-100,4,2,0,35,0,0
257396,-100,4,2,0,40,0,0
257641,-100,4,2,0,45,0,0
257887,-100,4,2,0,50,0,0
258133,-100,4,2,0,40,0,0
272887,-100,4,2,0,30,0,0
273379,-100,4,2,0,40,0,0
273625,-100,4,2,0,30,0,0
273871,-100,4,2,0,50,0,0
288625,-100,4,2,0,30,0,0
289117,-100,4,2,0,40,0,0
289609,-100,4,2,0,50,0,1
295510,-100,4,2,0,60,0,1
296248,-100,4,2,0,50,0,1
296494,-100,4,2,0,40,0,1
297477,-100,4,2,0,50,0,1
302396,-100,4,2,0,50,0,1
303379,-100,4,2,0,50,0,0
304363,545.454545454546,4,2,0,45,1,0
306544,600,4,2,0,40,1,0
308985,1224.48979591837,4,2,0,30,1,0
309673,666.666666666667,4,2,0,30,1,0
312825,1224.48979591837,4,2,0,30,1,0
314049,1071.42857142857,4,2,0,30,1,0
315924,472.44094488189,4,2,0,35,1,0
317813,-100,4,2,0,40,0,0
319703,480,4,2,0,45,1,0
321623,-100,4,2,0,55,0,0
323543,-100,4,2,0,40,0,0
325463,-100,4,2,0,40,0,0
325943,-100,4,2,0,45,0,0
326423,-100,4,2,0,50,0,0
326903,-100,4,2,0,55,0,0
327383,-100,4,2,0,40,0,0
329303,-100,4,2,0,60,0,0
331223,-100,4,2,0,40,0,0
333143,-100,4,2,0,50,0,0
335063,-100,4,2,0,50,0,1
349703,-100,4,2,0,55,0,1
350423,-100,4,2,0,50,0,1
356183,-100,4,2,0,60,0,1
356663,-100,4,2,0,50,0,1
357143,-100,4,2,0,40,0,1
358103,-100,4,2,0,50,0,1
368595,600,4,2,0,50,1,1
368895,960,4,2,0,40,1,0
371775,1224.48979591837,4,2,0,40,1,0
372999,960,4,2,0,40,1,0
374439,483.870967741935,4,2,0,30,1,0
381697,-100,4,2,0,35,0,0
382180,600,4,2,0,35,1,0
383980,480,4,2,0,45,1,0
384460,545.454545454546,4,2,0,35,1,0
385550,666.666666666667,4,2,0,35,1,0
387883,960,4,2,0,35,1,0
388363,882.352941176471,4,2,0,35,1,0
389355,960,4,2,0,30,1,0
390413,960,4,2,0,25,1,0
390893,521.739130434783,4,2,0,25,1,0
391936,500,4,2,0,30,1,0
392061,480,4,2,0,30,1,0
392301,500,4,2,0,30,1,0
392676,428.571428571429,4,2,0,30,1,0
393198,779.220779220779,4,2,0,30,1,0
393392,545.454545454546,4,2,0,30,1,0
393937,480,4,2,0,30,1,0

[Colours]
Combo1 : 3,52,197
Combo2 : 156,7,49
Combo3 : 3,241,134
Combo4 : 89,2,147

[HitObjects]
52,62,476,5,0,0:0:0:0:
86,62,596,1,0,0:0:0:0:
120,62,716,1,0,0:0:0:0:
154,62,836,1,0,0:0:0:0:
188,62,956,1,0,0:0:0:0:
222,62,1076,1,0,0:0:0:0:
120,153,1436,5,0,0:0:0:0:
154,153,1556,1,0,0:0:0:0:
188,153,1676,1,0,0:0:0:0:
222,153,1796,1,0,0:0:0:0:
256,153,1916,1,0,0:0:0:0:
290,153,2036,1,0,0:0:0:0:
188,244,2396,5,0,0:0:0:0:
222,244,2516,1,0,0:0:0:0:
256,244,2636,1,0,0:0:0:0:
290,244,2756,1,0,0:0:0:0:
324,244,2876,1,0,0:0:0:0:
358,244,2996,1,0,0:0:0:0:
290,335,3356,5,0,0:0:0:0:
324,335,3476,1,0,0:0:0:0:
358,335,3596,1,0,0:0:0:0:
392,335,3716,1,0,0:0:0:0:
460,335,3836,1,0,0:0:0:0:
426,335,3956,1,0,0:0:0:0:
222,335,4316,5,0,0:0:0:0:
188,335,4436,1,0,0:0:0:0:
154,335,4556,1,0,0:0:0:0:
120,335,4676,1,0,0:0:0:0:
86,335,4796,1,0,0:0:0:0:
52,335,4916,1,0,0:0:0:0:
290,244,5276,5,0,0:0:0:0:
256,244,5396,1,0,0:0:0:0:
222,244,5516,1,0,0:0:0:0:
188,244,5636,1,0,0:0:0:0:
154,244,5756,1,0,0:0:0:0:
120,244,5876,1,0,0:0:0:0:
358,153,6236,5,0,0:0:0:0:
324,153,6356,1,0,0:0:0:0:
290,153,6476,1,0,0:0:0:0:
256,153,6596,1,0,0:0:0:0:
222,153,6716,1,0,0:0:0:0:
188,153,6836,1,0,0:0:0:0:
460,62,7196,5,0,0:0:0:0:
426,62,7316,1,0,0:0:0:0:
392,62,7436,1,0,0:0:0:0:
358,62,7556,1,0,0:0:0:0:
290,62,7676,5,0,0:0:0:0:
290,108,7756,1,0,0:0:0:0:
290,149,7836,1,0,0:0:0:0:
290,186,7916,1,0,0:0:0:0:
290,218,7996,1,0,0:0:0:0:
290,245,8076,1,0,0:0:0:0:
290,268,8156,6,0,B|137:235|194:308|44:266|44:266|138:234|143:142,1,420.000016021729
69,109,10316,5,0,0:0:0:0:
77,73,10436,1,0,0:0:0:0:
102,39,10556,1,0,0:0:0:0:
144,58,10676,1,0,0:0:0:0:
193,76,10796,1,0,0:0:0:0:
250,74,10916,1,0,0:0:0:0:
326,77,11036,6,0,B|365:215|294:179|358:317,1,245.000002336502
389,367,11636,1,0,0:0:0:0:
382,181,11756,6,0,B|388:219|367:207|383:249,1,70
383,181,14636,5,0,0:0:0:0:
379,198,14756,1,0,0:0:0:0:
340,139,14876,1,0,0:0:0:0:
346,165,14996,1,0,0:0:0:0:
400,110,15116,1,0,0:0:0:0:
391,149,15236,1,0,0:0:0:0:
309,19,15356,1,0,0:0:0:0:
322,78,15476,1,0,0:0:0:0:
394,25,15596,6,0,B|446:24|497:64|497:64|437:184|453:312|453:312|494:269|478:209,1,472.500018024445
453,311,17996,5,0,0:0:0:0:
439,342,18116,1,0,0:0:0:0:
407,365,18236,1,0,0:0:0:0:
377,331,18356,1,0,0:0:0:0:
332,308,18476,1,0,0:0:0:0:
277,304,18596,1,0,0:0:0:0:
205,268,18716,6,0,B|172:198|208:216|189:146,1,122.500001168251
156,82,19076,1,0,0:0:0:0:
38,141,19196,1,0,0:0:0:0:
80,78,19316,1,0,0:0:0:0:
237,84,19436,6,0,P|268:66|294:35,1,70
290,41,27356,5,0,0:0:0:0:
193,142,27836,1,0,0:0:0:0:
308,72,28316,1,0,0:0:0:0:
174,110,28796,1,0,0:0:0:0:
258,23,29276,5,0,0:0:0:0:
224,159,29756,1,0,0:0:0:0:
222,24,30236,1,0,0:0:0:0:
260,158,30716,1,0,0:0:0:0:
326,41,31196,5,0,0:0:0:0:
423,142,31676,1,0,0:0:0:0:
341,81,32156,1,0,0:0:0:0:
408,101,32636,1,0,0:0:0:0:
370,74,33116,5,0,0:0:0:0:
379,108,33596,1,0,0:0:0:0:
374,89,34076,5,0,0:0:0:0:
307,76,34316,2,0,L|350:82,1,35
410,92,34556,1,0,0:0:0:0:
273,72,34796,1,0,0:0:0:0:
480,101,35036,6,0,L|468:176,1,70
479,239,35396,1,0,0:0:0:0:
454,34,35516,1,0,0:0:0:0:
447,6,35756,1,0,0:0:0:0:
388,268,35996,6,0,L|398:198,1,70
372,131,36356,1,0,0:0:0:0:
397,336,36476,1,0,0:0:0:0:
404,364,36716,1,0,0:0:0:0:
301,126,36956,6,0,L|289:201,1,70
300,264,37316,1,0,0:0:0:0:
275,59,37436,1,0,0:0:0:0:
268,31,37676,1,0,0:0:0:0:
208,291,37916,5,0,0:0:0:0:
197,324,38156,2,0,L|188:355,2,23.3333333333333
196,220,38396,1,0,0:0:0:0:
266,336,38636,1,0,0:0:0:0:
112,197,38876,6,0,P|128:165|158:140,1,70
223,138,39236,1,0,0:0:0:0:
115,291,39356,1,0,0:0:0:0:
101,311,39596,6,0,P|95:336|100:361,1,52.5000020027161
36,243,39836,2,0,P|39:156|2:77,2,175
26,268,41036,5,0,0:0:0:0:
10,298,41156,1,0,0:0:0:0:
78,148,41276,1,0,0:0:0:0:
329,117,41516,6,0,P|302:119|277:130,1,52.5000020027161
389,161,41756,2,0,P|400:136|403:110,1,52.5000020027161
321,193,41996,6,0,P|319:211|327:228,2,35.0000013351441
469,72,42236,2,0,P|477:128|463:176,1,105.000004005432
152,43,42716,6,0,B|197:21|264:27|240:62|304:73|360:46,1,210.000008010865
439,46,43436,6,0,P|414:35|388:37,1,52.5000020027161
201,117,43676,2,0,P|197:159|214:203,1,87.5
236,237,44036,1,0,0:0:0:0:
251,45,44156,1,0,0:0:0:0:
289,127,44396,1,0,0:0:0:0:
116,100,44636,6,0,P|127:68|152:43,1,70
185,29,44996,1,0,0:0:0:0:
125,187,45116,1,0,0:0:0:0:
37,149,45356,1,0,0:0:0:0:
291,213,45596,6,0,P|295:170|289:127,1,87.5
271,86,45956,1,0,0:0:0:0:
353,285,46076,2,0,P|372:245|380:203,1,87.5
415,357,46556,6,0,B|368:377|368:377|315:372,1,105.000004005432
262,361,46916,1,0,0:0:0:0:
442,260,47036,1,0,0:0:0:0:
501,331,47276,1,0,0:0:0:0:
187,204,47516,6,0,B|180:245|180:245|193:280|193:280|185:324,1,122.500001168251
165,381,47876,1,0,0:0:0:0:
261,130,47996,1,0,0:0:0:0:
171,113,48236,1,0,0:0:0:0:
285,369,48476,6,0,B|293:321|293:321|279:280|279:280|286:233,1,140
299,163,48836,1,0,0:0:0:0:
79,281,48956,1,0,0:0:0:0:
213,327,49196,1,0,0:0:0:0:
110,76,49436,6,0,P|99:109|107:145,1,70
171,113,49676,5,0,0:0:0:0:
212,99,49756,1,0,0:0:0:0:
181,68,49836,1,0,0:0:0:0:
195,142,49916,1,0,0:0:0:0:
137,0,50156,1,0,0:0:0:0:
361,225,50396,6,0,P|342:152|300:116,1,131.25
105,143,50876,1,0,0:0:0:0:
37,176,51116,1,0,0:0:0:0:
294,381,51356,6,0,P|313:308|295:257,1,131.25
112,181,51836,1,0,0:0:0:0:
37,176,52076,1,0,0:0:0:0:
361,225,52316,6,0,P|342:152|300:116,1,131.25
105,143,52796,1,0,0:0:0:0:
37,176,53036,1,0,0:0:0:0:
294,381,53276,5,0,0:0:0:0:
334,287,53516,2,0,L|348:255,2,29.1666666666667
382,365,53756,1,0,0:0:0:0:
190,382,53996,1,0,0:0:0:0:
361,225,54236,6,0,P|342:152|300:116,1,131.25
134,276,54716,1,0,0:0:0:0:
0,190,54956,6,0,P|3:161|23:136,1,61.2500005841255
127,309,55196,2,0,P|165:229|138:143,2,175
27,366,56396,5,0,0:0:0:0:
0,382,56516,1,0,0:0:0:0:
134,276,56636,1,0,0:0:0:0:
101,69,56876,6,0,L|110:121,1,52.5000020027161
177,0,57116,2,0,L|168:52,1,52.5000020027161
195,136,57356,6,0,L|225:104,2,35.0000013351441
38,115,57596,2,0,L|20:11,1,105.000004005432
143,196,58076,6,0,P|253:227|300:123,1,245.000002336502
257,37,58796,6,0,L|288:106,1,61.2500005841255
268,264,59036,2,0,L|216:150,1,122.500001168251
188,97,59396,1,0,0:0:0:0:
367,315,59516,1,0,0:0:0:0:
272,369,59756,1,0,0:0:0:0:
390,133,59996,6,0,L|339:244,1,105.000004005432
323,275,60356,1,0,0:0:0:0:
257,37,60476,1,0,0:0:0:0:
363,27,60716,1,0,0:0:0:0:
123,154,60956,6,0,P|121:110|141:69,1,87.5
171,41,61316,1,0,0:0:0:0:
117,247,61436,2,0,P|75:233|45:202,1,87.5
224,291,61916,6,0,B|195:334|195:334|150:360,1,105.000004005432
99,379,62276,1,0,0:0:0:0:
230,198,62396,1,0,0:0:0:0:
140,249,62636,1,0,0:0:0:0:
320,147,62876,6,0,B|317:107|317:107|328:68|328:68|325:23,1,122.500001168251
269,0,63236,1,0,0:0:0:0:
320,249,63356,1,0,0:0:0:0:
410,198,63596,1,0,0:0:0:0:
131,18,63836,6,0,B|134:65|134:65|121:110|121:110|125:156,1,140
155,219,64196,1,0,0:0:0:0:
398,96,64316,1,0,0:0:0:0:
243,20,64556,1,0,0:0:0:0:
212,352,64796,6,0,L|219:268,1,78.7500030040742
324,196,65036,2,0,L|319:248,1,52.5000020027161
310,345,65196,1,0,0:0:0:0:
223,246,65276,1,0,0:0:0:0:
426,304,65516,1,0,0:0:0:0:
124,289,65756,6,0,B|105:260|102:229|102:229|157:174|130:87,1,210.000008010865
18,137,66476,1,0,0:0:0:0:
206,66,66716,6,0,P|215:117|216:175,1,105.000004005432
189,269,67036,2,0,P|196:252|202:237,1,35.0000013351441
151,327,67196,2,0,B|140:344|98:376|98:376|130:375,1,105.000004005432
427,332,67676,6,0,P|329:312|222:332,1,210.000008010865
130,375,68396,1,0,0:0:0:0:
351,172,68636,6,0,L|326:274,1,105.000004005432
235,47,69116,2,0,L|261:149,1,105.000004005432
430,245,69596,6,0,L|482:42,1,210.000008010865
486,185,70316,1,0,0:0:0:0:
235,47,70556,6,0,P|176:115|261:149,1,210.000008010865
151,120,71276,1,0,0:0:0:0:
377,70,71516,6,0,L|325:273,1,210.000008010865
317,305,72236,1,0,0:0:0:0:
239,235,72476,5,0,0:0:0:0:
274,370,72716,1,0,0:0:0:0:
225,221,72956,1,0,0:0:0:0:
412,311,73196,1,0,0:0:0:0:
167,168,73436,6,0,L|205:203,1,52.5000020027161
200,71,73676,2,0,L|215:120,1,52.5000020027161
89,101,73916,2,0,L|127:136,1,52.5000020027161
184,20,74156,2,0,L|199:69,1,52.5000020027161
46,71,74396,6,0,P|24:133|60:268,1,210.000008010865
0,175,75116,1,0,0:0:0:0:
143,269,75356,6,0,P|139:299|124:321,1,52.5000020027161
222,226,75596,2,0,P|233:253|232:280,1,52.5000020027161
145,147,75836,2,0,P|145:173|156:196,1,52.5000020027161
250,104,76076,2,0,P|237:127|235:153,1,52.5000020027161
204,359,76316,6,0,B|289:372|357:337|357:337|325:328|295:332,1,210.000008010865
299,338,77036,1,0,0:0:0:0:
457,307,77276,6,0,B|473:188|438:213|458:96,1,210.000008010865
496,225,77996,1,0,0:0:0:0:
346,155,78236,6,0,P|303:133|262:89,1,105.000004005432
357,317,78716,1,0,0:0:0:0:
254,68,79076,5,0,0:0:0:0:
254,68,79196,1,0,0:0:0:0:
360,58,79556,1,0,0:0:0:0:
302,10,79916,1,0,0:0:0:0:
182,241,80156,6,0,L|193:159,1,70
116,297,80636,2,0,L|106:227,1,70
357,146,81116,5,0,0:0:0:0:
284,217,81356,1,0,0:0:0:0:
193,169,81596,1,0,0:0:0:0:
210,67,81836,1,0,0:0:0:0:
312,51,82076,1,0,0:0:0:0:
308,61,82316,5,0,0:0:0:0:
200,165,82556,1,0,0:0:0:0:
219,73,82796,1,0,0:0:0:0:
449,197,83036,5,0,0:0:0:0:
430,296,83276,1,0,0:0:0:0:
328,309,83516,1,0,0:0:0:0:
284,217,83756,1,0,0:0:0:0:
358,145,83996,1,0,0:0:0:0:
361,155,84236,5,0,0:0:0:0:
296,222,84476,1,0,0:0:0:0:
337,301,84716,1,0,0:0:0:0:
357,313,84836,1,0,0:0:0:0:
255,316,84956,5,0,0:0:0:0:
153,319,85196,1,0,0:0:0:0:
117,224,85436,1,0,0:0:0:0:
197,162,85676,1,0,0:0:0:0:
284,217,85916,1,0,0:0:0:0:
160,312,86156,5,0,0:0:0:0:
154,79,86396,2,0,P|128:102|110:132,1,70
256,73,86876,6,0,B|336:52|318:85|400:69,1,140
356,2,87596,1,0,0:0:0:0:
300,141,87836,1,0,0:0:0:0:
294,154,88076,6,0,P|282:179|281:216,1,52.5000020027161
181,277,88316,2,0,P|210:273|245:255,1,61.2500005841255
404,338,88556,2,0,P|384:310|346:287,1,70
193,173,88796,5,0,0:0:0:0:
103,214,89036,1,0,0:0:0:0:
114,116,89276,1,0,0:0:0:0:
202,74,89516,1,0,0:0:0:0:
124,14,89756,1,0,0:0:0:0:
119,9,89996,5,0,0:0:0:0:
36,153,90236,2,0,L|99:123,1,70
208,69,90716,5,0,0:0:0:0:
296,27,90956,1,0,0:0:0:0:
292,124,91196,1,0,0:0:0:0:
380,81,91436,2,0,L|378:115,1,35
376,178,91676,1,0,0:0:0:0:
463,54,92156,6,0,L|460:124,1,70
455,221,92636,5,0,0:0:0:0:
362,189,92876,1,0,0:0:0:0:
265,208,93116,1,0,0:0:0:0:
190,272,93356,1,0,0:0:0:0:
157,364,93596,6,0,P|231:360|279:310,1,140
395,364,94316,1,0,0:0:0:0:
189,271,94556,6,0,L|159:209,1,70
129,149,95276,6,0,L|149:190,1,35
278,187,95516,2,0,L|237:208,1,43.75
91,85,95756,5,0,0:0:0:0:
57,138,95876,1,0,0:0:0:0:
46,210,95996,1,0,0:0:0:0:
69,279,96116,1,0,0:0:0:0:
129,337,96236,1,0,0:0:0:0:
209,359,96356,1,0,0:0:0:0:
297,329,96476,6,0,P|322:333|346:345,1,52.5000020027161
163,221,96716,2,0,P|168:246|164:272,1,52.5000020027161
226,63,96956,2,0,P|202:75|177:79,1,52.5000020027161
396,73,97196,2,0,P|377:54|365:31,1,52.5000020027161
439,237,97436,6,0,P|450:213|469:195,1,52.5000020027161
491,185,97676,5,0,0:0:0:0:
440,172,97796,1,0,0:0:0:0:
394,146,97916,1,0,0:0:0:0:
344,161,98036,1,0,0:0:0:0:
292,167,98156,1,0,0:0:0:0:
240,163,98276,1,0,0:0:0:0:
137,149,98396,6,0,P|163:147|189:150,1,52.5000020027161
284,14,98636,2,0,P|294:38|300:64,1,52.5000020027161
459,114,98876,2,0,P|439:131|417:144,1,52.5000020027161
421,309,99116,2,0,P|399:295|380:278,1,52.5000020027161
218,331,99356,6,0,P|224:305|236:282,1,52.5000020027161
274,245,99596,1,0,0:0:0:0:
274,245,99716,1,0,0:0:0:0:
151,378,99836,6,0,P|143:352|141:326,1,52.5000020027161
156,275,100076,1,0,0:0:0:0:
156,275,100196,1,0,0:0:0:0:
29,384,100316,6,0,L|47:335,1,52.5000020027161
0,211,100556,2,0,L|51:202,1,52.5000020027161
133,98,100796,2,0,L|168:138,1,52.5000020027161
298,157,101036,2,0,L|281:207,1,52.5000020027161
329,329,101276,6,0,L|277:338,1,52.5000020027161
256,342,101516,1,0,0:0:0:0:
440,96,101756,6,0,L|394:230,1,140
396,36,102236,2,0,P|462:25|510:72,2,140
453,177,102956,1,0,0:0:0:0:
326,87,103196,5,0,0:0:0:0:
302,112,103316,1,0,0:0:0:0:
326,137,103436,1,0,0:0:0:0:
351,112,103556,1,0,0:0:0:0:
325,74,103676,5,0,0:0:0:0:
289,112,103796,1,0,0:0:0:0:
257,177,103916,2,0,P|230:153|218:119,1,70
146,1,104156,6,0,L|201:14,1,52.5000020027161
100,97,104396,2,0,L|155:110,1,52.5000020027161
54,193,104636,2,0,L|109:206,1,52.5000020027161
8,289,104876,2,0,L|63:302,1,52.5000020027161
189,186,105116,6,0,L|176:241,1,52.5000020027161
150,339,105356,1,0,0:0:0:0:
359,326,105596,2,0,L|241:298,1,105.000004005432
477,232,106076,6,0,L|464:283,1,52.5000020027161
365,195,106316,2,0,L|387:243,1,52.5000020027161
489,180,106556,2,0,L|476:231,1,52.5000020027161
343,147,106796,2,0,L|365:195,1,52.5000020027161
256,301,107036,6,0,L|359:326,1,105.000004005432
489,180,107516,1,0,0:0:0:0:
440,371,107756,1,0,0:0:0:0:
343,147,107996,6,0,L|299:48,1,105.000004005432
386,242,108476,1,0,0:0:0:0:
427,107,108716,1,0,0:0:0:0:
272,232,108956,6,0,L|230:137,1,105.000004005432
470,202,109436,1,0,0:0:0:0:
314,328,109796,5,0,0:0:0:0:
341,266,109916,2,0,P|298:303|244:299,1,105.000004005432
335,184,110396,1,0,0:0:0:0:
342,171,110636,1,0,0:0:0:0:
151,166,110876,6,0,L|186:246,1,87.5
121,89,111356,2,0,L|69:159,1,87.5
171,23,111836,6,0,L|84:13,2,87.5
208,96,112556,1,0,0:0:0:0:
95,234,112796,6,0,L|131:315,1,87.5
239,366,113276,2,0,L|179:231,1,131.25
291,285,113756,6,0,L|326:364,1,87.5
258,214,114236,1,0,0:0:0:0:
159,384,114476,1,0,0:0:0:0:
294,139,114716,6,0,P|327:166|339:207,1,87.5
255,64,115196,2,0,P|221:91|209:132,1,87.5
360,86,115676,6,0,P|415:74|360:67,1,157.500006008148
437,220,116636,6,0,P|425:143|387:75,1,157.500006008148
362,63,117476,5,0,0:0:0:0:
448,119,117596,2,0,P|466:171|465:227,1,105.000004005432
440,319,118316,5,0,0:0:0:0:
338,262,118556,1,0,0:0:0:0:
376,139,118796,6,0,L|370:161,2,13.125000500679
394,219,119036,2,0,P|346:217|308:181,1,87.5
184,39,119516,6,0,B|179:62|184:78|184:78|179:93|179:93|186:111|181:142,1,105.000004005432
182,162,119876,1,0,0:0:0:0:
287,21,119996,1,0,0:0:0:0:
102,89,120236,1,0,0:0:0:0:
73,200,120476,1,0,0:0:0:0:
286,117,120716,6,0,L|340:148,1,52.5000020027161
421,195,120956,2,0,L|375:221,1,52.5000020027161
283,273,121196,2,0,L|282:220,1,52.5000020027161
409,114,121436,6,0,P|421:63|409:12,1,105.000004005432
398,0,121796,1,0,0:0:0:0:
445,189,121916,2,0,P|480:151|495:101,1,105.000004005432
495,276,122396,1,0,0:0:0:0:
283,273,122636,6,0,P|291:297|310:316,1,52.5000020027161
326,142,122876,2,0,P|275:129|224:141,1,105.000004005432
206,151,123356,6,0,B|191:125|191:125|193:44,1,105.000004005432
195,23,123716,1,0,0:0:0:0:
274,201,123836,1,0,0:0:0:0:
81,114,124076,1,0,0:0:0:0:
339,132,124316,6,0,B|384:125|384:125|445:136|445:136|502:129,1,157.500006008148
278,78,124796,1,0,0:0:0:0:
429,221,125036,6,0,L|417:171,1,52.5000020027161
414,269,125276,1,0,0:0:0:0:
383,1,125756,5,0,0:0:0:0:
447,75,125996,1,0,0:0:0:0:
225,114,126236,5,0,0:0:0:0:
356,89,126476,1,0,0:0:0:0:
238,358,126716,5,0,0:0:0:0:
302,168,126956,1,0,0:0:0:0:
126,191,127196,6,0,P|112:141|132:94,1,105.000004005432
146,221,127556,1,0,0:0:0:0:
224,45,127676,1,0,0:0:0:0:
33,146,127916,1,0,0:0:0:0:
234,236,128156,6,0,P|212:283|167:308,1,105.000004005432
22,354,128516,2,0,P|43:306|88:281,1,105.000004005432
282,345,128876,2,0,L|242:305,1,52.5000020027161
121,136,129116,2,0,B|170:120|206:140|206:140|242:127|242:127|283:142|325:135,1,210.000008010865
350,132,129836,6,0,L|389:123,2,35.0000013351441
276,235,130076,2,0,P|221:149|252:53,1,210.000008010865
185,155,130796,1,0,0:0:0:0:
417,117,131036,6,0,L|438:222,1,105.000004005432
452,45,131396,2,0,P|403:34|356:63,1,105.000004005432
507,179,131756,2,0,L|495:119,1,52.5000020027161
335,139,131996,1,0,0:0:0:0:
320,141,132476,5,0,0:0:0:0:
508,260,132716,2,0,B|466:267|425:252|425:252|389:265|389:265|353:245|262:264|262:264|293:289|332:286,1,315.000012016297
331,286,133676,1,0,0:0:0:0:
156,180,133916,5,0,0:0:0:0:
109,197,134036,1,0,0:0:0:0:
72,164,134156,1,0,0:0:0:0:
85,116,134276,1,0,0:0:0:0:
133,105,134396,5,0,0:0:0:0:
198,125,134516,1,0,0:0:0:0:
268,115,134636,1,0,0:0:0:0:
326,76,134756,1,0,0:0:0:0:
386,109,134876,6,0,P|392:58|362:16,1,105.000004005432
371,134,135236,1,0,0:0:0:0:
220,33,135356,1,0,0:0:0:0:
235,144,135596,1,0,0:0:0:0:
303,232,135836,1,0,0:0:0:0:
98,148,136076,6,0,P|97:125|106:97,1,52.5000020027161
217,220,136316,2,0,B|196:230|196:230|177:252,1,52.5000020027161
46,265,136556,2,0,B|26:243|26:243|5:233,1,52.5000020027161
249,292,136796,6,0,P|233:341|198:379,1,105.000004005432
273,364,137156,1,0,0:0:0:0:
404,232,137276,1,0,0:0:0:0:
410,309,137396,6,0,L|414:361,2,52.5000020027161
325,214,137756,2,0,L|329:266,1,52.5000020027161
249,292,137996,5,0,0:0:0:0:
244,235,138116,1,0,0:0:0:0:
294,142,138236,2,0,P|319:134|345:139,2,52.5000020027161
454,175,138716,6,0,B|463:113|447:127|454:70,1,105.000004005432
457,42,139076,1,0,0:0:0:0:
207,150,139196,1,0,0:0:0:0:
251,68,139436,1,0,0:0:0:0:
20,234,139676,6,0,B|65:227|126:238|178:232,1,157.500006008148
21,148,140156,2,0,B|50:143|89:150|126:146,1,105.000004005432
21,319,140636,1,0,0:0:0:0:
21,38,141116,5,0,0:0:0:0:
125,146,141356,1,0,0:0:0:0:
21,319,141596,5,0,0:0:0:0:
177,232,141836,1,0,0:0:0:0:
76,232,142076,5,0,0:0:0:0:
97,279,142196,1,0,0:0:0:0:
21,148,142316,1,0,0:0:0:0:
0,195,142436,1,0,0:0:0:0:
222,141,142556,6,0,P|172:126|125:146,1,105.000004005432
242,163,142916,1,0,0:0:0:0:
74,71,143036,1,0,0:0:0:0:
172,81,143276,1,0,0:0:0:0:
270,258,143516,6,0,B|315:232|315:232|341:182,1,105.000004005432
420,332,143876,2,0,B|375:307|375:307|351:260,1,105.000004005432
303,372,144236,2,0,L|343:332,1,52.5000020027161
408,216,144476,6,0,B|392:167|412:131|412:131|399:95|399:95|414:54|407:12,1,210.000008010865
444,131,145196,6,0,L|478:138,2,35.0000013351441
384,22,145436,2,0,B|391:64|376:105|376:105|389:141|389:141|369:177|385:226,1,210.000008010865
342,111,146156,1,0,0:0:0:0:
136,151,146396,6,0,L|241:130,1,105.000004005432
107,158,146756,1,0,0:0:0:0:
266,123,146876,1,0,0:0:0:0:
43,103,147116,6,0,B|31:160|31:160|43:217|43:217|32:296|32:296|17:270|22:224,1,262.500010013581
37,318,147836,1,0,0:0:0:0:
206,267,148076,1,0,0:0:0:0:
149,283,148316,6,0,P|153:238|211:324,1,280
243,311,149396,5,0,0:0:0:0:
276,299,149516,1,0,0:0:0:0:
317,296,149636,1,0,0:0:0:0:
363,311,149756,5,0,0:0:0:0:
399,264,149876,1,0,0:0:0:0:
420,201,149996,1,0,0:0:0:0:
415,127,150116,1,0,0:0:0:0:
345,5,150236,6,0,P|305:77|385:56,1,210.000008010865
283,94,150956,1,0,0:0:0:0:
135,16,151196,5,0,0:0:0:0:
141,140,151436,2,0,L|139:100,2,35.0000013351441
142,183,151676,1,0,0:0:0:0:
149,341,151916,1,0,0:0:0:0:
0,261,152156,6,0,P|79:239|39:311,1,210.000008010865
42,268,152876,1,0,0:0:0:0:
338,327,153116,6,0,L|229:303,1,105.000004005432
300,238,153436,2,0,L|294:273,1,35.0000013351441
259,185,153596,2,0,L|361:207,1,105.000004005432
184,232,154076,6,0,P|173:159|282:99,1,210.000008010865
156,162,154796,1,0,0:0:0:0:
104,374,155036,6,0,P|119:276|35:226,1,210.000008010865
38,316,155756,1,0,0:0:0:0:
203,315,155996,6,0,B|302:311|302:311|293:322|293:322|390:318,1,210.000008010865
411,317,156716,1,0,0:0:0:0:
430,316,156956,5,0,0:0:0:0:
304,318,157196,1,0,0:0:0:0:
189,225,157436,1,0,0:0:0:0:
159,59,157676,1,0,0:0:0:0:
87,211,157916,6,0,L|64:260,1,52.5000020027161
317,214,158156,2,0,L|280:177,1,52.5000020027161
189,225,158396,2,0,L|197:276,1,52.5000020027161
378,94,158636,2,0,L|327:85,1,52.5000020027161
159,59,158876,6,0,P|85:95|89:212,1,210.000008010865
45,96,159596,1,0,0:0:0:0:
140,315,159836,6,0,L|88:303,1,52.5000020027161
189,225,160077,2,0,L|153:186,1,52.5000020027161
281,179,160317,2,0,L|273:126,1,52.5000020027161
382,197,160557,2,0,L|405:150,1,52.5000020027161
500,244,160796,6,0,L|407:293,1,105.000004005432
385,306,161156,1,0,0:0:0:0:
450,372,161276,2,0,L|358:324,1,105.000004005432
212,370,161756,6,0,P|214:291|273:356,1,210.000008010865
235,332,162476,1,0,0:0:0:0:
132,264,162716,6,0,P|163:227|217:210,1,105.000004005432
14,116,163196,2,0,P|89:138|141:197,1,157.500006008148
105,108,163676,5,0,0:0:0:0:
60,5,164036,1,0,0:0:0:0:
141,31,164396,1,0,0:0:0:0:
263,116,164636,6,0,B|218:106|232:102|196:94,1,70
334,94,165596,5,0,0:0:0:0:
334,94,166556,5,0,0:0:0:0:
393,151,166796,5,0,0:0:0:0:
400,173,166876,1,0,0:0:0:0:
406,196,166956,1,0,0:0:0:0:
426,264,167036,1,0,0:0:0:0:
405,72,167276,5,0,0:0:0:0:
346,251,167516,1,0,0:0:0:0:
346,251,168476,5,0,0:0:0:0:
293,315,168716,5,0,0:0:0:0:
270,309,168796,1,0,0:0:0:0:
247,304,168876,1,0,0:0:0:0:
178,287,168956,1,0,0:0:0:0:
374,335,169196,5,0,0:0:0:0:
140,206,169436,1,0,0:0:0:0:
140,206,170156,5,0,0:0:0:0:
193,369,170396,1,0,0:0:0:0:
140,206,171116,5,0,0:0:0:0:
193,43,171356,1,0,0:0:0:0:
193,43,172076,5,0,0:0:0:0:
196,129,172316,1,0,0:0:0:0:
281,152,172556,1,0,0:0:0:0:
329,79,172796,1,0,0:0:0:0:
274,10,173036,1,0,0:0:0:0:
215,215,173276,5,0,0:0:0:0:
288,255,173516,1,0,0:0:0:0:
359,298,173756,1,0,0:0:0:0:
433,337,173996,1,0,0:0:0:0:
505,379,174236,1,0,0:0:0:0:
359,298,174716,5,0,0:0:0:0:
433,337,174956,1,0,0:0:0:0:
284,171,175196,5,0,0:0:0:0:
215,215,175436,1,0,0:0:0:0:
144,257,175676,1,0,0:0:0:0:
70,301,175916,1,0,0:0:0:0:
1,343,176156,1,0,0:0:0:0:
144,257,176636,5,0,0:0:0:0:
138,175,176876,1,0,0:0:0:0:
221,303,177116,1,0,0:0:0:0:
221,303,177836,5,0,0:0:0:0:
138,175,178076,1,0,0:0:0:0:
266,92,178316,1,0,0:0:0:0:
349,220,178556,1,0,0:0:0:0:
244,198,178916,5,0,0:0:0:0:
244,198,179036,6,0,L|270:240,1,43.75
197,265,179276,2,0,L|223:307,1,43.75
349,220,179516,6,0,P|341:195|325:174,1,52.5000020027161
114,129,179756,2,0,P|121:153|137:174,1,52.5000020027161
372,309,179996,6,0,B|342:302|342:302|312:306,1,61.2500005841255
136,329,180236,1,0,0:0:0:0:
136,329,180356,1,0,0:0:0:0:
26,257,180476,6,0,B|48:253|48:253|83:248,1,70
26,257,180716,2,0,B|95:259,1,70
2,92,180956,6,0,B|25:99|25:99|51:114|51:114|86:116|86:116|118:125|118:125|141:101|141:101|165:85|165:85|180:56|180:56|197:32,1,245.000002336502
140,181,181676,2,0,L|116:123,1,61.2500005841255
70,0,181916,1,0,0:0:0:0:
70,0,182276,5,0,0:0:0:0:
117,125,182396,1,0,0:0:0:0:
117,125,182756,5,0,0:0:0:0:
164,250,182876,1,0,0:0:0:0:
209,192,182996,1,0,0:0:0:0:
235,261,183116,2,0,L|223:342,1,52.5000020027161
325,145,183356,5,0,0:0:0:0:
280,203,183476,1,0,0:0:0:0:
352,213,183596,2,0,L|340:294,1,52.5000020027161
299,78,183836,5,0,0:0:0:0:
254,135,183956,1,0,0:0:0:0:
398,157,184076,5,0,0:0:0:0:
371,89,184196,1,0,0:0:0:0:
280,203,184316,5,0,0:0:0:0:
352,213,184436,1,0,0:0:0:0:
209,192,184556,6,0,L|127:180,1,52.5000020027161
424,223,184796,1,0,0:0:0:0:
325,145,185156,5,0,0:0:0:0:
64,229,185276,2,0,B|96:178|96:178|137:182|137:182|180:202|180:202|224:194|224:194|281:203,1,245.000002336502
280,203,186116,5,0,0:0:0:0:
86,147,186236,1,0,0:0:0:0:
97,358,186716,6,0,P|66:284|36:358,1,204.166668613752
60,253,187196,6,0,P|71:173|8:223,1,204.166668613752
173,275,187676,6,0,P|236:324|225:244,1,204.166668613752
201,139,188156,6,0,P|230:213|261:139,1,204.166668613752
347,276,188636,5,0,0:0:0:0:
327,228,188756,1,0,0:0:0:0:
387,372,188876,1,0,0:0:0:0:
335,365,188996,1,0,0:0:0:0:
420,333,189116,6,0,L|440:284,1,52.5000020027161
347,180,189356,1,0,0:0:0:0:
327,228,189476,1,0,0:0:0:0:
443,146,189596,6,0,L|398:117,1,52.5000020027161
460,235,189836,1,0,0:0:0:0:
476,186,189956,1,0,0:0:0:0:
304,109,190076,6,0,L|260:138,1,52.5000020027161
357,37,190316,1,0,0:0:0:0:
213,220,190556,6,0,P|173:175|167:125,1,105.000004005432
170,109,190916,1,0,0:0:0:0:
107,248,191036,6,0,P|124:226|136:200,1,52.5000020027161
57,181,191276,1,0,0:0:0:0:
183,314,191396,1,0,0:0:0:0:
211,357,191516,6,0,P|194:337|183:314,1,52.5000020027161
90,341,191756,1,0,0:0:0:0:
325,234,191996,6,0,P|294:309|263:234,1,210.000008010865
294,344,192716,5,0,0:0:0:0:
294,265,192836,1,0,0:0:0:0:
294,159,192956,2,0,L|294:107,1,52.5000020027161
318,364,193436,5,0,0:0:0:0:
318,127,193676,2,0,L|318:179,1,52.5000020027161
318,285,193916,1,0,0:0:0:0:
341,146,194156,1,0,0:0:0:0:
223,231,194396,6,0,B|229:217|206:189|206:189|204:272|180:344,1,204.166668613752
179,225,194877,6,0,B|194:223|206:189|206:189|133:229|59:244,1,204.166668613752
162,184,195356,6,0,B|170:196|206:190|206:190|135:147|84:90,1,204.166668613752
189,149,195836,6,0,B|182:161|205:190|205:190|207:107|231:34,1,204.166668613752
223,231,196316,5,0,0:0:0:0:
257,313,196556,1,0,0:0:0:0:
373,197,196796,6,0,B|337:191|337:191|304:195,1,70.0000026702882
462,209,197036,2,0,B|425:211|425:211|393:205,1,70.0000026702882
338,278,197276,2,0,B|373:278|373:278|406:290|406:290|442:289,1,105.000004005432
512,267,197636,1,0,0:0:0:0:
331,368,197756,6,0,L|384:376,1,52.5000020027161
487,383,197996,1,0,0:0:0:0:
205,305,198236,6,0,L|256:312,2,52.5000020027161
101,289,198596,1,0,0:0:0:0:
166,204,198716,2,0,P|160:178|149:154,1,52.5000020027161
322,224,198956,2,0,L|271:217,1,52.5000020027161
76,202,199196,5,0,0:0:0:0:
62,151,199316,1,0,0:0:0:0:
79,101,199436,1,0,0:0:0:0:
121,70,199556,1,0,0:0:0:0:
166,204,199676,6,0,P|171:229|182:253,1,52.5000020027161
101,289,199916,2,0,P|118:308|140:323,1,52.5000020027161
229,109,200156,1,0,0:0:0:0:
198,18,200396,5,0,0:0:0:0:
198,18,200516,1,0,0:0:0:0:
270,209,200636,2,0,P|253:259|249:312,1,105.000004005432
255,341,200996,1,0,0:0:0:0:
360,218,201116,6,0,P|354:243|343:267,1,52.5000020027161
425,303,201356,2,0,P|407:322|385:337,1,52.5000020027161
469,203,201596,2,0,P|486:183|508:168,1,52.5000020027161
229,109,202076,5,0,0:0:0:0:
229,109,202156,2,0,P|157:151|77:164,1,163.333334891001
78,164,202556,5,0,0:0:0:0:
78,164,202636,2,0,P|154:192|235:191,1,163.333334891001
235,191,203036,5,0,0:0:0:0:
235,191,203116,2,0,P|165:232|84:246,1,163.333334891001,0|0,0:3|0:3,0:3:0:0:
84,246,203516,5,0,0:0:0:0:
84,246,203596,2,0,P|160:274|241:273,1,163.333334891001,0|0,0:3|0:3,0:3:0:0:
334,213,203996,6,0,P|408:243|334:274,1,204.166668613752
448,208,204476,6,0,P|455:234|452:260,1,52.5000020027161
393,117,204716,2,0,P|411:98|435:88,1,52.5000020027161
334,213,204956,2,0,P|308:205|287:190,1,52.5000020027161
494,231,205196,6,0,P|473:215|447:208,1,52.5000020027161
291,241,205436,2,0,P|314:230|333:212,1,52.5000020027161
389,64,205676,2,0,P|385:90|392:116,1,52.5000020027161
395,303,205916,5,0,0:0:0:0:
279,326,206036,2,0,P|253:318|232:304,1,52.5000020027161
346,366,206276,1,0,0:0:0:0:
161,193,206396,5,0,0:0:0:0:
132,236,206516,1,0,0:0:0:0:
161,279,206636,1,0,0:0:0:0:
132,322,206756,1,0,0:0:0:0:
140,118,206876,2,0,P|224:153|229:228,1,175.00000667572
256,115,207356,5,0,0:0:0:0:
228,309,207516,2,0,L|205:356,2,52.5000020027161
309,191,207836,5,0,0:0:0:0:
315,309,207956,2,0,L|293:357,2,52.5000020027161
388,154,208316,5,0,0:0:0:0:
402,309,208436,2,0,L|380:357,2,52.5000020027161
469,117,208796,5,0,0:0:0:0:
448,27,208916,1,0,0:0:0:0:
360,19,209036,1,0,0:0:0:0:
325,97,209156,1,0,0:0:0:0:
409,201,209276,6,0,L|387:153,1,52.5000020027161
224,97,209516,1,0,0:0:0:0:
259,19,209636,1,0,0:0:0:0:
278,182,209756,6,0,B|202:217|202:217|126:139,1,183.750001752377
202,216,210236,6,0,B|153:284|153:284|56:255,1,183.750001752377
250,312,210716,5,0,0:0:0:0:
154,284,210956,1,0,0:0:0:0:
346,340,211196,5,0,0:0:0:0:
346,340,211316,1,0,0:0:0:0:
278,182,211676,6,0,L|309:258,1,52.5000020027161
258,133,211916,2,0,L|289:209,1,52.5000020027161
389,266,212156,6,0,L|307:254,1,52.5000020027161
441,273,212396,2,0,L|359:261,1,52.5000020027161
346,129,212636,6,0,B|366:179|366:179|423:187,1,105.000004005432
255,1,213116,2,0,B|306:9|306:9|326:59,1,105.000004005432
202,3,213476,1,0,0:0:0:0:
385,9,213596,6,0,L|421:108,1,105.000004005432
437,158,213956,1,0,0:0:0:0:
251,80,214076,5,0,0:0:0:0:
268,129,214196,1,0,0:0:0:0:
207,228,214316,1,0,0:0:0:0:
225,178,214436,1,0,0:0:0:0:
310,244,214556,2,0,L|292:194,1,52.5000020027161
326,289,214796,5,0,0:0:0:0:
185,275,215036,1,0,0:0:0:0:
251,330,215276,1,0,0:0:0:0:
186,114,215516,1,0,0:0:0:0:
175,86,215756,5,0,0:0:0:0:
122,155,215876,1,0,0:0:0:0:
247,47,215996,2,0,P|228:23|205:9,1,52.5000020027161
268,129,216236,1,0,0:0:0:0:
274,141,216476,6,0,P|289:161|311:176,1,52.5000020027161
385,217,216716,2,0,P|369:237|347:252,1,52.5000020027161
189,323,216956,1,0,0:0:0:0:
389,65,217196,6,0,P|373:86|352:101,1,52.5000020027161
218,210,217436,2,0,P|233:230|255:245,1,52.5000020027161
419,289,217676,2,0,P|441:304|457:325,1,52.5000020027161
290,332,217916,1,0,0:0:0:0:
429,136,218156,1,0,0:0:0:0:
439,145,218396,6,0,L|471:186,1,52.5000020027161
389,65,218636,2,0,L|438:46,1,52.5000020027161
237,165,218876,2,0,L|288:180,1,52.5000020027161
294,33,219116,2,0,L|297:86,1,52.5000020027161
344,260,219356,1,0,0:0:0:0:
214,87,219596,6,0,P|190:94|172:113,1,52.5000020027161
24,114,219836,2,0,P|49:121|66:141,1,52.5000020027161
140,212,220076,2,0,P|115:219|97:238,1,52.5000020027161
97,44,220316,2,0,P|121:36|139:17,2,52.5000020027161
97,44,220676,5,0,0:0:0:0:
239,191,220796,2,0,P|264:198|281:218,1,52.5000020027161
66,140,221036,2,0,P|41:132|23:113,1,52.5000020027161
11,279,221276,2,0,P|45:318|95:333,1,105.000004005432
140,212,221756,6,0,P|115:219|97:237,1,52.5000020027161
158,293,221996,1,0,0:0:0:0:
168,302,222236,6,0,B|187:321|187:321|190:345,1,52.5000020027161
259,349,222476,2,0,L|254:265,1,52.5000020027161
358,235,222716,2,0,B|326:306|326:306|328:341,1,105.000004005432
388,136,223196,1,0,0:0:0:0:
408,313,223436,5,0,0:0:0:0:
427,272,223556,1,0,0:0:0:0:
469,182,223676,2,0,L|447:232,1,52.5000020027161
468,274,223916,2,0,L|490:226,1,52.5000020027161
388,43,224156,2,0,L|367:92,1,52.5000020027161
327,174,224396,1,0,0:0:0:0:
346,133,224516,1,0,0:0:0:0:
278,195,224636,2,0,L|301:145,1,52.5000020027161
419,185,224876,1,0,0:0:0:0:
163,29,225116,6,0,B|157:77|157:77|162:123,1,93.3333333333333
106,76,225356,6,0,P|71:169|169:147,1,245.000002336502
233,77,225956,1,0,0:0:0:0:
51,193,226076,1,0,0:0:0:0:
50,211,226436,6,0,P|85:235|129:237,1,87.5,0|0,2:0|0:0,0:0:0:0:
69,285,226796,1,0,0:0:0:0:
162,331,227036,6,0,L|145:312,1,17.500000667572
176,344,227196,6,0,B|263:295|343:306|343:306|303:278|283:216,1,280.000010681153
317,372,228956,2,0,B|412:404|448:290|388:249|388:249|408:233|408:233|394:197|396:153,1,315.000012016297
245,114,230876,6,0,B|249:178|249:178|235:215|235:215|252:253|259:318|259:318|260:280|277:248|315:239,1,315.000012016297
175,376,232796,2,0,B|196:266|122:172|122:172|90:201|98:252|143:260,1,315.000012016297
143,260,234476,1,0,0:0:0:0:
79,320,234716,6,0,P|27:192|111:95,1,280
0,192,236156,1,0,0:0:0:0:
145,216,236636,6,0,B|209:198|261:223|261:223|298:205|298:205|353:219|422:205,1,280
374,318,238076,1,0,0:0:0:0:
428,204,238316,1,0,0:0:0:0:
366,87,238556,6,0,P|269:145|243:13,1,280
428,204,239996,1,0,0:0:0:0:
249,165,240476,6,0,P|208:278|329:286,1,280
329,286,241916,1,0,0:0:0:0:
272,238,242156,1,0,0:0:0:0:
