osu file format v14

[General]
AudioFilename: audio.mp3
AudioLeadIn: 0
PreviewTime: 21151
Countdown: 1
SampleSet: Soft
StackLeniency: 0.4
Mode: 0
LetterboxInBreaks: 0
WidescreenStoryboard: 1

[Editor]
DistanceSpacing: 1.2
BeatDivisor: 4
GridSize: 4
TimelineZoom: 2.6

[Metadata]
Title:Kaze no Gotoku (TV Size)
TitleUnicode:Kaze no Gotoku (TV Size)
Artist:Inoue Joe
ArtistUnicode:Inoue Joe
Creator:Teppei
Version:NORMAL
Source:銀魂゜
Tags:Yorinuki Gintama-san shinpachi gintoki sakata kamuy kagura sadaharu elizabeth MegaManZero4
BeatmapID:2376977
BeatmapSetID:597521

[Difficulty]
HPDrainRate:3
CircleSize:3
OverallDifficulty:3
ApproachRate:4
SliderMultiplier:0.9
SliderTickRate:1

[Events]
//Background and Video events
Video,0,"Yorinuki Gintama-san Opening 2.AVI"
0,0,"silver soul.jpg",0,0
//Break Periods
//Storyboard Layer 0 (Background)
//Storyboard Layer 1 (Fail)
//Storyboard Layer 2 (Pass)
//Storyboard Layer 3 (Foreground)
//Storyboard Layer 4 (Overlay)
//Storyboard Sound Samples

[TimingPoints]
407.039319474187,319.148936170213,4,2,1,50,1,0
20832,-100,4,2,1,50,0,1
35513,-100,4,2,1,50,0,0
41258,-100,4,2,1,50,0,1
55938,-100,4,2,1,50,0,0

[Colours]
Combo1 : 80,69,171
Combo2 : 197,197,197
Combo3 : 203,69,46

[HitObjects]
476,256,407,6,0,P|480:288|476:316,2,45,8|8|0,0:0|0:0|0:0,0:0:0:0:
444,180,1045,1,0,0:0:0:0:
464,100,1364,1,0,0:0:0:0:
392,60,1683,6,0,L|312:16,1,90
240,52,2321,1,0,0:0:0:0:
160,8,2641,1,0,0:0:0:0:
92,64,2960,2,0,L|44:56,2,45,8|8|0,0:0|0:0|0:0,0:0:0:0:
136,136,3598,6,0,P|144:184|132:232,1,90
96,300,4236,2,0,L|188:308,1,90
224,224,4875,2,0,P|257:251|273:303,1,90,2|0,0:0|0:0,0:0:0:0:
348,340,5513,2,0,L|400:332,2,45,8|8|0,0:0|0:0|0:0,0:0:0:0:
476,320,6630,6,0,B|477:264|477:264|449:231,1,90,8|0,0:0|0:0,0:0:0:0:
420,208,7109,1,8,0:0:0:0:
396,88,7587,6,0,P|348:100|308:88,1,90,8|0,0:0|0:0,0:0:0:0:
268,72,8066,2,0,L|280:132,1,45,0|8,0:0|0:0,0:0:0:0:
268,72,8704,2,0,L|280:132,1,45,0|8,0:0|0:0,0:0:0:0:
300,228,9343,6,0,P|256:228|204:200,1,90,8|8,0:0|0:0,0:0:0:0:
152,144,9981,2,0,P|136:168|128:200,1,45,0|2,0:0|0:0,0:0:0:0:
48,188,10300,2,0,P|53:216|70:244,1,45,0|2,0:0|0:0,0:0:0:0:
56,316,10619,6,0,L|148:300,1,90,0|8,0:0|0:0,0:0:0:0:
226,316,11258,2,0,P|228:294|224:272,2,45
300,356,11896,2,0,L|400:340,1,90,0|8,0:0|0:0,0:0:0:0:
460,300,12534,2,0,P|464:256|452:204,1,90
408,136,13172,6,0,L|452:108,2,45,0|0|8,0:0|0:0|0:0,0:0:0:0:
336,84,13811,2,0,L|347:33,2,45
250,88,14449,2,0,L|238:37,2,45,0|0|8,0:0|0:0|0:0,0:0:0:0:
236,176,15087,6,0,P|196:156|164:100,1,90
100,72,15726,2,0,L|44:80,2,45,0|0|8,0:0|0:0|0:0,0:0:0:0:
96,156,16364,2,0,L|40:164,2,45
88,240,17002,2,0,L|32:248,2,45,0|0|8,0:0|0:0|0:0,0:0:0:0:
156,296,17641,6,0,P|196:304|252:284,1,90
284,300,18119,2,0,P|326:286|370:294,1,90
412,316,18598,2,0,P|424:260|416:224,1,90,8|0,0:0|0:0,0:0:0:0:
460,160,19236,5,0,0:0:0:0:
416,92,19555,1,0,0:0:0:0:
344,124,19875,1,8,0:0:0:0:
344,124,20194,2,2,L|296:116,2,45
344,220,20832,5,0,0:0:0:0:
264,220,21151,1,8,0:0:0:0:
184,220,21470,1,0,0:0:0:0:
184,140,21790,1,8,0:0:0:0:
224,68,22109,6,0,P|198:31|139:28,1,90,0|8,0:0|0:0,0:0:0:0:
84,92,22747,2,0,P|74:48|38:24,1,90,0|8,0:0|0:0,0:0:0:0:
0,104,23385,6,0,L|16:196,1,90,0|8,0:0|0:0,0:0:0:0:
92,232,24024,2,0,L|76:324,1,90,0|8,0:0|0:0,0:0:0:0:
116,340,24502,2,0,P|164:320|208:324,1,90
240,340,24981,1,8,0:0:0:0:
304,292,25300,5,0,0:0:0:0:
364,344,25619,1,8,0:0:0:0:
440,316,25938,2,0,L|532:320,1,90,0|8,0:0|0:0,0:0:0:0:
512,236,26577,5,0,0:0:0:0:
448,188,26896,1,8,0:0:0:0:
376,220,27215,6,0,P|348:228|284:216,1,90,0|8,0:0|0:0,0:0:0:0:
216,260,27853,2,0,P|207:232|220:168,1,90,0|8,0:0|0:0,0:0:0:0:
260,100,28492,2,2,B|290:90|290:90|314:111|314:111|341:100|341:100|361:121|361:121|392:111|392:111|416:133,3,180
476,232,31045,6,0,P|484:280|464:328,1,90,0|8,0:0|0:0,0:0:0:0:
403,272,31683,1,0,0:0:0:0:
336,316,32002,1,8,0:0:0:0:
256,308,32321,2,0,B|200:296|200:296|164:320,1,90,0|8,0:0|0:0,0:0:0:0:
100,360,32960,6,0,P|88:316|100:268,1,90,0|8,0:0|0:0,0:0:0:0:
132,196,33598,2,0,L|228:208,1,90,0|8,0:0|0:0,0:0:0:0:
304,192,34236,2,0,P|284:152|232:124,1,90,0|8,0:0|0:0,0:0:0:0:
208,112,34715,2,0,L|300:80,1,90
332,68,35194,1,8,0:0:0:0:
428,16,35513,6,0,P|440:68|428:120,1,90,0|8,0:0|0:0,0:0:0:0:
416,136,35992,1,2,0:0:0:0:
480,260,36790,2,0,L|376:248,1,90,0|8,0:0|0:0,0:0:0:0:
352,244,37268,1,2,0:0:0:0:
272,316,38066,6,0,L|168:327,1,90,0|8,0:0|0:0,0:0:0:0:
144,332,38544,1,0,0:0:0:0:
144,332,38704,2,0,P|104:324|64:276,1,90,0|8,0:0|0:0,0:0:0:0:
8,224,39343,6,0,P|36:200|52:136,1,90,0|8,0:0|0:0,0:0:0:0:
112,92,39981,1,8,0:0:0:0:
112,92,40300,1,8,0:0:0:0:
112,92,40619,1,8,0:0:0:0:
112,92,40938,1,8,0:0:0:0:
112,92,41258,6,0,B|160:72|160:72|216:80,1,90,0|8,0:0|0:0,0:0:0:0:
264,28,41896,1,0,0:0:0:0:
324,88,42215,1,8,0:0:0:0:
400,52,42534,6,0,B|419:100|419:100|412:156,1,90,0|8,0:0|0:0,0:0:0:0:
436,224,43172,2,0,P|380:220|348:196,1,90,0|8,0:0|0:0,0:0:0:0:
276,156,43811,6,0,L|268:248,1,90,0|8,0:0|0:0,0:0:0:0:
284,332,44449,2,0,P|252:332|200:296,1,90,0|8,0:0|0:0,0:0:0:0:
176,276,44928,2,0,P|144:276|92:312,1,90
60,320,45407,1,8,0:0:0:0:
28,244,45726,5,0,0:0:0:0:
48,164,46045,1,8,0:0:0:0:
0,96,46364,2,0,P|42:80|92:92,1,90,0|8,0:0|0:0,0:0:0:0:
152,44,47002,5,0,0:0:0:0:
192,116,47321,1,8,0:0:0:0:
248,56,47641,2,0,B|284:48|304:48|304:48|336:76,1,90,0|8,0:0|0:0,0:0:0:0:
376,0,48279,2,0,B|401:21|401:21|421:21|457:13,1,90,0|8,0:0|0:0,0:0:0:0:
508,84,48917,6,2,B|495:158|495:158|468:166|468:166|454:241,3,180
408,316,51151,2,8,P|432:328|460:332,2,45,8|8|0,0:0|0:0|0:0,0:0:0:0:
352,256,51790,5,8,0:0:0:0:
304,320,52109,1,0,0:0:0:0:
240,272,52428,1,8,0:0:0:0:
184,328,52747,2,0,P|152:336|92:316,1,90,0|8,0:0|0:0,0:0:0:0:
28,284,53385,5,0,0:0:0:0:
76,220,53704,1,8,0:0:0:0:
36,148,54024,2,0,L|48:56,1,90,0|8,0:0|0:0,0:0:0:0:
116,0,54662,6,0,P|160:12|216:-12,1,90,0|8,0:0|0:0,0:0:0:0:
240,0,55141,2,0,P|282:-12|325:0,1,90
360,20,55619,1,8,0:0:0:0:
424,108,55938,6,0,B|380:128|380:128|380:172,1,90,0|8,0:0|0:0,0:0:0:0:
380,204,56417,1,2,0:0:0:0:
248,204,57215,2,0,B|200:204|200:204|200:160,1,90,0|8,0:0|0:0,0:0:0:0:
200,124,57693,1,2,0:0:0:0:
40,60,58492,6,0,P|32:96|44:160,1,90,0|8,0:0|0:0,0:0:0:0:
48,188,58969,1,0,0:0:0:0:
48,188,59130,2,0,L|36:284,1,90,0|8,0:0|0:0,0:0:0:0:
116,332,59768,6,0,P|156:320|204:352,1,90,0|8,0:0|0:0,0:0:0:0:
284,312,60407,2,0,L|276:256,2,45,8|0|0,0:0|0:0|0:0,0:0:0:0:
368,296,61045,2,0,L|360:240,2,45,8|0|0,0:0|0:0|0:0,0:0:0:0:
456,284,61683,6,0,L|440:192,1,90,2|0,0:0|0:0,0:0:0:0:
432,156,62162,2,0,L|416:64,1,90,2|0,0:0|0:0,0:0:0:0:
408,28,62641,2,0,P|364:20|316:40,1,90,2|0,0:0|0:0,0:0:0:0:
296,64,63119,2,0,P|254:79|210:71,1,90,2|0,0:0|0:0,0:0:0:0:
176,48,63598,1,8,0:0:0:0:
64,104,64236,6,0,P|56:140|76:200,1,90,2|0,0:0|0:0,0:0:0:0:
84,224,64715,2,0,P|97:266|89:310,1,90,2|0,0:0|0:0,0:0:0:0:
64,340,65194,2,0,L|164:336,1,90,2|0,0:0|0:0,0:0:0:0:
188,320,65672,2,0,P|232:320|272:352,1,90,2|0,0:0|0:0,0:0:0:0:
308,348,66151,2,8,L|356:340,2,45,10|0|10,0:0|0:0|0:0,0:0:0:0:
296,248,66790,6,0,B|344:226|344:226|384:236,1,90,2|0,0:0|0:0,0:0:0:0:
420,244,67268,2,0,P|448:252|512:232,1,90,2|0,0:0|0:0,0:0:0:0:
512,196,67747,2,0,L|500:96,1,90,2|0,0:0|0:0,0:0:0:0:
496,68,68226,2,0,L|392:80,1,90,2|0,0:0|0:0,0:0:0:0:
368,84,68704,1,8,0:0:0:0:
240,92,69343,6,0,P|242:114|248:135,1,45,0|8,0:0|0:0,0:0:0:0:
172,176,69821,2,0,P|185:194|201:209,1,45,0|8,0:0|0:0,0:0:0:0:
156,284,70300,2,0,P|176:293|198:298,1,45,0|8,0:0|0:0,0:0:0:0:
284,300,70779,2,0,P|306:297|327:291,1,45,0|8,0:0|0:0,0:0:0:0:
400,332,71258,1,0,0:0:0:0:
492,220,71896,6,0,L|484:164,2,45,8|0|8,0:0|0:0|0:0,0:0:0:0:
444,216,72375,2,0,P|408:208|352:236,1,90,2|0,0:0|0:0,0:0:0:0:
324,240,72853,2,0,P|280:247|240:228,1,90,2|2,0:0|0:0,0:0:0:0:
212,200,73332,2,0,L|220:108,1,90,2|0,0:0|0:0,0:0:0:0:
224,68,73811,1,8,0:0:0:0:
72,96,74449,6,0,L|60:48,2,45,8|0|8,0:0|0:0|0:0,0:0:0:0:
80,132,74928,2,0,P|92:176|80:228,1,90,2|0,0:0|0:0,0:0:0:0:
52,252,75407,2,0,L|144:264,1,90,2|0,0:0|0:0,0:0:0:0:
176,268,75885,2,0,L|268:280,1,90,2|0,0:0|0:0,0:0:0:0:
276,316,76364,1,8,0:0:0:0:
380,200,77002,6,0,L|428:216,2,45,8|0|8,0:0|0:0|0:0,0:0:0:0:
340,188,77481,2,0,P|332:140|344:96,1,90,2|0,0:0|0:0,0:0:0:0:
364,64,77960,2,0,L|268:76,1,90,2|0,0:0|0:0,0:0:0:0:
232,80,78438,6,0,P|192:72|140:92,1,90,2|0,0:0|0:0,0:0:0:0:
112,112,78917,1,8,0:0:0:0:
88,240,79555,6,0,L|96:296,2,45,8|0|8,0:0|0:0|0:0,0:0:0:0:
120,228,80034,2,0,P|168:240|216:224,1,90,2|0,0:0|0:0,0:0:0:0:
240,208,80513,2,0,L|336:224,1,90,2|0,0:0|0:0,0:0:0:0:
364,204,80992,6,0,L|439:265,1,90,2|0,0:0|0:0,0:0:0:0:
464,288,81470,2,0,P|460:328|468:352,2,45,8|0|0,0:0|0:0|0:0,0:0:0:0:
256,192,82109,12,4,87215,0:0:0:0:
