osu file format v14

[General]
AudioFilename: audio.mp3
AudioLeadIn: 0
PreviewTime: 21151
Countdown: 1
SampleSet: Soft
StackLeniency: 0.4
Mode: 0
LetterboxInBreaks: 0
WidescreenStoryboard: 1

[Editor]
DistanceSpacing: 1.2
BeatDivisor: 4
GridSize: 32
TimelineZoom: 2.6

[Metadata]
Title:Kaze no Gotoku (TV Size)
TitleUnicode:Kaze no Gotoku (TV Size)
Artist:Inoue Joe
ArtistUnicode:Inoue Joe
Creator:Teppei
Version:COPYRIGHT
Source:銀魂゜
Tags:Yorinuki Gintama-san shinpachi gintoki sakata kamuy kagura sadaharu elizabeth MegaManZero4
BeatmapID:2376974
BeatmapSetID:597521

[Difficulty]
HPDrainRate:6
CircleSize:4.2
OverallDifficulty:6
ApproachRate:9.5
SliderMultiplier:1.6
SliderTickRate:1

[Events]
//Background and Video events
0,0,"silver soul.jpg",0,0
//Break Periods
//Storyboard Layer 0 (Background)
//Storyboard Layer 1 (Fail)
//Storyboard Layer 2 (Pass)
//Storyboard Layer 3 (Foreground)
//Storyboard Layer 4 (Overlay)
//Storyboard Sound Samples

[TimingPoints]
407.039319474187,319.148936170213,4,2,1,50,1,0
20832,-90.9090909090909,4,2,1,50,0,1
35513,-90.9090909090909,4,2,1,50,0,0
41258,-90.9090909090909,4,2,1,50,0,1
55938,-90.9090909090909,4,2,1,50,0,0
61364,-125,4,2,1,50,0,0
61683,-100,4,2,1,50,0,0
87215,-250,4,2,1,50,0,0
90247,-250,4,2,1,5,0,0

[Colours]
Combo1 : 80,69,171
Combo2 : 197,197,197
Combo3 : 203,69,46

[HitObjects]
124,88,407,5,8,0:0:0:0:
160,180,566,1,8,0:0:0:0:
400,212,2960,5,8,0:0:0:0:
440,116,3119,1,8,0:0:0:0:
200,268,5034,5,2,0:0:0:0:
160,259,5113,1,2,0:0:0:0:
121,250,5193,1,8,0:0:0:0:
300,248,5353,5,2,0:0:0:0:
300,287,5432,1,2,0:0:0:0:
286,324,5512,1,8,0:0:0:0:
236,188,5672,1,8,0:0:0:0:
168,116,6630,5,8,0:0:0:0:
364,88,6949,1,2,0:0:0:0:
364,88,7109,1,2,0:0:0:0:
156,192,7587,5,8,0:0:0:0:
309,43,7907,1,2,0:0:0:0:
364,88,8066,1,2,0:0:0:0:
420,133,8226,1,2,0:0:0:0:
372,296,8704,5,2,0:0:0:0:
384,224,8864,1,8,0:0:0:0:
264,176,9343,5,8,0:0:0:0:
252,200,9662,1,8,0:0:0:0:
240,228,9981,1,8,0:0:0:0:
336,144,10141,5,8,0:0:0:0:
240,56,10300,1,2,0:0:0:0:
203,60,10379,1,2,0:0:0:0:
170,77,10459,1,2,0:0:0:0:
145,102,10539,1,2,0:0:0:0:
129,134,10619,1,2,0:0:0:0:
184,276,10779,5,0,0:0:0:0:
264,152,10938,1,8,0:0:0:0:
92,216,11098,1,0,0:0:0:0:
92,216,11417,5,0,0:0:0:0:
264,152,11577,1,0,0:0:0:0:
184,276,11736,2,0,P|176:316|184:360,1,80,8|0,0:0|0:0,0:0:0:0:
264,152,12055,5,0,0:0:0:0:
184,192,12215,1,8,0:0:0:0:
332,212,12375,1,0,0:0:0:0:
252,72,12534,2,0,B|204:64|204:64|172:80,1,80
344,108,12853,5,8,0:0:0:0:
232,0,13013,1,0,0:0:0:0:
103,48,13172,2,0,P|64:56|24:40,1,80
176,88,13492,5,8,0:0:0:0:
96,184,13651,1,0,0:0:0:0:
216,176,13970,5,0,0:0:0:0:
76,288,14129,1,0,0:0:0:0:
248,272,14289,1,8,0:0:0:0:
340,112,14609,5,0,0:0:0:0:
296,200,14768,1,8,0:0:0:0:
396,188,14928,1,0,0:0:0:0:
304,44,15087,5,8,0:0:0:0:
356,252,15247,1,0,0:0:0:0:
412,120,15407,1,8,0:0:0:0:
240,132,15566,1,0,0:0:0:0:
424,224,15726,2,0,B|448:232|448:232|480:224|480:224|504:232,1,80
332,112,16045,5,8,0:0:0:0:
412,296,16204,1,0,0:0:0:0:
256,216,16524,5,0,0:0:0:0:
404,156,16683,1,0,0:0:0:0:
292,48,16843,1,8,0:0:0:0:
224,232,17162,5,0,0:0:0:0:
432,144,17321,1,8,0:0:0:0:
276,16,17481,1,0,0:0:0:0:
356,248,17641,1,0,0:0:0:0:
392,64,17800,1,0,0:0:0:0:
204,116,17960,5,8,0:0:0:0:
432,144,18119,2,0,P|464:116|480:76,1,80
320,168,18438,5,0,0:0:0:0:
336,20,18598,1,8,0:0:0:0:
440,216,18758,1,0,0:0:0:0:
264,84,18917,1,0,0:0:0:0:
492,156,19236,5,0,0:0:0:0:
400,296,19396,1,8,0:0:0:0:
380,168,19555,1,0,0:0:0:0:
500,296,19715,1,0,0:0:0:0:
480,116,19875,1,8,0:0:0:0:
336,264,20034,1,0,0:0:0:0:
336,56,20194,5,8,0:0:0:0:
372,44,20273,1,2,0:0:0:0:
410,51,20353,1,2,0:0:0:0:
252,188,20513,1,8,0:0:0:0:
156,60,20832,6,0,P|112:52|32:100,1,132.00000402832,2|0,0:0|0:0,0:0:0:0:
24,136,21151,2,0,L|36:232,1,88.000002685547,8|0,0:0|0:0,0:0:0:0:
112,272,21470,2,0,L|100:368,1,88.000002685547,2|0,0:0|0:0,0:0:0:0:
200,164,21790,6,0,P|155:166|114:199,1,88.000002685547,8|0,0:0|0:0,0:0:0:0:
200,296,22109,2,0,P|244:293|285:260,1,88.000002685547,2|0,0:0|0:0,0:0:0:0:
376,296,22428,2,0,L|360:196,1,88.000002685547,8|0,0:0|0:0,0:0:0:0:
448,180,22747,6,0,P|426:140|379:117,1,88.000002685547,2|0,0:0|0:0,0:0:0:0:
332,44,23066,2,0,B|384:24|384:24|420:36,1,88.000002685547,8|0,0:0|0:0,0:0:0:0:
304,128,23385,5,2,0:0:0:0:
304,128,23545,1,2,0:0:0:0:
192,76,23704,2,0,P|144:56|92:64,1,88.000002685547,8|0,0:0|0:0,0:0:0:0:
252,208,24024,5,2,0:0:0:0:
252,208,24183,1,2,0:0:0:0:
372,112,24343,2,0,P|420:100|460:112,1,88.000002685547,8|0,0:0|0:0,0:0:0:0:
288,272,24662,5,2,0:0:0:0:
288,272,24821,1,2,0:0:0:0:
204,152,24981,2,0,P|156:140|96:160,1,88.000002685547,8|0,0:0|0:0,0:0:0:0:
332,144,25300,5,2,0:0:0:0:
264,64,25460,1,2,0:0:0:0:
364,228,25619,1,8,0:0:0:0:
400,72,25779,1,0,0:0:0:0:
236,216,25938,6,0,P|192:220|148:200,1,88.000002685547,2|0,0:0|0:0,0:0:0:0:
60,112,26258,2,0,P|96:72|164:100,1,132.00000402832,8|0,0:0|0:0,0:0:0:0:
259,37,26577,2,0,P|208:75|207:139,1,132.00000402832,2|0,0:0|0:0,0:0:0:0:
248,160,26896,2,0,L|388:136,1,132.00000402832,8|0,0:0|0:0,0:0:0:0:
408,104,27215,2,0,P|393:166|432:216,1,132.00000402832,2|0,0:0|0:0,0:0:0:0:
432,304,27534,6,0,B|384:308|384:308|344:284,1,88.000002685547,8|0,0:0|0:0,0:0:0:0:
272,328,27853,2,0,B|237:307|237:307|189:311,1,88.000002685547,2|0,0:0|0:0,0:0:0:0:
120,256,28172,2,0,P|104:300|112:356,1,88.000002685547,8|0,0:0|0:0,0:0:0:0:
224,176,28492,5,2,0:0:0:0:
196,48,28651,1,0,0:0:0:0:
64,176,28811,1,8,0:0:0:0:
92,48,28970,1,0,0:0:0:0:
224,192,29130,5,2,0:0:0:0:
196,36,29290,1,0,0:0:0:0:
64,196,29449,1,8,0:0:0:0:
92,36,29609,1,0,0:0:0:0:
224,208,29768,5,2,0:0:0:0:
196,24,29928,1,0,0:0:0:0:
64,208,30087,1,8,0:0:0:0:
92,24,30247,1,0,0:0:0:0:
224,228,30407,5,2,0:0:0:0:
196,8,30566,1,0,0:0:0:0:
64,228,30726,1,8,0:0:0:0:
92,8,30885,1,8,0:0:0:0:
92,8,30965,1,8,0:0:0:0:
92,8,31045,1,2,0:0:0:0:
256,80,31204,5,0,0:0:0:0:
136,152,31364,2,0,P|88:160|48:148,1,88.000002685547,8|0,0:0|0:0,0:0:0:0:
256,80,31683,2,0,L|344:92,1,88.000002685547,2|0,0:0|0:0,0:0:0:0:
324,228,32002,6,0,L|236:216,1,88.000002685547,8|0,0:0|0:0,0:0:0:0:
428,184,32321,2,0,P|436:232|420:284,1,88.000002685547,2|0,0:0|0:0,0:0:0:0:
340,340,32641,2,0,L|252:328,1,88.000002685547,8|0,0:0|0:0,0:0:0:0:
164,284,32960,2,0,P|156:328|172:388,1,88.000002685547,2|0,0:0|0:0,0:0:0:0:
240,240,33279,1,8,0:0:0:0:
132,132,33598,6,0,L|36:140,1,88.000002685547,2|0,0:0|0:0,0:0:0:0:
164,24,33917,2,0,P|212:56|232:100,1,88.000002685547,8|0,0:0|0:0,0:0:0:0:
320,76,34236,2,0,P|344:40|382:18,1,88.000002685547,2|0,0:0|0:0,0:0:0:0:
468,60,34555,5,8,0:0:0:0:
432,148,34715,1,2,0:0:0:0:
392,239,34875,2,0,P|359:211|340:172,1,88.000002685547,2|0,0:0|0:0,0:0:0:0:
244,204,35194,2,0,L|256:112,1,88.000002685547,8|0,0:0|0:0,0:0:0:0:
268,20,35513,5,2,0:0:0:0:
352,100,35672,1,2,0:0:0:0:
176,116,35832,2,0,B|116:120|116:120|92:104,1,88.000002685547,8|0,0:0|0:0,0:0:0:0:
0,188,36151,5,2,0:0:0:0:
0,188,36311,1,2,0:0:0:0:
64,256,36470,2,0,P|72:296|60:352,1,88.000002685547,8|0,0:0|0:0,0:0:0:0:
200,116,36790,5,2,0:0:0:0:
200,116,36949,1,2,0:0:0:0:
144,224,37109,2,0,P|140:272|156:320,1,88.000002685547,8|0,0:0|0:0,0:0:0:0:
260,40,37428,5,2,0:0:0:0:
260,40,37587,1,2,0:0:0:0:
344,124,37747,2,0,P|388:132|428:116,1,88.000002685547,8|0,0:0|0:0,0:0:0:0:
248,176,38066,5,2,0:0:0:0:
248,176,38226,1,2,0:0:0:0:
308,280,38385,2,0,P|316:328|304:372,1,88.000002685547,8|0,0:0|0:0,0:0:0:0:
332,124,38704,5,2,0:0:0:0:
332,124,38864,1,2,0:0:0:0:
424,224,39024,2,0,L|516:216,1,88.000002685547,8|0,0:0|0:0,0:0:0:0:
364,28,39343,5,2,0:0:0:0:
348,76,39502,1,2,0:0:0:0:
332,124,39662,1,8,0:0:0:0:
292,252,39981,21,8,0:0:0:0:
334,260,40060,1,8,0:0:0:0:
375,245,40140,1,2,0:0:0:0:
196,196,40300,1,8,0:0:0:0:
153,187,40379,1,8,0:0:0:0:
112,202,40459,1,2,0:0:0:0:
216,280,40619,1,8,0:0:0:0:
207,323,40698,1,8,0:0:0:0:
222,364,40778,1,2,0:0:0:0:
280,168,40938,1,8,0:0:0:0:
297,128,41017,1,8,0:0:0:0:
303,84,41097,1,2,0:0:0:0:
297,41,41177,1,2,0:0:0:0:
278,1,41258,2,0,L|192:16,1,88.000002685547,2|0,0:0|0:0,0:0:0:0:
108,32,41577,5,8,0:0:0:0:
68,112,41736,1,2,0:0:0:0:
96,200,41896,2,0,P|104:248|88:296,1,88.000002685547,2|0,0:0|0:0,0:0:0:0:
156,352,42215,2,0,L|252:336,1,88.000002685547,8|0,0:0|0:0,0:0:0:0:
308,240,42534,5,2,0:0:0:0:
356,340,42694,1,2,0:0:0:0:
208,260,42853,2,0,P|208:216|232:168,1,88.000002685547,8|0,0:0|0:0,0:0:0:0:
284,100,43172,2,0,L|380:112,1,88.000002685547,2|0,0:0|0:0,0:0:0:0:
380,16,43492,2,0,L|292:5,1,88.000002685547,8|0,0:0|0:0,0:0:0:0:
244,116,43811,5,2,0:0:0:0:
244,116,43970,1,2,0:0:0:0:
136,52,44130,2,0,P|84:52|40:76,1,88.000002685547,8|0,0:0|0:0,0:0:0:0:
72,248,44449,5,2,0:0:0:0:
72,248,44609,1,2,0:0:0:0:
200,232,44768,2,0,L|292:220,1,88.000002685547,8|0,0:0|0:0,0:0:0:0:
356,88,45087,5,2,0:0:0:0:
356,88,45247,1,2,0:0:0:0:
287,220,45407,2,0,P|279:268|296:316,1,88.000002685547,8|0,0:0|0:0,0:0:0:0:
428,184,45726,5,2,0:0:0:0:
428,184,45885,1,2,0:0:0:0:
300,144,46045,2,0,L|212:164,1,88.000002685547,8|0,0:0|0:0,0:0:0:0:
128,128,46364,6,0,P|164:84|224:64,1,88.000002685547,2|0,0:0|0:0,0:0:0:0:
108,232,46683,2,0,P|72:188|-8:180,1,132.00000402832,8|0,0:0|0:0,0:0:0:0:
28,258,47002,2,0,P|66:309|52:372,1,132.00000402832,2|0,0:0|0:0,0:0:0:0:
136,300,47321,6,0,P|180:316|256:272,1,132.00000402832,8|0,0:0|0:0,0:0:0:0:
248,336,47641,2,0,P|310:321|363:356,1,132.00000402832,2|0,0:0|0:0,0:0:0:0:
448,316,47960,2,0,L|440:228,1,88.000002685547,8|0,0:0|0:0,0:0:0:0:
468,140,48279,2,0,P|412:140|376:164,1,88.000002685547,2|0,0:0|0:0,0:0:0:0:
308,92,48598,2,0,L|296:180,1,88.000002685547,8|0,0:0|0:0,0:0:0:0:
160,276,48917,5,2,0:0:0:0:
220,148,49077,1,0,0:0:0:0:
300,269,49236,1,8,0:0:0:0:
144,293,49396,5,0,0:0:0:0:
216,125,49555,1,2,0:0:0:0:
324,285,49715,1,0,0:0:0:0:
124,313,49875,5,8,0:0:0:0:
212,97,50034,1,0,0:0:0:0:
348,301,50194,1,2,0:0:0:0:
108,333,50353,1,0,0:0:0:0:
336,148,50513,5,8,0:0:0:0:
228,352,50672,1,0,0:0:0:0:
212,184,50832,1,2,0:0:0:0:
404,232,50991,1,0,0:0:0:0:
176,280,51151,1,8,0:0:0:0:
308,134,51311,1,8,0:0:0:0:
336,148,51390,1,8,0:0:0:0:
365,162,51470,1,2,0:0:0:0:
240,100,51630,5,0,0:0:0:0:
372,32,51790,2,0,B|416:24|416:24|456:40,1,88.000002685547,8|0,0:0|0:0,0:0:0:0:
240,100,52109,2,0,P|196:108|152:88,1,88.000002685547,2|0,0:0|0:0,0:0:0:0:
124,184,52428,2,0,P|87:158|64:108,1,88.000002685547,8|0,0:0|0:0,0:0:0:0:
84,24,52747,5,2,0:0:0:0:
156,92,52907,1,2,0:0:0:0:
124,184,53066,2,0,P|120:232|132:276,1,88.000002685547,8|0,0:0|0:0,0:0:0:0:
272,104,53385,2,0,L|264:208,1,88.000002685547,2|0,0:0|0:0,0:0:0:0:
142,5,53704,2,0,L|158:109,1,88.000002685547,8|0,0:0|0:0,0:0:0:0:
272,104,54024,6,0,L|360:88,1,88.000002685547,2|0,0:0|0:0,0:0:0:0:
272,232,54343,2,0,P|224:224|192:192,1,88.000002685547,8|0,0:0|0:0,0:0:0:0:
400,208,54662,2,0,L|384:312,1,88.000002685547,2|0,0:0|0:0,0:0:0:0:
272,104,54981,5,8,0:0:0:0:
376,108,55141,1,0,0:0:0:0:
400,208,55300,2,0,P|444:216|492:196,1,88.000002685547,2|0,0:0|0:0,0:0:0:0:
304,248,55619,6,0,P|260:240|212:260,1,88.000002685547,8|0,0:0|0:0,0:0:0:0:
120,320,55938,1,2,0:0:0:0:
136,164,56098,1,2,0:0:0:0:
220,254,56258,2,0,B|228:298|228:298|212:354,1,88.000002685547,8|0,0:0|0:0,0:0:0:0:
128,244,56577,5,2,0:0:0:0:
144,84,56736,1,2,0:0:0:0:
224,176,56896,2,0,P|268:180|312:160,1,88.000002685547,8|0,0:0|0:0,0:0:0:0:
144,84,57215,5,2,0:0:0:0:
212,248,57375,1,2,0:0:0:0:
252,96,57534,2,0,P|252:48|228:0,1,88.000002685547,8|0,0:0|0:0,0:0:0:0:
168,156,57853,5,2,0:0:0:0:
168,156,58013,1,2,0:0:0:0:
316,200,58172,2,0,L|408:184,1,88.000002685547,8|0,0:0|0:0,0:0:0:0:
148,124,58492,5,2,0:0:0:0:
148,124,58651,1,2,0:0:0:0:
176,264,58811,2,0,P|192:308|228:340,1,88.000002685547,8|0,0:0|0:0,0:0:0:0:
248,88,59130,5,2,0:0:0:0:
248,88,59290,1,2,0:0:0:0:
116,184,59449,2,0,P|72:192|28:176,1,88.000002685547,8|0,0:0|0:0,0:0:0:0:
160,24,59768,5,2,0:0:0:0:
204,180,59928,1,2,0:0:0:0:
100,92,60087,1,8,0:0:0:0:
288,24,60247,1,2,0:0:0:0:
228,145,60407,5,8,0:0:0:0:
204,180,60513,5,2,0:0:0:0:
170,205,60619,5,2,0:0:0:0:
128,216,60726,5,8,0:0:0:0:
86,212,60832,5,2,0:0:0:0:
48,192,60938,5,2,0:0:0:0:
19,161,61045,5,8,0:0:0:0:
42,214,61151,5,2,0:0:0:0:
44,272,61257,5,2,0:0:0:0:
23,327,61364,6,2,P|4:348|-32:364,2,42.6666666666667
100,332,61683,6,0,P|152:308|248:344,1,160,2|0,0:0|0:0,0:0:0:0:
376,265,62162,2,0,B|308:280|308:280|232:232,1,160,2|0,0:0|0:0,0:0:0:0:
424,192,62641,2,0,P|456:228|464:276,1,80,2|0,0:0|0:0,0:0:0:0:
340,180,62960,5,0,0:0:0:0:
396,112,63119,1,2,0:0:0:0:
424,192,63279,1,0,0:0:0:0:
396,112,63438,5,0,0:0:0:0:
468,76,63598,1,10,0:0:0:0:
404,28,63758,1,0,0:0:0:0:
332,56,63917,1,0,0:0:0:0:
276,0,64077,1,0,0:0:0:0:
228,64,64236,6,0,B|220:120|220:120|248:168|248:168|236:228,1,160,2|0,0:0|0:0,0:0:0:0:
164,272,64715,2,0,P|204:304|312:272,1,160,2|0,0:0|0:0,0:0:0:0:
92,208,65194,2,0,P|76:244|76:304,1,80,2|0,0:0|0:0,0:0:0:0:
176,184,65513,5,0,0:0:0:0:
116,124,65672,1,0,0:0:0:0:
92,208,65832,1,8,0:0:0:0:
192,104,65992,5,0,0:0:0:0:
136,44,66151,1,0,0:0:0:0:
116,124,66311,1,0,0:0:0:0:
212,24,66470,1,8,0:0:0:0:
268,80,66630,1,0,0:0:0:0:
336,40,66790,2,0,B|380:32|400:48|400:48|424:32|424:32|448:44|448:44|472:36|484:20,1,160,2|0,0:0|0:0,0:0:0:0:
500,156,67268,6,0,P|452:136|356:200,1,160,2|0,0:0|0:0,0:0:0:0:
460,308,67747,2,0,L|444:228,1,80,2|0,0:0|0:0,0:0:0:0:
344,268,68066,5,0,0:0:0:0:
362,183,68226,1,8,0:0:0:0:
284,204,68385,1,0,0:0:0:0:
336,260,68545,1,8,0:0:0:0:
354,175,68704,1,8,0:0:0:0:
276,196,68864,1,0,0:0:0:0:
328,252,69023,1,8,0:0:0:0:
346,167,69183,1,8,0:0:0:0:
268,188,69343,6,0,B|208:200|208:200|192:192|192:192|184:148|184:148|208:120,1,160,2|0,0:0|0:0,0:0:0:0:
152,40,69821,2,0,P|216:24|304:100,1,160,2|0,0:0|0:0,0:0:0:0:
112,112,70300,2,0,L|32:96,1,80,2|8,0:0|0:0,0:0:0:0:
12,196,70619,5,0,0:0:0:0:
87,185,70780,1,0,0:0:0:0:
154,222,70938,1,8,0:0:0:0:
185,291,71098,1,0,0:0:0:0:
232,232,71258,1,0,0:0:0:0:
297,192,71418,1,0,0:0:0:0:
373,202,71576,1,8,0:0:0:0:
426,255,71737,1,0,0:0:0:0:
396,120,71896,6,0,P|444:100|488:104,1,80,2|0,0:0|0:0,0:0:0:0:
348,36,72215,1,8,0:0:0:0:
325,31,72294,1,8,0:0:0:0:
302,33,72375,2,0,L|288:112,1,80,2|0,0:0|0:0,0:0:0:0:
212,212,72694,5,8,0:0:0:0:
235,207,72773,1,8,0:0:0:0:
258,209,72853,2,0,P|306:213|342:197,1,80,2|0,0:0|0:0,0:0:0:0:
180,128,73172,5,0,0:0:0:0:
240,284,73332,1,0,0:0:0:0:
376,200,73492,1,8,0:0:0:0:
385,161,73571,1,8,0:0:0:0:
383,121,73651,1,8,0:0:0:0:
370,83,73731,1,8,0:0:0:0:
348,50,73811,1,2,0:0:0:0:
356,292,73970,1,0,0:0:0:0:
217,181,74130,5,8,0:0:0:0:
256,186,74209,1,8,0:0:0:0:
296,190,74289,1,8,0:0:0:0:
336,195,74369,1,8,0:0:0:0:
376,200,74449,1,2,0:0:0:0:
204,56,74609,1,0,0:0:0:0:
134,129,74768,5,8,0:0:0:0:
130,153,74847,1,8,0:0:0:0:
129,175,74927,2,0,P|135:222|159:254,1,80,2|0,0:0|0:0,0:0:0:0:
200,324,75247,5,8,0:0:0:0:
223,319,75326,1,8,0:0:0:0:
248,316,75407,2,0,L|330:299,1,80,2|0,0:0|0:0,0:0:0:0:
372,216,75726,2,0,P|404:244|420:292,1,80,2|0,0:0|0:0,0:0:0:0:
380,120,76045,6,0,P|416:103|441:73,1,80,8|0,0:0|0:0,0:0:0:0:
320,36,76364,1,2,0:0:0:0:
292,56,76444,1,8,0:0:0:0:
228,164,76603,1,2,0:0:0:0:
260,180,76683,1,8,0:0:0:0:
184,64,76843,1,10,0:0:0:0:
166,74,76922,1,8,0:0:0:0:
152,82,77002,6,0,L|64:66,1,80,2|0,0:0|0:0,0:0:0:0:
24,192,77321,1,8,0:0:0:0:
48,189,77400,1,8,0:0:0:0:
70,180,77481,2,0,P|112:172|148:184,1,80,2|0,0:0|0:0,0:0:0:0:
232,128,77800,5,0,0:0:0:0:
268,224,77960,2,0,P|272:268|260:308,1,80,8|0,0:0|0:0,0:0:0:0:
332,124,78279,1,0,0:0:0:0:
388,232,78438,1,0,0:0:0:0:
448,120,78598,2,0,P|448:76|424:28,1,80,8|0,0:0|0:0,0:0:0:0:
336,12,78917,5,0,0:0:0:0:
392,160,79077,1,0,0:0:0:0:
434,42,79236,1,8,0:0:0:0:
272,64,79396,1,0,0:0:0:0:
388,232,79555,2,0,P|400:280|376:352,1,120
336,348,79875,5,8,0:0:0:0:
264,312,80034,2,0,L|176:324,1,80
108,296,80353,5,0,0:0:0:0:
248,228,80513,2,0,L|160:240,1,80,8|0,0:0|0:0,0:0:0:0:
272,140,80832,5,0,0:0:0:0:
332,208,80992,2,0,P|376:212|420:192,1,80,0|8,0:0|0:0,0:0:0:0:
308,40,81311,1,0,0:0:0:0:
360,132,81470,1,8,0:0:0:0:
244,200,81630,5,2,0:0:0:0:
252,235,81709,1,2,0:0:0:0:
271,265,81790,1,2,0:0:0:0:
275,216,81869,1,2,0:0:0:0:
263,168,81949,1,2,0:0:0:0:
237,126,82029,1,2,0:0:0:0:
199,94,82109,2,0,P|160:104|116:104,1,80,8|8,0:0|0:0,0:0:0:0:
72,16,82428,5,0,0:0:0:0:
72,16,82587,1,0,0:0:0:0:
72,16,82747,1,0,0:0:0:0:
72,16,82907,6,0,L|152:24,1,80
112,156,83226,2,0,L|192:164,1,80
296,72,83545,2,0,P|248:72|196:100,1,80
372,160,83864,5,0,0:0:0:0:
392,60,84024,1,0,0:0:0:0:
292,168,84183,1,0,0:0:0:0:
452,124,84343,1,0,0:0:0:0:
332,0,84502,1,0,0:0:0:0:
360,216,84662,2,0,P|372:260|412:300,1,80,8|8,0:0|0:0,0:0:0:0:
228,184,84981,5,0,0:0:0:0:
228,184,85141,1,0,0:0:0:0:
228,184,85300,1,0,0:0:0:0:
228,184,85460,6,0,P|176:200|124:184,1,80
216,36,85779,2,0,P|255:73|267:126,1,80
96,120,86098,2,0,P|104:81|128:49,1,80
72,228,86417,1,0,0:0:0:0:
24,92,86577,1,0,0:0:0:0:
176,160,86736,1,0,0:0:0:0:
176,160,86896,5,0,0:0:0:0:
144,292,87055,1,0,0:0:0:0:
144,292,87215,2,0,B|239:293|250:209|250:209|299:241|377:247|454:209|438:81|404:15|339:37|271:18|250:110|283:142|318:139,1,608,4|0,0:0|0:0,0:0:0:0:
