osu file format v14

[General]
AudioFilename: audio.mp3
AudioLeadIn: 0
PreviewTime: 73896
Countdown: 0
SampleSet: Soft
StackLeniency: 0.5
Mode: 0
LetterboxInBreaks: 0
WidescreenStoryboard: 1

[Editor]
Bookmarks: 50271,109146
DistanceSpacing: 1.2
BeatDivisor: 4
GridSize: 8
TimelineZoom: 3.099999

[Metadata]
Title:Usouso Doki
TitleUnicode:うそうそ時
Artist:Inoue Bona
ArtistUnicode:井上ぼな
Creator:KnightC0re
Version:hakashii's Hard
Source:太鼓の達人
Tags:hakashii Taiko no Tatsujin Namco Original ナムコオリジナル モモイロVer. Momoiro Version かたぬき Katanuki rhythm video game pop japanese
BeatmapID:4055815
BeatmapSetID:1546475

[Difficulty]
HPDrainRate:4
CircleSize:3.8
OverallDifficulty:7
ApproachRate:8
SliderMultiplier:1.4
SliderTickRate:1

[Events]
//Background and Video events
0,0,"50726712_p0e.png",0,0
//Break Periods
//Storyboard Layer 0 (Background)
//Storyboard Layer 1 (Fail)
//Storyboard Layer 2 (Pass)
//Storyboard Layer 3 (Foreground)
//Storyboard Layer 4 (Overlay)
//Storyboard Sound Samples

[TimingPoints]
396,375,4,2,1,20,1,0
5646,-100,4,2,1,40,0,0
6021,-100,4,2,1,65,0,0
6396,-83.3333333333333,4,2,1,65,0,0
11458,-83.3333333333333,4,2,2,65,0,0
11646,-111.111111111111,4,2,3,65,0,0
12021,-166.666666666667,4,2,1,50,0,0
13333,-166.666666666667,4,2,1,65,0,0
13708,-166.666666666667,4,2,2,50,0,0
13896,-111.111111111111,4,2,1,40,0,0
15583,-111.111111111111,4,2,1,60,0,0
15958,-111.111111111111,4,2,1,40,0,0
18583,-111.111111111111,4,2,1,60,0,0
18958,-111.111111111111,4,2,1,40,0,0
20271,-111.111111111111,4,2,1,30,0,0
20458,-111.111111111111,4,2,1,40,0,0
20552,-111.111111111111,4,2,1,45,0,0
20646,-111.111111111111,4,2,1,40,0,0
24676,-111.111111111111,4,2,2,40,0,0
24958,-111.111111111111,4,2,1,40,0,0
25333,-111.111111111111,4,2,1,50,0,0
25708,-111.111111111111,4,2,1,40,0,0
26646,-111.111111111111,4,2,1,60,0,0
27021,-111.111111111111,4,2,1,40,0,0
29646,-111.111111111111,4,2,1,60,0,0
30021,-111.111111111111,4,2,1,40,0,0
37646,-111.111111111111,4,2,2,40,0,0
37896,-111.111111111111,4,2,1,40,0,0
39208,-111.111111111111,4,2,1,20,0,0
39583,-111.111111111111,4,2,1,30,0,0
39676,-111.111111111111,4,2,1,40,0,0
39958,-111.111111111111,4,2,1,50,0,0
40052,-111.111111111111,4,2,1,60,0,0
40146,-111.111111111111,4,2,1,40,0,0
42208,-111.111111111111,4,2,1,65,0,0
42583,-111.111111111111,4,2,1,60,0,0
42958,-111.111111111111,4,2,1,40,0,0
44896,-111.111111111111,4,2,2,40,0,0
45271,-111.111111111111,4,2,1,55,0,0
45396,-111.111111111111,4,2,1,70,0,0
45646,-111.111111111111,4,2,1,60,0,0
45896,-111.111111111111,4,2,1,50,0,0
46146,-111.111111111111,4,2,1,40,0,0
48396,-111.111111111111,4,2,1,60,0,0
48646,-111.111111111111,4,2,1,50,0,0
48896,-111.111111111111,4,2,1,40,0,0
49146,-111.111111111111,4,2,2,65,0,0
49396,-111.111111111111,4,2,3,65,0,0
49646,-111.111111111111,4,2,1,65,0,0
49896,-83.3333333333333,4,2,1,55,0,0
50833,-83.3333333333333,4,2,1,75,0,0
51208,-83.3333333333333,4,2,1,55,0,0
51396,-111.111111111111,4,2,1,55,0,0
52896,-83.3333333333333,4,2,1,55,0,0
53833,-83.3333333333333,4,2,1,75,0,0
54208,-83.3333333333333,4,2,1,55,0,0
54396,-111.111111111111,4,2,1,55,0,0
55708,-111.111111111111,4,2,2,55,0,0
55802,-111.111111111111,4,2,3,55,0,0
55896,-111.111111111111,4,2,1,55,0,0
56646,-83.3333333333333,4,2,1,55,0,0
56896,-83.3333333333333,4,2,2,40,0,0
57146,-83.3333333333333,4,2,1,40,0,0
57396,-83.3333333333333,4,2,1,65,0,0
57646,-83.3333333333333,4,2,1,55,0,0
57896,-83.3333333333333,4,2,1,45,0,0
58146,-111.111111111111,4,2,1,55,0,0
59271,-111.111111111111,4,2,1,65,0,0
60396,-111.111111111111,4,2,2,65,0,0
60771,-111.111111111111,4,2,3,65,0,0
61146,-111.111111111111,4,2,1,65,0,0
61521,-111.111111111111,4,2,2,65,0,0
61708,-111.111111111111,4,2,3,65,0,0
61896,-111.111111111111,4,2,1,50,0,0
62458,-83.3333333333333,4,2,1,50,0,0
64146,-100,4,2,1,50,0,0
67333,-100,4,2,2,50,0,0
67521,-100,4,2,1,50,0,0
67614,-100,4,2,3,50,0,0
67896,-100,4,2,1,70,0,0
68458,-100,4,2,1,50,0,0
70896,-100,4,2,1,65,0,0
72208,-100,4,2,1,50,0,0
72958,-100,4,2,2,50,0,0
73146,-100,4,2,1,50,0,0
73333,-100,4,2,1,70,0,0
73708,-100,4,2,1,60,0,0
73896,-83.3333333333333,4,2,1,75,0,1
79896,-83.3333333333333,4,2,2,75,0,1
79989,-83.3333333333333,4,2,1,75,0,1
80083,-83.3333333333333,4,2,3,75,0,1
80271,-83.3333333333333,4,2,1,75,0,1
84771,-100,4,2,1,75,0,1
85146,-83.3333333333333,4,2,1,75,0,1
85521,-83.3333333333333,4,2,2,75,0,0
85708,-83.3333333333333,4,2,3,75,0,0
85896,-83.3333333333333,4,2,1,75,0,1
86177,-83.3333333333333,4,2,2,75,0,1
86271,-83.3333333333333,4,2,1,75,0,1
86364,-83.3333333333333,4,2,2,75,0,1
86646,-83.3333333333333,4,2,1,75,0,1
91146,-83.3333333333333,4,2,2,75,0,1
91333,-83.3333333333333,4,2,1,75,0,1
91708,-83.3333333333333,4,2,2,75,0,1
91896,-83.3333333333333,4,2,1,75,0,1
96396,-83.3333333333333,4,2,1,75,0,0
97896,-111.111111111111,4,2,1,75,0,1
103896,-90.9090909090909,4,2,1,90,0,1
104646,-90.9090909090909,4,2,2,75,0,1
104833,-90.9090909090909,4,2,3,75,0,1
105021,-90.9090909090909,4,2,1,75,0,1
105396,-111.111111111111,4,2,1,75,0,1
108396,-100,4,2,1,75,0,0
108864,-100,4,2,1,40,0,0
109146,-100,4,2,1,75,0,0
109239,-100,4,2,1,40,0,0
109521,-100,4,2,1,75,0,0
109614,-100,4,2,1,40,0,0
109708,-100,4,2,1,50,0,0
109802,-100,4,2,1,60,0,0
109896,-100,4,2,1,75,0,1
115146,-100,4,2,2,75,0,1
115333,-100,4,2,1,75,0,1
115708,-100,4,2,2,75,0,1
115896,-100,4,2,1,75,0,1
120396,392.156862745098,4,2,1,45,1,0
122160,392.156862745098,4,2,1,45,1,0
124512,375,4,2,1,20,1,0
125262,375,4,2,1,15,1,0

[Colours]
Combo1 : 236,236,0
Combo2 : 249,124,0

[HitObjects]
37,208,5646,6,0,P|74:164|106:178,1,70,8|8,3:0|2:3,2:0:0:0:
152,122,6021,2,0,P|179:133|199:140,3,35,12|8|8|8,2:3|2:3|2:3|2:3,2:0:0:0:
218,172,6396,6,0,P|284:152|311:146,1,84,4|0,3:0|2:0,2:0:0:0:
346,132,6677,1,0,3:0:0:0:
346,132,6771,1,14,2:3:0:0:
438,92,6958,2,0,B|422:149|422:149|374:180|374:180|357:253,1,168,0|10,3:0|2:3,2:0:0:0:
332,325,7521,6,0,L|362:376,2,42,0|10|0,3:0|2:3|2:0,2:0:0:0:
261,252,7896,1,10,2:3:0:0:
187,321,8083,6,0,P|124:310|116:273,1,84,0|10,3:0|2:3,2:0:0:0:
108,197,8458,1,0,3:0:0:0:
18,220,8646,6,0,B|-5:181|-5:181|16:115,2,84,2|10|2,3:1|2:3|3:1,2:0:0:0:
81,284,9208,1,10,2:3:0:0:
108,197,9396,6,0,P|162:210|215:225,1,84,0|0,3:0|2:0,2:0:0:0:
241,234,9677,1,0,3:0:0:0:
241,234,9771,1,10,2:3:0:0:
303,155,9958,2,0,B|399:115|362:197|483:186,1,168,0|10,3:0|2:3,2:0:0:0:
499,279,10521,6,0,L|516:330,2,42,2|10|2,2:1|2:3|2:1,2:0:0:0:
425,209,10896,1,2,2:1:0:0:
399,306,11083,6,0,P|358:300|348:247,1,84,0|4,3:0|2:3,2:0:0:0:
261,219,11458,1,8,0:3:0:0:
262,210,11552,1,8,2:3:0:0:
263,201,11646,2,0,P|271:177|302:142,1,63.0000000000001,8|8,2:3|2:3,2:0:0:0:
231,80,12021,6,0,B|162:49|64:94|67:161|201:220|120:76|230:91,1,293.999999999999,8|4,2:1|2:3,2:0:0:0:
299,127,13521,2,0,L|290:159,2,21,8|8|8,2:3|2:3|2:3,2:0:0:0:
359,67,13896,6,0,P|418:64|452:141,1,126,4|0,3:0|3:0,2:0:0:0:
463,277,14646,5,8,2:3:0:0:
458,272,15021,1,0,1:0:0:0:
308,206,15396,6,0,B|301:204|301:204|238:230,2,63.0000000000001,0|2|0,1:0|2:0|2:0,2:0:0:0:
330,284,15958,1,0,3:0:0:0:
325,294,16146,2,0,B|318:302|318:302|247:218|152:240,1,188.999994232178,8|0,2:3|1:0,2:0:0:0:
100,293,16896,6,0,P|104:360|182:312,1,189,0|0,1:0|2:0,2:0:0:0:
161,238,17646,6,0,B|166:205|166:205|142:179,1,63.0000000000001,8|0,2:3|2:0,2:0:0:0:
85,127,18021,2,0,B|80:94|80:94|104:68,1,63.0000000000001,0|0,1:0|1:0,2:0:0:0:
172,32,18396,5,0,2:0:0:0:
167,24,18583,1,2,2:0:0:0:
281,140,18958,5,8,3:1:0:0:
341,84,19146,2,0,B|352:99|352:99|409:67|466:107,1,126,8|0,2:3|2:0,2:0:0:0:
500,256,19896,6,0,P|467:313|421:278,1,126,0|8,3:0|3:1,2:0:0:0:
377,224,20458,5,8,3:1:0:0:
372,225,20552,1,8,2:1:0:0:
367,227,20646,1,8,2:3:0:0:
289,304,20896,5,0,3:0:0:0:
206,232,21146,5,0,3:0:0:0:
120,300,21396,2,0,P|39:318|39:220,1,189,4|0,2:3|3:0,2:0:0:0:
63,160,22146,1,8,2:3:0:0:
206,232,22521,1,8,2:1:0:0:
341,139,22896,6,0,B|255:146|311:185|237:198,1,126,0|0,3:0|3:0,2:0:0:0:
100,108,23646,2,0,B|82:68|82:68|110:31,2,83.9999974365235,8|0|8,2:3|3:0|3:1,2:0:0:0:
156,201,24396,1,0,1:0:0:0:
224,156,24583,2,8,L|205:119,4,31.5,0|8|8|8|0,3:0|2:3|2:3|2:3|3:0,2:3:0:0:
304,173,25146,6,0,B|324:146|324:146|306:104,1,62.9999980773926,8|8,3:1|2:3,2:0:0:0:
271,47,25521,2,0,L|333:34,1,63.0000000000001,12|0,2:3|3:0,2:0:0:0:
410,7,25896,6,0,P|469:15|463:91,1,126,4|8,3:0|3:1,2:0:0:0:
358,183,26646,5,10,2:3:0:0:
364,176,27021,1,0,1:0:0:0:
492,74,27396,6,0,P|461:69|470:88,2,63.0000000000001,0|8|0,3:0|3:1|2:0,2:0:0:0:
510,153,27958,5,0,2:0:0:0:
504,161,28146,2,0,P|455:121|315:87,1,188.999994232178,8|0,2:3|2:0,2:0:0:0:
277,144,28896,6,0,B|275:178|275:178|311:204,1,63.0000000000001,8|0,3:1|2:0,2:0:0:0:
354,255,29271,2,0,B|356:289|356:289|320:315,1,63.0000000000001,8|0,3:1|2:0,2:0:0:0:
254,332,29646,6,0,B|198:348|198:348|187:357|187:357|136:373|136:373,2,126,10|0|0,2:3|1:0|2:0,2:0:0:0:
332,305,30583,1,2,3:2:0:0:
355,142,30958,5,0,1:0:0:0:
402,75,31146,2,0,B|404:34|496:84|460:139,1,125.999996154785,8|0,2:3|2:0,2:0:0:0:
487,296,31896,6,0,P|436:284|411:279,1,63.0000000000001,8|0,3:1|2:0,2:0:0:0:
343,274,32271,1,0,1:0:0:0:
333,282,32646,6,0,P|310:324|279:326,2,84.0000000000001,12|8|0,2:3|0:1|0:0,2:0:0:0:
353,174,33396,5,0,1:0:0:0:
291,83,33646,5,0,1:0:0:0:
183,104,33896,5,0,1:0:0:0:
143,205,34146,6,0,P|90:235|43:198,1,126,8|8,2:3|2:3,2:0:0:0:
5,40,34896,2,0,B|121:9|65:105|197:68,1,188.999994232178,0|0,2:0|2:0,2:0:0:0:
258,46,35646,6,0,B|233:11|233:11|190:40,2,84.0000000000001,8|0|8,2:3|3:0|2:3,2:0:0:0:
239,154,36396,2,0,P|257:193|293:332,1,168,2|2,2:0|2:1,2:0:0:0:
392,353,37146,5,2,2:0:0:0:
440,255,37396,5,2,3:2:0:0:
356,184,37646,5,8,2:3:0:0:
379,77,37896,6,0,P|277:103|252:110,2,126,4|0|8,2:3|3:0|2:0,2:0:0:0:
496,191,39021,1,0,2:0:0:0:
449,123,39208,6,0,L|462:71,2,31.5,2|10|0,3:2|2:0|2:0,2:0:0:0:
376,162,39583,2,0,L|389:214,2,31.5,10|10|0,3:2|2:0|2:0,2:0:0:0:
306,108,39958,5,2,3:2:0:0:
307,115,40052,1,2,2:0:0:0:
307,125,40146,2,0,B|299:135|299:135|202:107|130:179,1,188.999994232178,8|0,2:0|3:0,2:0:0:0:
53,177,40896,6,0,P|84:233|89:234,1,63.0000000000001,0|0,3:0|2:0,2:0:0:0:
103,307,41271,2,0,P|148:277|153:244,1,63.0000000000001,0|0,3:0|2:0,2:0:0:0:
205,209,41646,2,0,B|292:190|247:248|347:235,1,126,8|0,2:0|2:0,2:0:0:0:
403,249,42208,6,0,B|410:254|410:254|406:261|406:261|401:257|401:257|403:249,1,31.5,2|0,1:2|2:0,2:0:0:0:
425,127,42583,2,0,B|432:121|432:121|428:114|428:114|423:118|423:118|425:126,1,31.5,2|0,1:2|2:0,2:0:0:0:
510,213,42958,1,2,2:1:0:0:
477,288,43146,6,0,L|490:325,2,31.5,0|8|8,3:0|2:0|3:1,2:0:0:0:
407,331,43521,2,0,L|421:372,2,31.5,0|0|0,2:0|2:0|3:0,2:0:0:0:
403,249,43896,6,0,P|326:219|272:309,1,189,8|0,3:1|3:0,2:0:0:0:
224,362,44646,5,12,2:3:0:0:
116,379,44896,5,8,2:3:0:0:
64,279,45146,5,8,2:3:0:0:
60,281,45271,1,2,2:0:0:0:
55,284,45396,1,6,2:3:0:0:
132,367,45646,5,2,2:0:0:0:
164,258,45896,5,0,2:0:0:0:
55,284,46146,6,0,P|7:255|28:194,1,126,0|0,3:0|3:0,2:0:0:0:
33,71,46896,6,0,P|123:99|144:105,1,94.5000000000001,0|8,3:0|2:3,2:0:0:0:
153,125,47271,2,0,P|213:113|239:107,1,63.0000000000001,8|0,2:3|3:0,2:0:0:0:
282,71,47646,1,8,2:3:0:0:
356,150,47896,2,0,P|406:165|419:115,1,84.0000000000001,0|2,2:0|2:0,2:0:0:0:
386,41,48396,5,2,2:0:0:0:
282,71,48646,5,10,2:3:0:0:
181,28,48896,5,0,2:0:0:0:
88,86,49146,6,0,B|64:50|64:50|81:6,2,84.0000000000001,8|8|8,2:3|2:3|2:3,2:0:0:0:
8,247,49896,6,0,B|7:258|7:258|21:272|21:272|26:286|28:310,1,42,4|0,3:0|2:0,2:0:0:0:
199,167,50458,2,0,B|198:156|198:156|212:142|212:142|217:128|219:104,1,42,8|0,2:1|2:0,2:0:0:0:
284,236,50833,2,0,B|283:247|283:247|297:261|297:261|302:275|304:299,1,42,2|0,2:0|2:0,2:0:0:0:
375,170,51208,5,8,2:3:0:0:
429,233,51396,2,0,P|475:213|485:119,1,126,8|10,3:1|2:3,2:0:0:0:
478,67,51958,5,8,3:1:0:0:
375,170,52333,2,0,B|286:161|341:130|241:123,1,126,8|8,2:3|2:3,2:0:0:0:
182,93,52896,6,0,B|171:81|171:81|166:91|166:91|181:92|181:92|171:82,1,42,2|0,3:2|2:0,2:0:0:0:
17,224,53458,2,0,B|2:217|2:217|2:228|2:228|16:224|16:224|16:224,1,42,2|0,3:2|2:0,2:0:0:0:
129,280,53833,2,0,B|144:273|144:273|144:284|144:284|130:280|130:280|130:280,1,42,10|0,2:3|2:0,2:0:0:0:
56,383,54208,5,8,2:3:0:0:
7,319,54396,2,0,P|28:247|43:194,1,126,0|10,3:0|2:3,2:0:0:0:
68,124,54958,1,0,3:0:0:0:
195,204,55333,6,0,P|251:190|271:123,1,126,10|8,2:3|2:3,2:0:0:0:
270,124,55802,1,8,2:3:0:0:
269,117,55896,1,4,3:0:0:0:
370,3,56271,2,0,P|425:21|431:76,1,94.5000000000001,0|0,3:0|2:0,2:0:0:0:
464,98,56646,6,0,B|461:111|461:111|450:104|450:104|464:96|464:96|461:110,1,56,8|0,2:3|2:0,2:0:0:0:
413,164,56896,2,0,B|429:155|429:155|428:173|428:173|411:162|411:162|411:162,1,56,8|0,2:3|2:0,2:0:0:0:
466,211,57146,2,0,B|463:228|463:228|448:219|448:219|466:209|466:209|466:209,1,56,8|0,2:3|2:0,2:0:0:0:
425,271,57396,6,0,B|464:314|464:314|517:287,2,112,10|2|2,2:3|3:2|3:2,2:0:0:0:
320,240,58146,2,0,P|309:316|251:336,1,126,12|8,2:3|2:3,2:0:0:0:
110,370,58896,5,0,3:0:0:0:
44,326,59083,1,0,3:0:0:0:
64,250,59271,2,0,P|115:243|129:255,1,63.0000000000001,10|0,2:3|2:0,2:0:0:0:
199,272,59646,6,0,B|207:267|207:267|227:206,1,63.0000000000001,0|0,3:0|3:0,2:0:0:0:
253,141,60021,1,10,2:3:0:0:
101,163,60396,6,0,P|67:156|64:118,1,63.0000000000001,8|0,0:3|2:0,2:0:0:0:
31,100,60677,1,8,2:3:0:0:
31,100,60771,2,0,P|42:64|92:53,1,63.0000000000001,8|0,2:3|0:0,2:0:0:0:
126,3,61146,5,0,3:0:0:0:
175,64,61333,1,8,2:3:0:0:
246,19,61521,1,8,2:3:0:0:
311,80,61708,5,8,2:3:0:0:
311,80,61802,1,8,2:3:0:0:
311,80,61896,2,0,P|366:77|391:144,1,126,4|8,2:3|2:3,2:0:0:0:
467,201,62458,2,0,B|423:208|423:208|403:223|358:261|358:261|280:278,2,168,2|2|2,2:1|2:1|2:1,2:0:0:0:
502,365,63583,5,2,2:1:0:0:
442,305,63771,1,2,2:1:0:0:
312,359,64146,6,0,P|265:349|227:339,2,70,0|2|8,3:0|2:1|2:3,2:0:0:0:
353,287,64708,1,0,3:0:0:0:
344,279,64896,2,0,P|239:256|188:247,1,140,2|8,2:1|2:3,2:0:0:0:
146,303,65458,5,2,2:1:0:0:
64,174,65833,1,2,2:1:0:0:
146,303,66208,6,0,P|227:282|293:272,1,140,2|2,2:1|3:1,2:0:0:0:
349,236,66771,2,0,P|376:268|368:302,1,70,2|2,2:1|2:1,2:0:0:0:
429,347,67146,2,0,P|467:322|472:285,1,70,8|8,2:3|2:3,2:0:0:0:
501,219,67521,1,8,2:3:0:0:
501,219,67614,1,8,2:3:0:0:
501,219,67708,1,8,2:3:0:0:
423,169,67896,6,0,B|414:159|414:159|434:93,1,70,8|8,2:3|2:3,2:0:0:0:
304,18,68458,2,0,B|315:30|315:30|224:50,1,105,8|0,2:1|2:0,2:0:0:0:
206,37,68833,2,0,B|188:23|188:23|99:43,1,105,8|0,2:1|2:0,2:0:0:0:
86,68,69208,6,0,B|77:100|79:158|119:111|122:168|104:207,1,140,4|2,2:3|2:0,2:0:0:0:
52,257,69771,2,0,L|-2:243,2,35,8|2|0,2:3|2:0|2:0,2:0:0:0:
115,303,70146,1,0,3:0:0:0:
177,250,70333,1,0,3:0:0:0:
243,303,70521,2,0,P|290:304|303:268,1,70,10|0,2:3|3:0,2:0:0:0:
316,257,70802,1,8,2:3:0:0:
316,257,70896,6,0,P|302:179|290:103,1,140,0|8,3:0|2:3,2:0:0:0:
297,40,71458,2,0,L|338:53,1,35,12|0,2:3|2:0,2:0:0:0:
370,70,71646,5,0,3:0:0:0:
437,29,71833,2,0,B|471:15|471:15|494:58,1,70,12|0,2:3|3:0,2:0:0:0:
512,118,72208,6,0,P|476:135|462:237,1,140,12|2,2:3|2:0,2:0:0:0:
413,298,72771,2,0,P|435:327|482:337,1,70,8|8,2:3|2:3,2:0:0:0:
494,327,73052,1,8,0:3:0:0:
494,327,73146,1,0,3:0:0:0:
455,225,73333,6,0,P|399:215|331:278,1,140,12|8,2:3|2:3,2:0:0:0:
286,350,73896,6,0,P|228:364|189:312,1,126,4|2,3:0|3:2,2:0:0:0:
172,279,74271,1,8,2:3:0:0:
235,200,74458,1,2,2:0:0:0:
156,136,74646,5,0,3:0:0:0:
169,108,75021,2,0,B|229:81|229:81|302:148,1,126,8|0,2:3|2:0,2:0:0:0:
303,154,75396,6,0,P|352:156|364:75,1,126,0|2,3:0|3:2,2:0:0:0:
361,55,75771,1,8,2:3:0:0:
455,74,75958,1,2,2:0:0:0:
512,0,76146,5,0,3:0:0:0:
491,2,76521,2,0,P|509:105|515:142,1,126,8|0,2:3|2:0,2:0:0:0:
504,175,76896,6,0,B|418:168|473:217|366:206,1,126,0|2,3:0|3:2,2:0:0:0:
338,220,77271,1,10,2:3:0:0:
277,139,77458,1,2,2:0:0:0:
197,201,77646,6,0,B|196:177|95:163|91:250,1,126,2|0,3:2|2:0,2:0:0:0:
82,264,78021,2,0,P|125:286|178:260,1,83.9999974365235,8|0,2:3|2:0,2:0:0:0:
197,201,78396,6,0,P|180:118|173:86,2,84,0|0|8,3:0|2:0|2:3,2:0:0:0:
237,231,78864,1,0,2:0:0:0:
237,231,78958,1,2,2:0:0:0:
326,183,79146,2,0,P|319:154|312:107,2,42,0|8|2,3:0|2:3|2:0,2:0:0:0:
402,248,79521,2,0,P|438:255|470:209,1,84,8|2,3:1|2:0,2:0:0:0:
495,126,79896,5,8,2:3:0:0:
495,126,79989,1,10,2:3:0:0:
495,126,80083,1,8,2:3:0:0:
423,54,80271,1,14,2:3:0:0:
328,103,80458,1,0,2:0:0:0:
265,23,80646,5,0,3:0:0:0:
280,32,81021,2,0,B|288:47|288:47|251:182,1,126,8|0,2:3|2:0,2:0:0:0:
242,199,81396,5,0,3:0:0:0:
154,149,81583,1,0,2:0:0:0:
110,242,81771,1,8,2:3:0:0:
110,242,81864,1,0,3:0:0:0:
110,242,81958,1,2,2:3:0:0:
187,297,82146,2,0,P|257:280|294:273,2,84,0|0|8,3:0|2:0|2:3,2:0:0:0:
112,365,82708,5,2,2:0:0:0:
23,316,82896,2,0,B|-9:240|48:270|18:173,1,125.999996154785,0|2,3:0|3:2,2:0:0:0:
13,154,83271,1,8,2:3:0:0:
13,154,83364,1,0,2:0:0:0:
13,154,83458,1,2,2:0:0:0:
91,90,83646,6,0,B|133:76|133:76|180:133,1,84,0|0,3:0|2:0,2:0:0:0:
218,187,84021,2,0,B|251:216|251:216|318:179,1,84,8|0,2:3|2:0,2:0:0:0:
376,150,84396,6,0,P|360:83|281:35,1,126,2|0,2:0|2:0,2:0:0:0:
319,56,84771,6,0,P|356:91|366:142,1,105,10|0,2:3|2:0,2:0:0:0:
376,150,85146,6,0,P|346:205|320:219,1,83.9999974365235,2|8,2:0|2:3,2:0:0:0:
276,130,85521,5,8,2:3:0:0:
276,130,85614,1,8,2:3:0:0:
276,130,85708,1,8,2:3:0:0:
336,48,85896,6,0,B|356:40|356:40|407:58|458:63,1,126,4|8,2:3|2:3,2:0:0:0:
505,80,86271,2,0,L|516:139,2,42,6|8|8,2:3|0:3|2:3,2:0:0:0:
452,173,86646,2,0,L|441:232,2,42,6|0|0,2:3|3:0|3:0,2:0:0:0:
504,275,87021,2,0,B|450:290|450:290|432:311|432:311|360:339,1,126,6|10,2:3|2:3,2:0:0:0:
346,346,87396,6,0,L|271:334,2,42,0|0|0,3:0|3:0|3:0,2:0:0:0:
323,247,87771,1,8,2:3:0:0:
230,285,87958,1,2,2:0:0:0:
161,221,88146,5,0,3:0:0:0:
144,234,88521,2,0,P|133:293|127:326,1,84,8|0,2:3|2:0,2:0:0:0:
104,344,88802,1,8,2:3:0:0:
104,344,88896,6,0,P|46:326|52:238,1,126,0|2,3:0|3:2,2:0:0:0:
48,219,89271,2,0,P|28:145|16:106,2,84,8|2|2,2:3|2:0|3:2,2:0:0:0:
181,370,90021,2,0,P|239:334|326:326,1,126,8|8,2:3|2:3,2:0:0:0:
345,325,90396,5,0,3:0:0:0:
314,229,90583,1,8,2:3:0:0:
414,239,90771,1,0,2:0:0:0:
430,140,90958,1,10,2:3:0:0:
358,69,91146,6,0,P|351:48|337:15,2,42,8|8|8,2:3|2:3|2:1,2:0:0:0:
430,140,91521,2,0,P|469:150|524:106,1,84,8|8,2:3|2:3,2:0:0:0:
456,53,91896,5,0,3:0:0:0:
456,53,91989,1,10,2:3:0:0:
456,53,92083,1,0,3:0:0:0:
358,69,92271,2,0,P|305:63|254:57,1,84,14|0,2:3|2:0,2:0:0:0:
181,19,92646,2,0,B|123:37|123:37|100:80|100:80|25:111,1,168,0|8,3:0|2:3,2:0:0:0:
6,195,93208,5,2,2:0:0:0:
91,249,93396,2,0,P|116:204|109:169,1,84,0|0,3:0|2:0,2:0:0:0:
182,101,93771,1,8,2:3:0:0:
251,173,93958,1,2,2:0:0:0:
338,122,94146,5,0,3:0:0:0:
354,142,94521,2,0,P|422:136|501:128,1,126,8|0,2:3|2:0,2:0:0:0:
505,173,94896,6,0,P|512:242|476:268,1,84,0|0,3:0|2:0,2:0:0:0:
429,314,95271,1,8,2:3:0:0:
349,252,95458,1,2,2:0:0:0:
263,305,95646,5,0,3:0:0:0:
249,294,96021,2,0,P|182:282|136:337,1,126,8|8,2:3|2:3,2:0:0:0:
115,360,96396,6,0,P|101:281|91:242,1,84,0|8,3:0|2:1,2:0:0:0:
88,228,96677,1,0,3:0:0:0:
88,228,96771,1,8,2:3:0:0:
222,78,97146,6,0,P|245:82|282:94,3,42,0|0|8|8,3:0|2:0|2:3|2:3,2:0:0:0:
300,120,97521,2,0,P|323:116|360:104,3,42,8|8|8|8,2:3|2:3|2:3|2:3,2:0:0:0:
382,82,97896,6,0,B|426:65|426:65|478:106,2,94.5000000000001,4|2|2,3:0|3:2|2:0,2:0:0:0:
388,175,98646,2,0,B|390:224|432:200|434:260,1,94.5000000000001,0|0,3:0|2:0,2:0:0:0:
448,287,99021,1,10,2:3:0:0:
448,287,99396,6,0,P|392:278|336:269,2,94.5000000000001,0|2|2,3:0|3:2|2:3,2:0:0:0:
423,362,100146,2,0,P|367:353|342:351,1,63.0000000000001,0|0,3:0|2:0,2:0:0:0:
289,311,100521,1,10,2:3:0:0:
278,321,100896,6,0,P|234:341|192:324,1,94.5000000000001,0|2,3:0|3:2,2:0:0:0:
164,300,101271,2,0,L|166:218,1,63.0000000000001,8|2,2:3|2:0,2:0:0:0:
218,182,101646,2,0,P|207:130|146:113,1,94.5000000000001,0|0,3:0|2:0,2:0:0:0:
148,82,102021,2,0,P|92:93|75:92,1,63.0000000000001,10|0,2:3|2:0,2:0:0:0:
39,152,102396,6,0,P|76:188|75:224,1,63.0000000000001,0|0,3:0|2:0,2:0:0:0:
92,237,102677,1,2,3:2:0:0:
92,237,102771,2,0,P|87:268|80:321,1,63.0000000000001,8|10,2:3|2:3,2:0:0:0:
155,347,103146,5,0,3:0:0:0:
155,347,103239,1,8,2:3:0:0:
155,347,103333,1,2,2:0:0:0:
208,278,103521,2,0,L|193:230,2,31.5,0|0|10,3:0|3:0|2:3,2:0:0:0:
284,307,103896,6,0,B|303:290|303:290|334:292|381:276,2,102.666666666667,4|12|12,3:0|2:3|2:3,2:0:0:0:
367,372,104646,1,8,2:3:0:0:
367,372,104739,1,8,2:3:0:0:
367,372,104833,1,8,2:3:0:0:
414,294,105021,1,12,2:3:0:0:
406,284,105396,6,0,P|387:215|377:181,2,94.5000000000001,0|2|2,3:0|3:2|2:0,2:0:0:0:
495,307,106146,2,0,P|511:268|500:229,1,63.0000000000001,0|0,3:0|2:0,2:0:0:0:
465,186,106521,1,8,2:3:0:0:
450,190,106896,6,0,P|399:198|332:201,1,94.5000000000001,0|2,3:0|2:0,2:0:0:0:
319,209,107271,2,0,P|296:185|300:152,1,63.0000000000001,8|2,2:3|2:0,2:0:0:0:
334,90,107646,1,0,3:0:0:0:
197,25,108021,1,8,2:3:0:0:
75,155,108396,6,0,B|99:177|70:152|128:137|166:159,1,70,2|8,3:2|2:3,2:0:0:0:
168,176,108677,1,8,2:3:0:0:
168,176,108771,2,0,L|160:223,2,35,10|8|8,2:3|2:3|2:3,2:0:0:0:
237,127,109146,2,0,L|262:63,2,35,10|8|8,2:3|2:3|2:3,2:0:0:0:
292,190,109521,2,0,L|283:233,3,35,10|8|8|8,2:3|2:3|2:3|2:3,2:0:0:0:
263,269,109896,6,0,B|311:294|311:294|354:255,1,105,4|2,3:0|3:2,2:0:0:0:
368,230,110271,1,12,0:3:0:0:
455,269,110458,5,0,3:0:0:0:
455,269,110552,1,2,3:2:0:0:
455,269,110646,1,12,2:3:0:0:
469,248,111021,6,0,P|479:194|483:164,1,70,12|0,2:3|2:0,2:0:0:0:
489,143,111302,1,2,3:2:0:0:
489,143,111396,6,0,P|406:164|363:178,1,105,4|2,3:0|3:2,2:0:0:0:
361,151,111771,5,8,2:3:0:0:
294,100,111958,1,2,2:0:0:0:
231,156,112146,5,0,3:0:0:0:
218,143,112521,2,0,P|167:144|145:157,1,70,8|2,2:3|2:0,2:0:0:0:
84,203,112896,6,0,P|120:263|125:313,1,105,0|2,3:0|3:2,2:0:0:0:
125,338,113271,2,0,P|78:352|39:369,2,70,8|2|0,2:3|2:0|3:0,2:0:0:0:
132,333,114021,6,0,B|173:343|173:343|182:361|182:361|237:379,1,105,10|8,2:3|2:3,2:0:0:0:
264,374,114396,5,8,3:1:0:0:
321,314,114583,1,10,2:3:0:0:
321,314,114677,1,8,3:1:0:0:
321,314,114771,1,0,3:0:0:0:
253,253,114958,1,10,2:3:0:0:
268,172,115146,6,0,P|281:116|288:86,1,70,8|8,2:3|2:1,2:0:0:0:
332,35,115521,2,0,B|366:18|366:18|403:61,2,70,0|8|0,3:0|2:3|3:0,2:0:0:0:
300,14,115989,1,8,2:3:0:0:
300,14,116083,1,0,3:0:0:0:
249,87,116271,6,0,P|205:101|169:110,1,70,12|0,2:3|2:0,2:0:0:0:
102,134,116646,1,0,3:0:0:0:
89,148,117021,2,0,B|63:192|63:192|98:265,1,105,8|2,2:3|2:0,2:0:0:0:
108,276,117396,5,0,3:0:0:0:
121,268,117771,2,0,P|174:262|199:259,1,70,8|2,2:3|2:0,2:0:0:0:
273,240,118146,2,0,B|313:252|313:252|324:283|324:283|378:296,1,105,0|0,3:0|2:0,2:0:0:0:
388,313,118521,2,0,P|421:294|407:228,1,105,8|0,2:3|2:0,2:0:0:0:
389,200,118896,5,0,3:0:0:0:
379,188,119271,2,0,P|390:136|393:104,1,70,8|2,2:3|2:0,2:0:0:0:
389,35,119646,2,0,P|328:52|302:61,1,70,0|0,3:0|2:0,2:0:0:0:
246,92,120021,2,0,B|205:82|205:82|197:72|197:72|143:61,1,105,10|0,2:3|2:0,2:0:0:0:
108,52,120396,5,0,2:0:0:0:
