osu file format v14

[General]
AudioFilename: audio.mp3
AudioLeadIn: 0
PreviewTime: 73896
Countdown: 0
SampleSet: Soft
StackLeniency: 0.7
Mode: 0
LetterboxInBreaks: 0
WidescreenStoryboard: 1

[Editor]
DistanceSpacing: 1
BeatDivisor: 4
GridSize: 8
TimelineZoom: 1.7

[Metadata]
Title:Usouso Doki
TitleUnicode:うそうそ時
Artist:Inoue Bona
ArtistUnicode:井上ぼな
Creator:KnightC0re
Version:Normal
Source:太鼓の達人
Tags:hakashii Taiko no Tatsujin Namco Original ナムコオリジナル モモイロVer. Momoiro Version かたぬき Katanuki rhythm video game pop japanese
BeatmapID:3564938
BeatmapSetID:1546475

[Difficulty]
HPDrainRate:3
CircleSize:3
OverallDifficulty:4
ApproachRate:5
SliderMultiplier:1.2
SliderTickRate:1

[Events]
//Background and Video events
0,0,"50726712_p0e.png",0,0
//Break Periods
2,101096,102696
//Storyboard Layer 0 (Background)
//Storyboard Layer 1 (Fail)
//Storyboard Layer 2 (Pass)
//Storyboard Layer 3 (Foreground)
//Storyboard Layer 4 (Overlay)
//Storyboard Sound Samples

[TimingPoints]
396,375,4,2,1,20,1,0
5646,-100,4,2,1,40,0,0
6021,-100,4,2,1,65,0,0
11646,-100,4,2,3,65,0,0
12021,-100,4,2,1,50,0,0
13333,-125,4,2,1,65,0,0
13708,-125,4,2,2,50,0,0
13896,-125,4,2,1,40,0,0
25333,-125,4,2,1,50,0,0
25708,-125,4,2,1,40,0,0
26646,-125,4,2,1,60,0,0
27021,-125,4,2,1,40,0,0
29646,-125,4,2,1,60,0,0
30021,-125,4,2,1,40,0,0
37646,-125,4,2,2,40,0,0
37896,-125,4,2,1,40,0,0
44896,-125,4,2,2,40,0,0
45396,-125,4,2,1,70,0,0
45646,-125,4,2,1,60,0,0
45896,-125,4,2,1,50,0,0
46146,-125,4,2,1,40,0,0
48396,-125,4,2,1,60,0,0
48646,-125,4,2,1,50,0,0
48896,-125,4,2,1,40,0,0
49146,-125,4,2,2,65,0,0
49396,-125,4,2,3,65,0,0
49646,-125,4,2,1,65,0,0
49896,-125,4,2,1,55,0,0
56896,-125,4,2,2,40,0,0
57146,-125,4,2,1,40,0,0
57396,-125,4,2,1,65,0,0
57646,-125,4,2,1,55,0,0
57896,-125,4,2,1,45,0,0
58146,-125,4,2,1,55,0,0
59271,-125,4,2,1,65,0,0
61521,-125,4,2,2,65,0,0
61708,-125,4,2,3,65,0,0
61896,-111.111111111111,4,2,1,50,0,0
67896,-111.111111111111,4,2,1,70,0,0
68458,-111.111111111111,4,2,1,50,0,0
70896,-111.111111111111,4,2,1,65,0,0
72208,-111.111111111111,4,2,1,50,0,0
73520,-111.111111111111,4,2,1,40,0,0
73896,-100,4,2,1,75,0,1
79896,-100,4,2,2,75,0,1
80271,-100,4,2,1,75,0,1
85521,-100,4,2,2,75,0,0
85896,-100,4,2,1,75,0,1
91146,-100,4,2,2,75,0,1
91521,-100,4,2,1,75,0,1
91708,-100,4,2,2,75,0,1
91896,-100,4,2,1,75,0,1
100896,-100,4,2,1,75,0,0
103896,-100,4,2,1,90,0,1
104646,-100,4,2,2,75,0,1
105021,-100,4,2,1,75,0,1
108396,-100,4,2,1,75,0,0
109896,-100,4,2,1,75,0,1
115146,-100,4,2,2,75,0,1
115521,-100,4,2,1,75,0,1
115708,-100,4,2,2,75,0,1
115896,-100,4,2,1,75,0,1
120396,392.156862745098,4,2,1,45,1,0
122160,392.156862745098,4,2,1,45,1,0
124512,375,4,2,1,20,1,0
125262,375,4,2,1,15,1,0

[Colours]
Combo1 : 236,236,0
Combo2 : 249,124,0

[HitObjects]
468,378,5646,6,0,P|491:349|487:321,1,60,8|8,3:0|2:3,2:0:0:0:
450,281,6021,1,12,2:3:0:0:
338,235,6396,5,4,3:0:0:0:
401,135,6771,1,14,2:3:0:0:
401,135,6958,2,0,P|379:88|307:118,1,120,0|10,3:0|2:3,2:0:0:0:
269,130,7521,5,0,3:0:0:0:
166,78,7896,1,10,2:3:0:0:
166,78,8083,2,0,P|168:48|174:18,1,60,0|10,3:0|2:3,2:0:0:0:
57,49,8646,2,0,P|27:52|-1:59,2,60,2|10|2,3:1|2:3|3:1,2:0:0:0:
15,162,9396,6,0,P|16:209|81:231,1,120,0|10,3:0|2:3,2:0:0:0:
128,204,9958,1,0,3:0:0:0:
165,324,10333,1,10,2:3:0:0:
165,324,10521,2,0,B|208:316|208:316|240:350|240:350|286:345|286:345|332:391,1,180,2|0,2:1|3:0,2:0:0:0:
376,370,11271,1,4,2:3:0:0:
471,297,11646,2,0,P|474:267|482:236,2,60,8|8|8,2:3|2:3|2:1,2:0:0:0:
451,22,13333,2,0,P|498:43|498:94,1,96,4|8,2:3|2:3,2:0:0:0:
472,112,13896,6,0,P|419:98|361:94,1,96,4|0,3:0|3:0,2:0:0:0:
317,31,14646,2,0,P|264:17|206:13,1,96,8|0,2:3|1:0,2:0:0:0:
148,57,15396,2,0,B|105:146|234:138|184:227,1,192,0|8,1:0|2:3,2:0:0:0:
148,251,16333,2,0,P|98:242|43:237,1,96,8|0,2:1|2:0,2:0:0:0:
19,264,16896,5,0,1:0:0:0:
35,348,17271,1,0,3:0:0:0:
113,384,17646,1,8,2:3:0:0:
186,338,18021,1,0,1:0:0:0:
266,370,18396,2,0,P|314:373|369:383,1,96,0|0,2:0|2:0,2:0:0:0:
436,338,19146,1,8,0:3:0:0:
410,255,19521,1,0,0:0:0:0:
327,227,19896,6,0,P|338:171|342:120,1,96,0|8,3:0|3:1,2:0:0:0:
408,77,20646,2,0,P|438:89|441:119,2,64,8|0|0,2:3|3:0|3:0,2:0:0:0:
381,25,21396,1,4,2:3:0:0:
229,108,22146,1,8,0:3:0:0:
142,113,22521,1,8,0:1:0:0:
58,88,22896,6,0,P|50:54|105:13,1,96,0|0,3:0|3:0,2:0:0:0:
173,31,23646,2,0,P|179:68|177:102,2,64,8|0|8,2:3|3:0|3:1,2:0:0:0:
222,0,24396,1,0,1:0:0:0:
373,154,25333,6,0,P|376:199|340:227,1,96,8|0,2:3|3:0,2:0:0:0:
345,270,25896,2,0,P|299:255|252:246,1,96,4|8,3:0|3:1,2:0:0:0:
187,188,26646,1,10,2:3:0:0:
105,216,27021,1,0,1:0:0:0:
27,178,27396,6,0,B|-28:260|99:275|29:368,1,192,0|8,2:0|2:3,2:0:0:0:
72,380,28333,2,0,P|119:363|170:354,1,96,0|0,2:0|1:0,2:0:0:0:
187,317,28896,5,8,3:1:0:0:
270,339,29271,1,8,3:1:0:0:
339,288,29646,2,0,P|332:235|319:187,1,96,10|0,2:3|1:0,2:0:0:0:
379,130,30396,6,0,P|423:133|482:145,1,96,0|0,2:0|2:0,2:0:0:0:
511,64,31146,1,8,0:3:0:0:
434,24,31521,1,0,0:0:0:0:
351,49,31896,6,0,P|287:62|237:79,1,96,8|0,3:1|1:0,2:0:0:0:
172,54,32646,2,0,P|152:31|164:3,2,64,12|0|0,2:3|2:0|2:0,2:0:0:0:
129,93,33396,1,0,1:0:0:0:
16,223,34146,1,8,0:3:0:0:
100,239,34521,1,8,0:3:0:0:
151,308,34896,6,0,P|197:297|258:291,1,96,0|0,2:0|1:0,2:0:0:0:
323,329,35646,2,0,P|304:357|314:383,2,64,8|0|8,2:3|3:0|2:3,2:0:0:0:
375,305,36396,2,0,P|367:250|364:175,1,128,2|2,2:0|2:1,2:0:0:0:
407,139,37146,2,0,P|438:153|475:160,2,64,2|2|8,2:0|3:2|2:3,2:0:0:0:
387,84,37896,5,4,2:3:0:0:
307,49,38271,1,0,3:0:0:0:
227,82,38646,2,0,P|172:65|124:55,1,96,8|0,2:0|2:0,2:0:0:0:
59,99,39396,6,0,B|53:131|53:131|75:159|75:159|68:193|68:193|96:226|96:226|80:288,1,192,0|8,2:0|2:0,2:0:0:0:
48,295,40333,2,0,P|42:340|84:371,1,96,8|0,3:1|3:0,2:0:0:0:
119,381,40896,6,0,P|168:366|219:360,1,96,0|0,3:0|3:0,2:0:0:0:
280,307,41646,1,8,2:0:0:0:
262,222,42021,1,0,2:0:0:0:
322,160,42396,2,0,B|369:155|369:155|411:198,1,96,0|8,2:0|2:3,2:0:0:0:
488,173,43146,2,0,P|505:136|504:65,1,96,0|0,3:0|2:0,2:0:0:0:
471,2,43896,5,8,3:1:0:0:
301,37,44646,2,0,P|284:77|278:107,1,64,12|8,2:3|2:3,2:0:0:0:
236,134,45146,1,8,2:3:0:0:
236,134,45396,2,0,P|253:174|259:204,2,64,6|2|0,2:3|2:0|2:0,2:0:0:0:
179,122,46146,2,0,P|125:128|89:165,1,96,0|0,3:0|3:0,2:0:0:0:
12,128,46896,6,0,P|9:82|19:28,1,96,0|8,3:0|2:3,2:0:0:0:
99,5,47646,2,0,P|130:11|156:30,1,64,8|0,2:3|2:0,2:0:0:0:
214,15,48146,1,2,2:0:0:0:
214,15,48396,2,0,P|244:42|255:70,1,64,2|10,2:0|2:3,2:0:0:0:
313,80,48896,1,0,2:0:0:0:
313,80,49146,2,0,P|300:123|294:157,2,64,8|8|8,2:3|2:3|2:3,2:0:0:0:
363,51,49896,5,4,3:0:0:0:
437,111,50271,1,8,2:3:0:0:
415,204,50646,1,0,2:0:0:0:
489,264,51021,1,0,2:0:0:0:
467,357,51396,6,0,B|414:349|427:377|365:368,1,96,8|10,3:1|2:3,2:0:0:0:
329,348,51958,1,8,3:1:0:0:
241,309,52333,2,0,P|200:328|144:347,1,96,8|8,2:3|2:3,2:0:0:0:
119,380,52896,5,2,3:2:0:0:
48,315,53271,1,8,2:3:0:0:
89,228,53646,1,0,1:0:0:0:
18,163,54021,1,0,3:0:0:0:
59,75,54396,6,0,P|115:84|167:99,1,96,0|10,3:0|2:3,2:0:0:0:
241,132,55146,2,0,P|258:93|273:69,1,48,0|10,2:0|2:3,2:0:0:0:
262,40,55521,1,8,2:3:0:0:
350,3,55896,6,0,P|400:16|425:56,1,96,4|0,3:0|3:0,2:0:0:0:
497,111,56646,2,0,P|481:148|476:188,1,64,8|8,2:3|2:3,2:0:0:0:
414,187,57146,1,8,2:3:0:0:
388,245,57396,2,0,P|418:252|447:267,1,64,10|2,2:3|3:2,2:0:0:0:
484,320,57896,1,2,3:2:0:0:
490,384,58146,2,0,P|440:370|375:365,1,96,12|8,2:3|2:3,2:0:0:0:
316,311,58896,6,0,P|258:327|239:365,1,96,0|10,3:0|2:3,2:0:0:0:
147,326,59646,2,0,P|140:297|142:256,2,64,0|0|2,3:0|3:3|2:0,2:0:0:0:
99,369,60396,2,0,P|53:360|26:322,1,96,0|8,3:0|2:3,2:0:0:0:
4,228,61146,2,0,P|13:207|22:174,1,48,0|8,3:0|2:3,2:0:0:0:
62,160,61521,2,0,P|65:138|65:103,1,48,8|8,2:3|2:3,2:0:0:0:
93,71,61896,6,0,P|129:34|197:41,1,108,4|8,2:3|2:3,2:0:0:0:
229,6,62458,1,2,2:1:0:0:
299,87,62833,1,2,2:1:0:0:
404,62,63208,2,0,P|420:141|445:218,1,162,2|2,2:1|2:1,2:0:0:0:
510,304,64146,2,0,P|483:320|462:334,1,54.0000000000001,0|2,3:0|2:1,2:0:0:0:
427,372,64521,2,0,P|396:364|371:359,1,54.0000000000001,8|0,2:3|3:0,2:0:0:0:
334,322,64896,6,0,B|272:309|288:353|214:337,1,108,2|8,2:1|2:3,2:0:0:0:
186,307,65458,1,2,2:1:0:0:
86,349,65833,1,2,2:1:0:0:
9,273,66208,2,0,B|39:222|7:218|38:160,1,108,2|2,2:1|3:1,2:0:0:0:
6,122,66771,1,2,2:1:0:0:
110,93,67146,1,8,2:3:0:0:
174,6,67521,1,8,2:3:0:0:
280,43,67896,5,8,2:3:0:0:
280,43,68083,1,8,2:3:0:0:
217,130,68458,1,8,2:1:0:0:
295,204,68833,1,8,2:1:0:0:
241,297,69208,2,0,P|302:329|345:361,1,108,4|2,2:3|2:0,2:0:0:0:
383,329,69771,1,8,2:3:0:0:
480,284,70146,2,0,P|487:257|490:231,1,54.0000000000001,0|0,2:0|3:0,2:0:0:0:
456,188,70521,2,0,P|453:161|446:135,1,54.0000000000001,10|0,2:3|3:0,2:0:0:0:
469,85,70896,6,0,P|413:68|349:30,1,108,0|8,3:0|2:3,2:0:0:0:
319,65,71458,1,12,2:3:0:0:
225,10,71833,1,12,2:3:0:0:
122,44,72208,2,0,B|61:86|62:156|126:201|166:152|235:193|204:270|164:260|146:321|217:356,1,378,12|8,2:3|2:3,2:0:0:0:
325,383,73896,6,0,P|388:346|457:322,1,120,4|8,3:0|2:3,2:0:0:0:
472,286,74458,1,2,2:0:0:0:
472,286,74646,2,0,P|481:236|431:193,1,120,0|8,3:0|2:3,2:0:0:0:
348,109,75396,6,0,P|292:96|223:64,1,120,0|8,3:0|2:3,2:0:0:0:
192,28,75958,1,2,2:0:0:0:
188,32,76146,2,0,P|141:39|69:68,1,120,0|8,3:0|2:3,2:0:0:0:
11,166,76896,6,0,P|62:180|73:259,1,120,0|10,3:0|2:3,2:0:0:0:
55,295,77458,1,2,2:0:0:0:
55,295,77646,1,2,3:2:0:0:
137,381,78021,1,8,2:3:0:0:
251,349,78396,6,0,P|264:320|279:294,1,60,0|0,3:0|2:0,2:0:0:0:
244,245,78771,2,0,P|231:215|216:189,1,60,8|2,2:3|2:0,2:0:0:0:
246,138,79146,2,0,P|303:131|354:171,1,120,0|8,3:0|3:1,2:0:0:0:
467,195,79896,6,0,B|454:148|454:148|481:62,1,120,8|14,2:3|2:3,2:0:0:0:
499,25,80458,1,0,2:0:0:0:
495,30,80646,2,0,P|432:39|359:57,1,120,0|8,3:0|2:3,2:0:0:0:
271,109,81396,6,0,P|216:105|186:51,1,120,0|8,3:0|2:3,2:0:0:0:
132,25,81958,1,2,2:3:0:0:
130,30,82146,2,0,P|64:67|18:102,1,120,0|8,3:0|2:3,2:0:0:0:
23,156,82708,1,2,2:0:0:0:
23,156,82896,5,0,3:0:0:0:
137,202,83271,2,0,P|125:229|121:259,1,60,8|2,2:3|2:0,2:0:0:0:
74,297,83646,2,0,P|161:337|202:366,1,120,0|8,3:0|2:3,2:0:0:0:
294,309,84396,5,2,0:0:0:0:
402,358,84771,1,10,0:3:0:0:
503,291,85146,2,0,P|512:233|483:182,1,120,2|8,2:0|2:3,2:0:0:0:
378,122,85896,5,4,2:3:0:0:
297,211,86271,1,6,2:3:0:0:
189,158,86646,1,6,2:3:0:0:
108,247,87021,1,6,2:3:0:0:
3,188,87396,6,0,P|17:118|35:63,1,120,0|8,3:0|2:3,2:0:0:0:
10,15,87958,1,2,2:0:0:0:
15,11,88146,1,0,3:0:0:0:
134,0,88521,2,0,P|162:9|189:26,1,60,8|0,2:3|2:0,2:0:0:0:
228,69,88896,5,0,3:0:0:0:
346,28,89271,1,8,2:3:0:0:
346,28,89458,1,2,2:0:0:0:
346,28,89646,2,0,P|366:100|372:150,1,120,2|8,3:2|2:3,2:0:0:0:
461,224,90396,6,0,P|448:252|439:280,1,60,0|8,3:0|2:3,2:0:0:0:
380,291,90771,2,0,P|367:318|358:346,1,60,0|10,2:0|2:3,2:0:0:0:
298,357,91146,2,0,B|234:345|244:383|175:373,1,120,8|8,2:3|2:3,2:0:0:0:
128,346,91708,1,8,2:3:0:0:
125,351,91896,5,0,3:0:0:0:
12,309,92271,2,0,P|6:275|8:231,1,60,14|0,2:3|2:0,2:0:0:0:
39,199,92646,2,0,P|110:198|147:231,1,120,0|8,3:0|2:3,2:0:0:0:
205,212,93208,1,2,2:0:0:0:
205,212,93396,6,0,P|217:142|239:72,1,120,0|8,3:0|2:3,2:0:0:0:
195,46,93958,1,2,2:0:0:0:
191,50,94146,1,0,3:0:0:0:
79,5,94521,1,8,2:3:0:0:
2,97,94896,5,0,3:0:0:0:
124,143,95271,1,8,2:3:0:0:
124,143,95458,1,2,2:0:0:0:
124,143,95646,2,0,P|181:152|246:171,1,120,0|8,3:0|2:3,2:0:0:0:
347,115,96396,5,0,3:0:0:0:
433,198,96771,1,8,2:3:0:0:
380,305,97146,1,0,3:0:0:0:
261,288,97521,1,8,2:3:0:0:
183,379,97896,1,4,3:0:0:0:
256,192,98083,12,0,100896,3:0:0:0:
340,53,103896,6,0,P|328:91|321:130,2,80,4|12|12,3:0|2:3|2:3,2:0:0:0:
279,1,104646,2,0,B|227:33|227:33|161:18,1,120,8|12,2:3|2:3,2:0:0:0:
55,56,105396,6,0,P|42:95|58:155,1,90,0|10,3:0|3:3,2:0:0:0:
126,200,105958,1,2,2:0:0:0:
126,200,106146,2,0,P|103:254|83:326,1,120,0|8,3:0|2:3,2:0:0:0:
183,382,106896,6,0,P|227:355|271:357,1,90,0|10,3:0|2:3,2:0:0:0:
341,309,107458,1,2,2:0:0:0:
345,305,107646,2,0,P|350:260|372:166,1,120,0|8,3:0|2:3,2:0:0:0:
461,114,108396,6,0,P|421:111|372:50,1,120,2|10,3:2|2:3,2:0:0:0:
258,16,109146,2,0,P|222:48|216:126,1,120,10|10,2:3|2:3,2:0:0:0:
276,218,109896,5,4,3:0:0:0:
393,193,110271,1,12,2:3:0:0:
421,309,110646,1,12,2:3:0:0:
304,334,111021,1,12,2:3:0:0:
188,297,111396,6,0,P|131:314|64:350,1,120,4|8,3:0|2:3,2:0:0:0:
22,365,111958,1,2,2:0:0:0:
18,369,112146,2,0,B|33:294|-10:321|9:235,1,120,0|8,3:0|2:3,2:0:0:0:
53,215,112708,1,2,2:0:0:0:
53,215,112896,5,0,3:0:0:0:
117,113,113271,2,0,P|114:77|103:44,1,60,8|2,2:3|2:0,2:0:0:0:
151,13,113646,2,0,P|227:26|276:42,1,120,0|10,3:0|2:3,2:0:0:0:
366,108,114396,6,0,P|399:95|424:89,1,60,8|10,3:1|2:3,2:0:0:0:
468,127,114771,2,0,P|459:155|455:185,1,60,0|10,2:0|2:3,2:0:0:0:
400,205,115146,2,0,P|358:194|280:182,1,120,8|0,2:3|3:0,2:0:0:0:
234,145,115708,1,8,2:3:0:0:
230,141,115896,6,0,P|172:134|137:180,1,120,0|12,3:0|2:3,2:0:0:0:
127,242,116458,1,0,2:0:0:0:
127,242,116646,1,0,3:0:0:0:
218,319,117021,2,0,P|248:308|276:302,1,60,8|0,2:3|2:0,2:0:0:0:
331,323,117396,6,0,P|372:271|429:217,1,120,0|8,3:0|2:3,2:0:0:0:
465,208,117958,1,2,2:0:0:0:
465,208,118146,2,0,P|456:153|438:90,1,120,0|8,3:0|2:3,2:0:0:0:
347,12,118896,5,0,3:0:0:0:
241,57,119271,1,8,2:3:0:0:
241,57,119458,1,2,2:0:0:0:
241,57,119646,2,0,B|215:124|258:112|227:191,1,120,0|10,3:0|2:3,2:0:0:0:
142,245,120396,5,0,2:0:0:0:
