osu file format v14

[General]
AudioFilename: audio.mp3
AudioLeadIn: 0
PreviewTime: 73896
Countdown: 0
SampleSet: Soft
StackLeniency: 0.4
Mode: 0
LetterboxInBreaks: 0
WidescreenStoryboard: 1

[Editor]
DistanceSpacing: 1
BeatDivisor: 4
GridSize: 8
TimelineZoom: 1.7

[Metadata]
Title:Usouso Doki
TitleUnicode:うそうそ時
Artist:Inoue Bona
ArtistUnicode:井上ぼな
Creator:KnightC0re
Version:Insane
Source:太鼓の達人
Tags:hakashii Taiko no Tatsujin Namco Original ナムコオリジナル モモイロVer. Momoiro Version かたぬき Katanuki rhythm video game pop japanese
BeatmapID:4026943
BeatmapSetID:1546475

[Difficulty]
HPDrainRate:5
CircleSize:4
OverallDifficulty:7
ApproachRate:9
SliderMultiplier:1.5
SliderTickRate:1

[Events]
//Background and Video events
0,0,"50726712_p0e.png",0,0
//Break Periods
//Storyboard Layer 0 (Background)
//Storyboard Layer 1 (Fail)
//Storyboard Layer 2 (Pass)
//Storyboard Layer 3 (Foreground)
//Storyboard Layer 4 (Overlay)
//Storyboard Sound Samples

[TimingPoints]
396,375,4,2,1,20,1,0
3396,-133.333333333333,4,2,1,30,0,0
3677,-133.333333333333,4,2,1,5,0,0
3771,-133.333333333333,4,2,1,30,0,0
4802,-133.333333333333,4,2,1,5,0,0
4896,-133.333333333333,4,2,1,30,0,0
5646,-133.333333333333,4,2,1,40,0,0
6021,-133.333333333333,4,2,1,65,0,0
6489,-100,4,2,1,65,0,0
11271,-66.6666666666667,4,2,1,65,0,0
11552,-66.6666666666667,4,2,2,65,0,0
11646,-100,4,2,3,65,0,0
12021,-100,4,2,1,50,0,0
13333,-100,4,2,1,65,0,0
13708,-100,4,2,2,50,0,0
13896,-100,4,2,1,40,0,0
14646,-133.333333333333,4,2,1,40,0,0
15583,-133.333333333333,4,2,1,60,0,0
15958,-133.333333333333,4,2,1,40,0,0
18583,-133.333333333333,4,2,1,60,0,0
18958,-133.333333333333,4,2,1,40,0,0
20083,-133.333333333333,4,2,1,20,0,0
20176,-133.333333333333,4,2,1,25,0,0
20271,-133.333333333333,4,2,1,30,0,0
20364,-133.333333333333,4,2,1,35,0,0
20458,-133.333333333333,4,2,1,40,0,0
20552,-133.333333333333,4,2,1,45,0,0
20646,-133.333333333333,4,2,1,40,0,0
21021,-133.333333333333,4,2,2,40,0,0
21271,-133.333333333333,4,2,1,40,0,0
24677,-133.333333333333,4,2,2,40,0,0
24958,-133.333333333333,4,2,1,40,0,0
25333,-133.333333333333,4,2,1,50,0,0
25708,-133.333333333333,4,2,1,40,0,0
26646,-133.333333333333,4,2,1,60,0,0
27021,-133.333333333333,4,2,1,40,0,0
29646,-133.333333333333,4,2,1,60,0,0
30021,-133.333333333333,4,2,1,40,0,0
37646,-133.333333333333,4,2,2,40,0,0
37771,-133.333333333333,4,2,3,40,0,0
37896,-133.333333333333,4,2,1,40,0,0
39208,-133.333333333333,4,2,1,20,0,0
39489,-133.333333333333,4,2,1,30,0,0
39677,-133.333333333333,4,2,1,40,0,0
39864,-133.333333333333,4,2,1,50,0,0
40052,-133.333333333333,4,2,1,60,0,0
40146,-133.333333333333,4,2,1,40,0,0
42208,-133.333333333333,4,2,1,65,0,0
42583,-133.333333333333,4,2,1,60,0,0
42771,-133.333333333333,4,2,1,40,0,0
44896,-133.333333333333,4,2,2,40,0,0
45271,-133.333333333333,4,2,1,55,0,0
45396,-133.333333333333,4,2,1,70,0,0
45646,-133.333333333333,4,2,1,60,0,0
45896,-133.333333333333,4,2,1,50,0,0
46146,-133.333333333333,4,2,1,40,0,0
48271,-133.333333333333,4,2,1,50,0,0
48396,-133.333333333333,4,2,1,60,0,0
48646,-133.333333333333,4,2,1,50,0,0
48896,-133.333333333333,4,2,1,40,0,0
49146,-133.333333333333,4,2,2,65,0,0
49396,-133.333333333333,4,2,3,65,0,0
49646,-133.333333333333,4,2,1,65,0,0
49896,-133.333333333333,4,2,1,55,0,0
50833,-133.333333333333,4,2,1,75,0,0
51021,-133.333333333333,4,2,1,55,0,0
53833,-133.333333333333,4,2,1,75,0,0
54021,-133.333333333333,4,2,1,55,0,0
55708,-133.333333333333,4,2,2,55,0,0
55802,-133.333333333333,4,2,3,55,0,0
55896,-133.333333333333,4,2,1,55,0,0
56896,-133.333333333333,4,2,2,40,0,0
57146,-133.333333333333,4,2,1,40,0,0
57396,-133.333333333333,4,2,1,65,0,0
57646,-133.333333333333,4,2,1,55,0,0
57896,-133.333333333333,4,2,1,45,0,0
58146,-100,4,2,1,55,0,0
58708,-100,4,2,2,55,0,0
58896,-100,4,2,1,55,0,0
59271,-100,4,2,1,65,0,0
60489,-100,4,2,2,65,0,0
60677,-100,4,2,1,65,0,0
60864,-100,4,2,3,65,0,0
61052,-100,4,2,1,65,0,0
61521,-100,4,2,2,65,0,0
61708,-100,4,2,3,65,0,0
61896,-100,4,2,1,50,0,0
67333,-100,4,2,2,50,0,0
67521,-100,4,2,1,50,0,0
67614,-100,4,2,3,50,0,0
67896,-100,4,2,1,70,0,0
68271,-100,4,2,1,50,0,0
69208,-80,4,2,1,50,0,0
70896,-80,4,2,1,65,0,0
72208,-100,4,2,1,50,0,0
72958,-100,4,2,2,50,0,0
73083,-100,4,2,3,50,0,0
73145,-100,4,2,1,50,0,0
73333,-100,4,2,1,70,0,0
73521,-100,4,2,1,60,0,0
73896,-66.6666666666667,4,2,1,75,0,1
78021,-80,4,2,1,75,0,1
78958,-66.6666666666667,4,2,1,75,0,1
79896,-66.6666666666667,4,2,2,75,0,1
79989,-66.6666666666667,4,2,1,75,0,1
80083,-66.6666666666667,4,2,3,75,0,1
80271,-66.6666666666667,4,2,1,75,0,1
85521,-66.6666666666667,4,2,2,75,0,1
85708,-80,4,2,3,75,0,0
85896,-80,4,2,1,75,0,1
86083,-80,4,2,2,75,0,1
86270,-80,4,2,1,75,0,1
86458,-80,4,2,2,75,0,1
86645,-80,4,2,1,75,0,1
87021,-66.6666666666667,4,2,1,75,0,1
91146,-66.6666666666667,4,2,2,75,0,1
91333,-80,4,2,1,75,0,1
91708,-80,4,2,2,75,0,1
91896,-80,4,2,1,75,0,1
92271,-66.6666666666667,4,2,1,75,0,1
96396,-66.6666666666667,4,2,1,75,0,0
97896,-66.6666666666667,4,2,1,75,0,1
98646,-80,4,2,1,75,0,1
99396,-66.6666666666667,4,2,1,75,0,1
100146,-80,4,2,1,75,0,1
100896,-66.6666666666667,4,2,1,75,0,1
101646,-80,4,2,1,75,0,1
102677,-66.6666666666667,4,2,1,75,0,1
103896,-66.6666666666667,4,2,1,90,0,1
104646,-66.6666666666667,4,2,2,75,0,1
104833,-66.6666666666667,4,2,3,75,0,1
105021,-66.6666666666667,4,2,1,75,0,1
106146,-80,4,2,1,75,0,1
106896,-66.6666666666667,4,2,1,75,0,1
107646,-80,4,2,1,75,0,1
108396,-80,4,2,1,75,0,0
108864,-80,4,2,1,40,0,0
109146,-80,4,2,1,75,0,0
109239,-80,4,2,1,40,0,0
109521,-80,4,2,1,75,0,0
109614,-80,4,2,1,40,0,0
109708,-80,4,2,1,50,0,0
109802,-80,4,2,1,60,0,0
109896,-66.6666666666667,4,2,1,75,0,1
110271,-80,4,2,1,75,0,1
110646,-100,4,2,1,75,0,1
111021,-133.333333333333,4,2,1,75,0,1
111396,-66.6666666666667,4,2,1,75,0,1
115146,-66.6666666666667,4,2,2,75,0,1
115333,-80,4,2,1,75,0,1
115708,-80,4,2,2,75,0,1
115896,-80,4,2,1,75,0,1
116271,-66.6666666666667,4,2,1,75,0,1
120396,392.156862745098,4,2,1,45,1,0
120396,-200,4,2,1,45,0,0
122160,392.156862745098,4,2,1,45,1,0
124512,375,4,2,1,20,1,0
125262,375,4,2,1,15,1,0

[Colours]
Combo1 : 236,236,0
Combo2 : 249,124,0

[HitObjects]
486,341,3302,5,4,0:3:0:0:
486,341,3396,6,0,P|461:345|402:372,1,84.3750000000002,4|0,2:3|3:0,2:0:0:0:
395,352,3771,2,0,P|371:345|362:345,1,28.1250000000001,8|8,2:3|2:3,2:0:0:0:
272,307,3958,2,0,P|312:294|326:228,1,112.5,4|8,2:3|2:3,2:0:0:0:
207,250,4521,2,0,P|218:293|226:338,1,84.3750000000002,0|0,2:0|2:0,2:0:0:0:
246,320,4896,5,4,2:3:0:0:
84,360,5083,1,4,2:3:0:0:
48,199,5271,1,4,2:3:0:0:
210,159,5458,1,4,2:3:0:0:
147,260,5646,5,8,3:0:0:0:
140,254,5739,1,8,2:3:0:0:
142,245,5833,1,8,2:3:0:0:
151,244,5927,1,8,2:3:0:0:
152,254,6021,5,12,2:3:0:0:
98,243,6114,1,8,2:3:0:0:
61,202,6208,1,8,2:3:0:0:
55,147,6302,1,8,2:3:0:0:
83,102,6396,5,4,3:0:0:0:
83,102,6489,2,0,P|115:127|160:123,1,75,2|0,2:0|2:0,2:0:0:0:
229,68,6771,1,14,2:3:0:0:
350,142,6958,1,0,3:0:0:0:
350,142,7052,2,0,P|343:164|339:193,1,37.5,2|0,2:0|2:0,2:0:0:0:
446,200,7239,1,0,3:0:0:0:
446,200,7333,2,0,P|439:177|435:149,1,37.5,10|0,2:3|2:0,2:0:0:0:
483,82,7521,5,0,3:0:0:0:
483,82,7614,2,0,P|431:75|396:66,1,75,10|0,2:3|3:0,2:0:0:0:
316,19,7896,1,10,2:3:0:0:
220,142,8083,5,0,3:0:0:0:
53,79,8271,1,10,2:3:0:0:
115,129,8458,1,0,3:0:0:0:
134,146,8552,1,8,2:3:0:0:
136,118,8646,5,2,3:1:0:0:
96,18,8833,2,0,L|86:61,1,37.5,10|0,2:3|2:0,2:0:0:0:
220,142,9021,1,2,3:1:0:0:
15,69,9208,2,0,L|5:112,1,37.5,10|0,2:3|2:0,2:0:0:0:
90,221,9396,5,0,3:0:0:0:
90,221,9489,2,0,P|121:199|165:197,1,75,2|0,2:0|2:0,2:0:0:0:
231,223,9771,1,10,2:3:0:0:
167,344,9958,1,0,3:0:0:0:
167,344,10052,2,0,P|158:316|137:288,1,37.5,10|0,2:3|2:0,2:0:0:0:
251,382,10239,1,0,3:0:0:0:
251,382,10333,2,0,P|256:361|266:334,1,37.5,10|0,2:3|2:0,2:0:0:0:
337,271,10521,6,0,P|357:268|387:266,1,37.5,2|10,2:1|2:3,2:0:0:0:
367,347,10708,2,0,P|387:344|417:342,1,37.5,2|8,2:1|2:3,2:0:0:0:
451,280,10896,2,0,P|471:277|501:275,1,37.5,2|8,2:1|2:3,2:0:0:0:
481,356,11083,1,0,3:0:0:0:
337,271,11271,6,0,P|307:222|326:167,1,112.5,4|0,2:3|2:0,2:0:0:0:
391,132,11552,1,8,2:3:0:0:
403,144,11646,2,0,P|442:154|484:158,2,75,8|8|8,2:3|2:3|2:1,2:0:0:0:
24,0,13333,5,4,2:3:0:0:
24,0,13427,1,8,2:3:0:0:
24,0,13521,2,0,L|8:59,2,37.5,8|8|8,2:3|2:3|2:3,2:0:0:0:
82,147,13896,5,4,3:0:0:0:
40,211,14271,1,0,3:0:0:0:
140,342,14646,2,0,P|171:301|238:300,1,112.5,8|0,2:3|1:0,2:0:0:0:
288,346,15208,2,0,L|280:385,2,28.1250000000001,0|0|0,1:0|1:0|1:0,2:0:0:0:
507,250,15583,5,2,2:0:0:0:
339,285,15958,1,0,3:0:0:0:
507,250,16146,5,8,2:3:0:0:
393,227,16333,2,0,P|379:188|408:111,1,112.5,8|0,2:1|2:0,2:0:0:0:
485,60,16896,5,0,1:0:0:0:
415,94,17271,1,0,3:0:0:0:
338,77,17646,1,8,2:3:0:0:
283,17,18021,2,0,P|291:47|295:83,1,56.2500000000001,0|0,1:0|1:0,2:0:0:0:
274,144,18396,1,0,2:0:0:0:
78,115,18583,5,2,2:0:0:0:
207,183,18958,1,8,3:1:0:0:
78,115,19146,5,8,2:3:0:0:
143,67,19333,1,0,3:0:0:0:
143,67,19521,2,0,P|157:105|159:129,1,56.2500000000001,0|8,2:0|2:3,2:0:0:0:
55,190,19896,5,0,3:0:0:0:
107,255,20083,2,0,L|63:268,1,28.1250000000001,8|8,3:1|2:1,2:0:0:0:
0,323,20271,1,8,3:1:0:0:
20,326,20364,1,8,2:1:0:0:
41,330,20458,1,8,3:1:0:0:
61,336,20552,1,8,2:1:0:0:
81,343,20646,1,8,2:3:0:0:
228,264,20896,5,0,3:0:0:0:
274,298,21021,2,0,P|272:346|243:380,1,75.0000000000002,8|8,2:3|2:3,2:0:0:0:
352,342,21396,6,0,P|423:325|487:318,1,112.5,4|0,2:3|1:0,2:0:0:0:
462,319,21958,1,0,3:0:0:0:
379,254,22146,2,0,P|369:222|395:190,1,56.2500000000001,8|0,2:3|2:0,2:0:0:0:
340,134,22521,2,0,P|370:101|400:98,1,56.2500000000001,8|0,2:1|2:0,2:0:0:0:
509,191,22896,6,0,P|442:202|402:165,1,112.5,0|0,3:0|3:0,2:0:0:0:
237,90,23646,2,0,P|250:144|254:181,1,75.0000000000002,8|0,2:3|3:0,2:0:0:0:
328,209,24146,1,8,3:1:0:0:
439,21,24396,6,0,P|411:1|378:2,1,56.2500000000001,0|0,1:0|3:0,2:0:0:0:
388,4,24677,1,8,2:3:0:0:
389,9,24771,1,8,2:3:0:0:
420,99,24958,1,0,2:0:0:0:
510,68,25146,1,8,3:1:0:0:
328,128,25333,5,8,2:3:0:0:
208,30,25521,1,12,2:3:0:0:
283,0,25708,1,0,3:0:0:0:
151,142,25896,6,0,P|109:140|79:112,1,84.3750000000002,4|0,3:0|2:0,2:0:0:0:
70,117,26271,2,0,P|56:141|53:169,1,56.2500000000001,8|0,3:1|2:0,2:0:0:0:
162,359,26646,5,10,2:3:0:0:
120,217,27021,1,0,1:0:0:0:
162,359,27208,5,0,3:0:0:0:
162,359,27583,5,8,3:1:0:0:
92,331,27864,1,0,2:0:0:0:
92,331,27958,1,0,2:0:0:0:
279,233,28146,2,0,L|267:298,2,56.2500000000001,8|0|0,2:3|2:0|1:0,2:0:0:0:
326,346,28708,1,0,1:0:0:0:
484,384,28896,6,0,P|503:347|499:305,1,84.3750000000002,8|0,3:1|2:0,2:0:0:0:
492,297,29271,2,0,P|448:288|424:261,1,56.2500000000001,8|0,3:1|2:0,2:0:0:0:
391,123,29646,5,10,2:3:0:0:
487,90,30021,1,0,1:0:0:0:
391,123,30208,5,0,3:0:0:0:
391,123,30583,5,2,3:2:0:0:
413,24,30958,1,0,1:0:0:0:
464,182,31146,2,0,L|452:254,1,56.2500000000001,8|8,2:3|3:1,2:0:0:0:
335,314,31521,2,0,P|293:309|261:283,1,84.3750000000002,0|0,2:0|2:0,2:0:0:0:
260,273,31896,6,0,P|206:282|183:331,1,112.5,8|0,3:1|1:0,2:0:0:0:
291,384,32458,1,2,2:0:0:0:
113,362,32646,2,0,P|87:336|96:286,1,75.0000000000002,12|0,2:3|2:0,2:0:0:0:
112,273,33021,2,0,P|128:230|113:196,1,75.0000000000002,8|0,2:1|2:0,2:0:0:0:
70,149,33396,6,0,P|23:168|-3:174,2,75.0000000000002,0|0|0,1:0|1:0|1:0,2:0:0:0:
160,43,34146,2,0,P|204:47|221:90,1,84.3750000000002,8|0,2:3|2:0,2:0:0:0:
227,73,34521,2,0,L|302:65,1,56.2500000000001,8|0,2:3|2:0,2:0:0:0:
429,0,34896,6,0,P|450:23|462:63,1,56.2500000000001,0|0,2:0|2:0,2:0:0:0:
458,51,35177,1,0,1:0:0:0:
455,55,35271,1,0,1:0:0:0:
512,214,35646,2,0,P|471:197|419:191,1,75.0000000000002,8|0,2:3|3:0,2:0:0:0:
363,201,36146,1,8,2:3:0:0:
456,364,36396,6,0,P|449:319|388:301,1,112.5,2|0,2:0|2:0,2:0:0:0:
322,334,36896,2,0,L|308:288,1,37.5000000000001,2|2,2:1|2:1,2:0:0:0:
255,248,37146,1,2,2:0:0:0:
141,355,37396,2,0,L|96:338,1,37.5000000000001,2|8,3:2|2:3,2:0:0:0:
43,379,37646,2,0,L|81:374,1,37.5000000000001,8|8,2:3|2:3,2:0:0:0:
222,330,37896,5,4,2:3:0:0:
7,247,38271,1,0,3:0:0:0:
94,34,38646,1,8,2:0:0:0:
38,94,39208,5,2,3:2:0:0:
38,94,39302,1,10,2:0:0:0:
113,112,39489,1,10,2:0:0:0:
173,53,39677,1,10,2:0:0:0:
262,71,39864,1,2,2:0:0:0:
338,1,40052,1,2,2:0:0:0:
338,1,40146,1,8,2:0:0:0:
499,86,40333,2,0,P|444:89|407:49,1,112.5,8|0,3:1|3:0,2:0:0:0:
481,0,40896,5,0,3:0:0:0:
358,166,41271,1,0,3:0:0:0:
512,295,41646,1,8,2:0:0:0:
450,253,42021,1,0,2:0:0:0:
328,374,42208,5,2,1:2:0:0:
151,327,42583,5,2,1:2:0:0:
328,374,42771,1,8,2:3:0:0:
328,374,42864,5,8,3:1:0:0:
151,327,43052,1,8,2:0:0:0:
151,327,43146,6,0,L|103:335,2,28.1250000000001,0|8|8,3:0|2:0|3:1,2:0:0:0:
262,259,43521,1,0,2:0:0:0:
148,196,43708,1,0,3:0:0:0:
148,196,43802,1,8,2:0:0:0:
147,196,43896,6,0,P|109:235|54:238,1,112.5,8|0,3:1|2:0,2:0:0:0:
5,295,44458,1,0,3:0:0:0:
48,85,44646,6,0,P|61:120|71:156,1,75.0000000000002,12|8,2:3|2:3,2:0:0:0:
226,200,45146,2,0,L|234:158,1,37.5000000000001,8|2,2:3|2:0,2:0:0:0:
187,12,45396,5,6,2:3:0:0:
318,143,45646,1,2,2:0:0:0:
497,96,45896,1,0,2:0:0:0:
392,74,46146,6,0,P|407:121|415:164,1,84.3750000000002,0|0,3:0|2:0,2:0:0:0:
419,159,46521,2,0,P|463:169|482:176,1,56.2500000000001,0|0,3:0|2:0,2:0:0:0:
321,268,46896,6,0,P|362:255|419:248,2,84.3750000000002,0|8|0,3:0|2:3|3:0,2:0:0:0:
497,365,47646,2,0,P|444:348|408:343,1,75.0000000000002,8|0,2:3|2:0,2:0:0:0:
232,349,48146,1,0,2:0:0:0:
232,349,48271,1,2,2:0:0:0:
232,349,48396,5,2,2:0:0:0:
230,181,48646,1,10,2:3:0:0:
75,105,48896,1,0,2:0:0:0:
182,24,49146,5,8,2:3:0:0:
212,108,49396,1,8,2:3:0:0:
140,162,49646,1,8,2:3:0:0:
303,300,49896,5,4,3:0:0:0:
231,260,50177,1,8,2:3:0:0:
231,260,50271,1,8,2:3:0:0:
123,384,50458,1,8,2:1:0:0:
123,384,50833,6,0,L|85:379,1,28.1250000000001,2|0,2:0|2:0,2:0:0:0:
46,300,51021,1,0,2:0:0:0:
66,295,51114,1,8,2:3:0:0:
86,290,51208,1,8,2:3:0:0:
227,366,51396,5,8,3:1:0:0:
453,272,51771,1,10,2:3:0:0:
387,336,51958,5,8,3:1:0:0:
453,272,52333,2,0,P|460:234|463:193,1,56.2500000000001,8|0,2:3|3:0,2:0:0:0:
460,210,52614,1,8,2:3:0:0:
457,205,52708,1,8,2:3:0:0:
357,96,52896,5,2,3:2:0:0:
464,43,53271,1,8,2:3:0:0:
357,96,53458,5,2,3:2:0:0:
150,8,53833,2,0,L|158:46,1,28.1250000000001,10|0,2:3|2:0,2:0:0:0:
224,81,54021,1,0,3:0:0:0:
228,64,54114,1,8,2:3:0:0:
232,47,54208,1,8,2:3:0:0:
91,79,54396,5,0,3:0:0:0:
26,42,54677,1,8,2:3:0:0:
26,42,54771,1,10,2:3:0:0:
0,146,54958,1,0,3:0:0:0:
66,184,55146,1,0,2:0:0:0:
159,121,55333,5,10,2:3:0:0:
270,175,55521,1,8,2:3:0:0:
275,202,55614,1,8,2:3:0:0:
269,229,55708,1,8,2:3:0:0:
253,252,55802,1,8,2:3:0:0:
229,266,55896,6,0,P|193:257|155:253,1,56.2500000000001,4|0,3:0|2:0,2:0:0:0:
24,377,56271,2,0,P|-3:336|13:290,1,84.3750000000002,0|0,3:0|2:0,2:0:0:0:
10,300,56646,5,8,2:3:0:0:
165,337,56896,1,8,2:3:0:0:
331,376,57146,1,8,2:3:0:0:
481,267,57396,5,10,2:3:0:0:
351,205,57646,1,2,3:2:0:0:
255,318,57896,1,2,3:2:0:0:
480,384,58146,6,0,P|486:355|504:298,1,75,12|0,2:3|2:0,2:0:0:0:
495,304,58427,1,8,2:3:0:0:
491,297,58521,1,8,2:3:0:0:
403,265,58708,1,8,2:3:0:0:
475,197,58896,6,0,P|451:168|405:166,1,75,0|0,3:0|3:0,2:0:0:0:
480,94,59271,1,10,2:3:0:0:
327,162,59458,2,0,L|317:112,1,37.5,0|8,2:0|2:3,2:0:0:0:
333,38,59646,5,0,3:0:0:0:
363,36,59739,1,2,2:0:0:0:
382,62,59833,1,0,3:0:0:0:
239,163,60021,2,0,L|149:149,1,75,10|0,2:3|2:0,2:0:0:0:
0,65,60396,5,0,3:0:0:0:
0,65,60489,1,8,2:3:0:0:
101,13,60677,1,8,2:3:0:0:
101,13,60771,1,8,2:3:0:0:
101,13,60864,1,8,2:3:0:0:
92,130,61052,1,8,2:3:0:0:
92,130,61146,6,0,P|79:155|73:186,1,37.5,0|8,3:0|2:3,2:0:0:0:
130,272,61333,2,0,P|123:254|114:237,1,37.5,8|8,2:3|2:3,2:0:0:0:
13,247,61521,1,8,2:3:0:0:
66,358,61708,1,8,2:3:0:0:
75,363,61802,1,8,2:3:0:0:
84,368,61896,6,0,P|127:355|173:349,1,75,4|0,2:3|2:0,2:0:0:0:
182,359,62177,1,8,2:3:0:0:
205,373,62271,1,8,2:3:0:0:
321,295,62458,1,2,2:1:0:0:
321,295,62833,5,2,2:1:0:0:
421,323,63021,1,8,2:3:0:0:
503,262,63208,2,0,P|498:188|474:114,1,150,2|2,2:1|2:1,2:0:0:0:
303,67,63771,2,0,P|346:58|373:15,1,75,2|0,2:1|3:0,2:0:0:0:
432,4,64052,1,2,2:1:0:0:
441,14,64146,2,0,L|490:22,2,37.5,0|2|2,3:0|2:1|2:1,2:0:0:0:
254,152,64521,2,0,P|250:133|243:111,1,37.5,8|2,2:3|2:1,2:0:0:0:
240,113,64708,1,0,3:0:0:0:
172,46,64896,6,0,P|137:75|100:75,1,75,2|0,2:1|2:0,2:0:0:0:
82,67,65177,1,8,2:3:0:0:
65,44,65271,1,8,2:3:0:0:
0,173,65458,1,2,2:1:0:0:
0,173,65833,5,2,2:1:0:0:
73,233,66021,1,8,2:3:0:0:
48,318,66208,2,0,P|121:332|212:361,1,150,2|2,2:1|3:1,2:0:0:0:
340,288,66771,1,2,2:1:0:0:
255,251,66958,2,0,L|267:303,1,37.5,2|8,2:1|2:3,2:0:0:0:
312,382,67146,5,8,2:3:0:0:
327,369,67239,1,8,2:3:0:0:
347,368,67333,1,8,2:3:0:0:
469,303,67521,1,8,2:3:0:0:
436,297,67614,1,8,2:3:0:0:
417,270,67708,1,8,2:3:0:0:
493,162,67896,6,0,L|504:233,1,37.5,8|0,2:3|2:0,2:0:0:0:
498,199,68083,1,8,2:3:0:0:
405,160,68271,1,0,2:0:0:0:
510,55,68458,1,8,2:1:0:0:
243,0,68833,5,8,2:1:0:0:
303,108,69021,1,8,2:3:0:0:
196,183,69208,2,0,B|92:170|138:134|15:115,1,187.5,4|2,2:3|2:0,2:0:0:0:
113,59,69771,1,8,2:3:0:0:
113,59,69864,1,2,2:0:0:0:
45,220,70052,1,2,2:0:0:0:
45,220,70146,6,0,P|53:240|62:271,1,46.875,0|2,2:0|2:0,2:0:0:0:
44,295,70333,1,0,3:0:0:0:
159,374,70521,2,0,P|138:365|108:357,1,46.875,10|0,2:3|2:0,2:0:0:0:
141,281,70708,1,0,3:0:0:0:
149,270,70802,1,8,2:3:0:0:
158,260,70896,6,0,P|221:269|292:285,1,93.75,0|0,3:0|2:0,2:0:0:0:
250,274,71177,1,0,3:0:0:0:
250,274,71271,1,8,2:3:0:0:
342,384,71458,1,12,2:3:0:0:
512,91,71833,5,12,2:3:0:0:
342,384,72208,6,0,P|329:332|425:316,1,150,12|2,2:3|2:0,2:0:0:0:
437,370,72771,1,8,2:3:0:0:
502,242,72958,2,0,L|509:272,3,25,8|8|8|0,2:3|2:3|2:3|3:0,2:0:0:0:
374,112,73333,1,12,2:3:0:0:
419,40,73521,1,8,2:3:0:0:
451,57,73614,1,8,2:3:0:0:
470,89,73708,1,8,2:3:0:0:
468,126,73802,1,8,2:3:0:0:
447,156,73896,6,0,P|392:138|323:129,1,112.5,4|0,3:0|2:0,2:0:0:0:
264,79,74177,1,2,3:2:0:0:
241,100,74271,2,0,P|250:128|259:179,1,56.25,8|0,2:3|2:0,2:0:0:0:
318,209,74458,1,2,2:0:0:0:
198,306,74646,6,0,P|144:291|84:283,1,112.5,0|0,3:0|2:0,2:0:0:0:
226,232,75021,2,0,P|172:217|112:209,1,112.5,8|0,2:3|2:0,2:0:0:0:
259,370,75396,6,0,P|293:328|346:335,1,112.5,0|0,3:0|2:0,2:0:0:0:
408,384,75677,1,2,3:2:0:0:
438,363,75771,2,0,P|442:335|450:308,1,56.25,8|0,2:3|3:0,2:0:0:0:
397,249,75958,1,2,2:0:0:0:
512,145,76146,6,0,P|456:152|402:167,1,112.5,0|0,3:0|2:0,2:0:0:0:
484,71,76521,2,0,P|428:78|374:93,1,112.5,8|0,2:3|2:0,2:0:0:0:
155,7,76896,6,0,P|182:63|244:49,1,112.5,0|0,3:0|2:0,2:0:0:0:
291,5,77177,1,2,3:2:0:0:
315,30,77271,2,0,P|306:52|296:98,1,56.25,10|0,2:3|2:0,2:0:0:0:
325,157,77458,1,2,2:0:0:0:
110,244,77646,6,0,P|121:181|231:177,1,168.75,2|0,3:2|2:0,2:0:0:0:
271,209,78021,2,0,P|258:265|252:322,1,93.75,8|0,2:3|2:0,2:0:0:0:
58,338,78396,5,0,3:0:0:0:
176,304,78583,1,0,2:0:0:0:
176,304,78677,1,2,3:2:0:0:
176,304,78771,1,8,2:3:0:0:
259,384,78958,2,0,P|283:371|324:357,1,56.25,2|0,2:0|2:0,2:0:0:0:
497,312,79146,5,0,3:0:0:0:
467,315,79239,1,8,2:3:0:0:
445,294,79333,1,2,2:0:0:0:
502,226,79521,1,8,3:1:0:0:
398,384,79708,2,0,P|392:360|377:329,1,56.25,2|0,2:0|2:0,2:0:0:0:
425,182,79896,5,8,2:3:0:0:
417,195,79989,1,10,2:3:0:0:
412,210,80083,1,8,2:3:0:0:
511,120,80271,2,0,P|450:106|429:63,1,112.5,14|0,2:3|2:0,2:0:0:0:
251,27,80646,6,0,P|274:112|281:164,1,112.5,0|0,3:0|2:0,2:0:0:0:
359,114,81021,2,0,P|336:29|329:-23,1,112.5,8|0,2:3|2:0,2:0:0:0:
107,0,81396,6,0,P|83:81|128:119,1,112.5,0|0,3:0|2:0,2:0:0:0:
24,133,81677,1,2,3:2:0:0:
47,168,81771,2,0,P|74:175|99:186,1,56.25,8|0,2:3|3:0,2:0:0:0:
175,136,81958,1,2,2:3:0:0:
234,274,82146,6,0,P|211:359|204:411,1,112.5,0|0,3:0|2:0,2:0:0:0:
126,361,82521,1,8,2:3:0:0:
152,251,82708,1,2,2:0:0:0:
317,285,82896,6,0,P|384:272|404:214,1,112.5,0|0,3:0|2:0,2:0:0:0:
461,182,83177,1,2,3:2:0:0:
492,208,83271,2,0,P|483:235|479:264,1,56.25,8|0,2:3|2:0,2:0:0:0:
512,345,83458,1,2,2:0:0:0:
512,345,83552,1,8,2:3:0:0:
512,345,83646,2,0,P|441:362|396:386,1,112.5,0|0,3:0|2:0,2:0:0:0:
256,327,84021,2,0,P|283:280|265:228,1,112.5,8|0,2:3|2:0,2:0:0:0:
237,154,84302,1,8,2:3:0:0:
201,180,84396,6,0,P|146:171|116:126,1,112.5,2|0,2:0|2:0,2:0:0:0:
44,110,84677,1,0,3:0:0:0:
32,133,84771,1,10,2:3:0:0:
99,236,84958,2,0,P|72:227|44:222,1,56.25,0|8,3:0|2:3,2:0:0:0:
44,222,85146,1,2,2:0:0:0:
120,346,85333,5,8,2:3:0:0:
132,306,85427,1,8,2:3:0:0:
165,280,85521,1,8,2:3:0:0:
206,275,85614,1,8,2:3:0:0:
243,294,85708,2,0,P|254:321|259:354,1,46.875,8|8,2:3|2:3,2:0:0:0:
326,382,85896,5,4,2:3:0:0:
468,305,86083,2,0,L|508:296,3,31.25,8|8|8|6,2:3|2:3|2:3|2:3,2:0:0:0:
308,204,86458,2,0,L|268:195,3,31.25,8|8|8|6,2:3|2:3|2:3|2:3,2:0:0:0:
463,100,86833,1,0,3:0:0:0:
483,125,86927,1,0,3:0:0:0:
476,154,87021,2,0,P|418:127|345:123,1,112.5,6|0,2:3|2:0,2:0:0:0:
312,65,87302,1,10,2:3:0:0:
281,90,87396,5,0,3:0:0:0:
281,90,87489,1,0,3:0:0:0:
119,40,87677,2,0,P|129:67|134:94,1,56.25,2|8,3:2|0:3,2:0:0:0:
59,141,87864,1,0,3:0:0:0:
59,141,87958,1,2,2:0:0:0:
171,264,88146,6,0,P|242:247|304:243,1,112.5,0|0,3:0|2:0,2:0:0:0:
137,181,88521,1,8,2:3:0:0:
247,160,88708,1,0,2:0:0:0:
253,152,88802,1,8,2:3:0:0:
259,144,88896,6,0,P|322:154|334:224,1,112.5,0|0,3:0|2:0,2:0:0:0:
418,196,89177,2,0,P|411:222|405:255,1,56.25,2|8,3:2|2:3,2:0:0:0:
466,305,89364,1,0,2:0:0:0:
466,305,89458,1,2,2:0:0:0:
321,384,89646,6,0,P|258:374|263:283,1,168.75,2|0,3:2|2:0,2:0:0:0:
333,307,90021,2,0,P|250:318|193:335,1,112.5,8|0,2:3|2:0,2:0:0:0:
99,384,90396,5,0,3:0:0:0:
0,283,90583,1,8,2:3:0:0:
0,283,90677,1,2,3:2:0:0:
128,211,90864,1,0,2:0:0:0:
128,211,90958,1,10,2:3:0:0:
22,97,91146,5,8,2:3:0:0:
99,22,91333,2,0,P|130:31|154:32,1,46.875,8|8,2:1|2:3,2:0:0:0:
166,59,91521,5,8,2:3:0:0:
240,135,91708,2,0,P|271:126|295:125,1,46.875,8|0,2:3|2:0,2:0:0:0:
336,61,91896,5,0,3:0:0:0:
350,82,91989,1,10,2:3:0:0:
377,85,92083,1,0,3:0:0:0:
478,0,92271,2,0,P|468:28|450:122,1,112.5,14|0,2:3|2:0,2:0:0:0:
392,161,92552,1,8,2:3:0:0:
394,200,92646,6,0,P|430:246|496:245,1,112.5,0|0,3:0|2:0,2:0:0:0:
425,344,93021,1,8,2:3:0:0:
338,292,93208,1,2,2:0:0:0:
208,383,93396,6,0,P|163:353|166:299,1,112.5,0|0,3:0|2:0,2:0:0:0:
130,232,93677,2,0,P|160:222|190:208,1,56.25,2|8,3:2|2:3,2:0:0:0:
249,254,93864,1,0,3:0:0:0:
242,272,93958,1,2,2:0:0:0:
55,191,94146,6,0,P|39:118|18:68,1,112.5,0|0,3:0|2:0,2:0:0:0:
104,35,94521,2,0,P|123:87|133:143,1,112.5,8|0,2:3|2:0,2:0:0:0:
319,214,94896,6,0,P|367:192|360:124,1,112.5,0|0,3:0|2:0,2:0:0:0:
312,90,95177,2,0,P|285:95|255:108,1,56.25,2|8,3:2|2:3,2:0:0:0:
192,68,95364,1,0,2:0:0:0:
199,54,95458,1,2,2:0:0:0:
437,1,95646,6,0,P|462:58|452:125,1,112.5,0|0,3:0|2:0,2:0:0:0:
378,123,96021,2,0,P|353:66|363:-1,1,112.5,8|0,2:3|2:0,2:0:0:0:
281,0,96302,1,8,2:3:0:0:
266,11,96396,5,0,3:0:0:0:
317,171,96583,2,0,P|293:176|259:191,1,56.25,8|0,2:1|2:0,2:0:0:0:
149,225,96771,5,8,2:3:0:0:
98,65,96958,2,0,P|122:60|156:45,1,56.25,8|8,2:1|2:3,2:0:0:0:
151,47,97146,1,0,3:0:0:0:
26,171,97333,5,8,2:3:0:0:
19,182,97427,1,8,2:3:0:0:
12,193,97521,1,8,2:3:0:0:
47,215,97614,1,8,2:3:0:0:
72,248,97708,1,8,2:3:0:0:
84,289,97802,1,8,2:3:0:0:
81,331,97896,6,0,P|171:348|201:363,1,112.5,4|0,3:0|2:0,2:0:0:0:
253,316,98177,1,2,3:2:0:0:
419,369,98364,1,0,3:0:0:0:
452,346,98458,2,0,P|445:321|442:281,1,56.25,2|8,2:0|2:3,2:0:0:0:
484,222,98646,6,0,P|472:159|400:155,1,140.625,0|0,3:0|2:0,2:0:0:0:
357,93,99021,2,0,P|294:105|290:177,1,140.625,10|0,2:3|2:0,2:0:0:0:
334,236,99396,6,0,P|265:222|195:212,1,112.5,0|0,3:0|2:0,2:0:0:0:
177,157,99677,1,2,3:2:0:0:
58,255,99864,1,0,3:0:0:0:
15,234,99958,2,0,P|9:206|-4:173,1,56.25,2|8,2:3|2:3,2:0:0:0:
41,113,100146,6,0,P|103:107|126:23,1,140.625,0|0,3:0|2:0,2:0:0:0:
199,7,100521,2,0,P|249:43|227:127,1,140.625,10|0,2:3|2:0,2:0:0:0:
290,174,100896,6,0,P|355:185|407:200,1,112.5,0|0,3:0|2:0,2:0:0:0:
478,158,101177,1,2,3:2:0:0:
390,32,101364,1,0,3:0:0:0:
355,58,101458,2,0,P|363:82|370:118,1,56.25,2|0,2:0|2:0,2:0:0:0:
406,202,101646,6,0,P|355:235|363:312,1,140.625,0|0,3:0|2:0,2:0:0:0:
437,333,102021,2,0,P|373:342|292:368,1,140.625,10|0,2:3|2:0,2:0:0:0:
226,330,102396,5,0,3:0:0:0:
86,384,102583,1,0,2:0:0:0:
86,384,102677,2,0,P|91:360|110:313,1,56.25,2|8,3:2|2:3,2:0:0:0:
14,252,102864,1,0,2:0:0:0:
14,252,102958,1,10,2:3:0:0:
153,178,103146,5,0,3:0:0:0:
153,178,103239,1,8,2:3:0:0:
153,178,103333,2,0,P|159:205|168:231,1,56.25,2|8,2:0|2:3,2:0:0:0:
93,254,103521,2,0,P|86:226|77:200,1,56.25,0|0,3:0|2:0,2:0:0:0:
103,51,103708,1,10,2:3:0:0:
78,75,103802,1,8,2:3:0:0:
60,103,103896,6,0,P|92:93|213:68,2,150,4|12|12,3:0|2:3|2:3,2:0:0:0:
307,87,104646,1,8,2:3:0:0:
343,72,104739,1,8,2:3:0:0:
340,32,104833,1,8,2:3:0:0:
302,24,104927,1,8,2:3:0:0:
281,57,105021,2,0,P|290:99|328:179,1,112.5,12|0,2:3|2:0,2:0:0:0:
400,214,105302,1,8,2:3:0:0:
362,228,105396,6,0,P|339:266|351:340,1,112.5,0|0,3:0|2:0,2:0:0:0:
409,382,105677,2,0,P|437:371|471:368,1,56.25,2|8,3:2|2:3,2:0:0:0:
490,298,105864,1,0,3:0:0:0:
512,307,105958,1,2,2:0:0:0:
289,232,106146,6,0,P|225:265|232:330,1,140.625,0|0,3:0|2:0,2:0:0:0:
165,370,106521,2,0,P|107:337|113:271,1,140.625,8|0,2:3|2:0,2:0:0:0:
65,207,106896,6,0,P|134:192|196:185,1,112.5,0|0,3:0|2:0,2:0:0:0:
240,139,107177,2,0,P|245:111|256:85,1,56.25,2|8,2:0|2:3,2:0:0:0:
203,26,107364,1,0,3:0:0:0:
187,20,107458,1,2,2:0:0:0:
17,91,107646,6,0,P|14:160|79:195,1,140.625,0|0,3:0|2:0,2:0:0:0:
136,153,108021,2,0,P|181:158|238:172,1,93.75,8|0,2:3|2:0,2:0:0:0:
305,145,108302,1,8,2:3:0:0:
344,165,108396,6,0,P|356:121|366:107,1,46.875,2|0,3:2|2:0,2:0:0:0:
352,37,108583,1,8,2:3:0:0:
352,37,108677,1,8,2:3:0:0:
352,37,108771,2,0,P|373:45|396:50,1,46.875,10|8,2:3|2:3,2:0:0:0:
473,97,108958,1,8,2:3:0:0:
473,97,109052,1,8,2:3:0:0:
473,97,109146,6,0,P|477:74|486:52,1,46.875,10|8,2:3|2:3,2:0:0:0:
433,166,109333,1,8,2:3:0:0:
433,166,109427,1,8,2:3:0:0:
433,166,109521,2,0,P|456:171|478:180,1,46.875,10|8,2:3|2:3,2:0:0:0:
372,250,109708,1,8,2:3:0:0:
384,284,109802,1,8,2:3:0:0:
394,319,109896,6,0,P|340:335|280:357,1,112.5,4|0,3:0|2:0,2:0:0:0:
173,318,110177,1,2,3:2:0:0:
185,289,110271,6,0,P|229:273|274:260,1,93.75,12|0,2:3|2:0,2:0:0:0:
319,172,110552,1,2,3:2:0:0:
296,164,110646,6,0,P|255:175|215:189,1,75,12|0,2:3|2:0,2:0:0:0:
135,143,110927,1,2,3:2:0:0:
148,120,111021,6,0,P|174:111|201:104,1,56.2500000000001,12|0,2:3|2:0,2:0:0:0:
296,39,111302,1,2,3:2:0:0:
327,20,111396,6,0,P|366:48|363:120,1,112.5,4|0,3:0|2:0,2:0:0:0:
400,180,111677,1,2,3:2:0:0:
437,201,111771,2,0,P|468:190|508:183,1,56.25,8|0,2:3|2:0,2:0:0:0:
506,111,111958,1,2,2:0:0:0:
385,255,112146,6,0,P|393:319|427:367,1,112.5,0|0,3:0|2:0,2:0:0:0:
301,279,112521,1,8,2:3:0:0:
334,383,112708,2,0,P|308:376|274:370,1,56.25,2|8,2:0|2:3,2:0:0:0:
162,381,112896,6,0,P|211:339|184:285,1,112.5,0|0,3:0|2:0,2:0:0:0:
155,232,113177,1,2,3:2:0:0:
128,263,113271,2,0,P|98:268|62:280,1,56.25,8|0,2:3|2:0,2:0:0:0:
4,225,113458,1,2,2:0:0:0:
105,124,113646,6,0,P|161:140|229:170,1,112.5,0|0,3:0|2:0,2:0:0:0:
247,73,114021,2,0,P|191:57|123:27,1,112.5,10|0,2:3|2:0,2:0:0:0:
57,34,114302,1,8,2:3:0:0:
41,59,114396,5,8,3:1:0:0:
77,197,114583,1,10,2:3:0:0:
77,197,114677,1,8,3:1:0:0:
113,335,114864,1,0,2:0:0:0:
113,335,114958,1,10,2:3:0:0:
19,281,115146,5,8,2:3:0:0:
163,240,115333,2,0,P|170:270|181:297,1,46.875,8|8,2:1|2:3,2:0:0:0:
197,360,115521,5,0,3:0:0:0:
341,319,115708,2,0,P|333:296|328:273,1,46.875,8|0,2:3|2:0,2:0:0:0:
307,198,115896,5,0,3:0:0:0:
332,189,115989,1,8,2:3:0:0:
344,165,116083,1,0,3:0:0:0:
461,218,116271,2,0,P|442:162|427:96,1,112.5,12|0,2:3|2:0,2:0:0:0:
463,39,116552,1,8,2:3:0:0:
434,6,116646,6,0,P|378:1|339:44,1,112.5,0|0,3:0|2:0,2:0:0:0:
263,107,117021,1,8,2:3:0:0:
169,74,117208,1,0,2:0:0:0:
68,168,117396,6,0,P|64:237|111:272,1,112.5,0|0,3:0|2:0,2:0:0:0:
158,309,117677,2,0,P|186:299|217:295,1,56.25,2|8,3:2|2:3,2:0:0:0:
249,231,117864,1,0,3:0:0:0:
249,231,117958,1,2,2:0:0:0:
375,375,118146,6,0,P|312:361|255:352,1,112.5,0|0,3:0|2:0,2:0:0:0:
419,304,118521,2,0,P|356:290|299:281,1,112.5,8|0,2:3|2:0,2:0:0:0:
88,367,118896,6,0,P|39:330|51:269,1,112.5,0|0,3:0|2:0,2:0:0:0:
11,213,119177,2,0,P|38:207|65:198,1,56.25,2|8,3:2|2:3,2:0:0:0:
151,225,119364,1,0,2:0:0:0:
151,225,119458,1,2,2:0:0:0:
250,118,119646,6,0,P|244:39|167:19,1,168.75,0|0,3:0|2:0,2:0:0:0:
175,93,120021,2,0,P|228:77|283:64,1,112.5,10|0,2:3|2:0,2:0:0:0:
417,3,120396,6,0,B|450:11|448:25|484:36,3,75,0|0|0|0,2:0|2:0|2:0|2:0,2:0:0:0:
512,0,121964,1,0,2:0:0:0:
