osu file format v14

[General]
AudioFilename: audio.mp3
AudioLeadIn: 0
PreviewTime: 73896
Countdown: 0
SampleSet: Soft
StackLeniency: 0.4
Mode: 0
LetterboxInBreaks: 0
WidescreenStoryboard: 0

[Editor]
DistanceSpacing: 0.8
BeatDivisor: 4
GridSize: 8
TimelineZoom: 1.7

[Metadata]
Title:Usouso Doki
TitleUnicode:うそうそ時
Artist:Inoue Bona
ArtistUnicode:井上ぼな
Creator:KnightC0re
Version:Expert
Source:太鼓の達人
Tags:hakashii Taiko no Tatsujin Namco Original ナムコオリジナル モモイロVer. Momoiro Version かたぬき Katanuki rhythm video game pop japanese
BeatmapID:3160752
BeatmapSetID:1546475

[Difficulty]
HPDrainRate:5
CircleSize:4.5
OverallDifficulty:8
ApproachRate:9.2
SliderMultiplier:1.7
SliderTickRate:1

[Events]
//Background and Video events
0,0,"50726712_p0e.png",0,0
//Break Periods
//Storyboard Layer 0 (Background)
//Storyboard Layer 1 (Fail)
//Storyboard Layer 2 (Pass)
//Storyboard Layer 3 (Foreground)
//Storyboard Layer 4 (Overlay)
//Storyboard Sound Samples

[TimingPoints]
396,375,4,2,1,20,1,0
396,-400,4,2,1,20,0,0
771,-400,4,2,1,5,0,0
958,-400,4,2,1,20,0,0
1333,-400,4,2,1,5,0,0
1521,-400,4,2,1,20,0,0
1896,-400,4,2,1,5,0,0
2083,-400,4,2,1,20,0,0
2458,-400,4,2,1,5,0,0
2646,-400,4,2,1,20,0,0
2927,-400,4,2,1,5,0,0
3021,-400,4,2,1,20,0,0
3208,-400,4,2,1,5,0,0
3302,-200,4,2,1,30,0,0
3677,-200,4,2,1,5,0,0
3771,-200,4,2,1,30,0,0
4239,-200,4,2,1,5,0,0
4333,-200,4,2,1,30,0,0
4802,-200,4,2,1,5,0,0
4896,-200,4,2,1,30,0,0
5646,-200,4,2,1,40,0,0
6021,-200,4,2,1,65,0,0
6489,-100,4,2,1,65,0,0
6771,-66.6666666666667,4,2,1,65,0,0
7052,-100,4,2,1,65,0,0
7333,-66.6666666666667,4,2,1,65,0,0
7614,-100,4,2,1,65,0,0
7896,-66.6666666666667,4,2,1,65,0,0
8083,-100,4,2,1,65,0,0
8271,-66.6666666666667,4,2,1,65,0,0
8646,-100,4,2,1,65,0,0
8833,-66.6666666666667,4,2,1,65,0,0
9021,-100,4,2,1,65,0,0
9208,-66.6666666666667,4,2,1,65,0,0
9489,-100,4,2,1,65,0,0
9771,-66.6666666666667,4,2,1,65,0,0
10052,-100,4,2,1,65,0,0
10333,-66.6666666666667,4,2,1,65,0,0
11083,-100,4,2,1,65,0,0
11271,-66.6666666666667,4,2,1,65,0,0
11552,-66.6666666666667,4,2,2,65,0,0
11646,-66.6666666666667,4,2,3,65,0,0
12021,-200,4,2,1,50,0,0
12396,-200,4,2,2,30,0,0
13146,-200,4,2,1,30,0,0
13333,-200,4,2,1,65,0,0
13708,-200,4,2,2,50,0,0
13896,-133.333333333333,4,2,1,40,0,0
15583,-100,4,2,1,60,0,0
15958,-100,4,2,1,40,0,0
16521,-133.333333333333,4,2,1,40,0,0
16896,-100,4,2,1,40,0,0
18208,-133.333333333333,4,2,1,40,0,0
18583,-100,4,2,1,60,0,0
18958,-100,4,2,1,40,0,0
20083,-100,4,2,1,20,0,0
20177,-100,4,2,1,25,0,0
20271,-100,4,2,1,30,0,0
20364,-100,4,2,1,35,0,0
20458,-100,4,2,1,40,0,0
20552,-100,4,2,1,45,0,0
20646,-100,4,2,1,40,0,0
21021,-100,4,2,2,40,0,0
21146,-100,4,2,1,40,0,0
21396,-133.333333333333,4,2,1,40,0,0
22521,-100,4,2,1,40,0,0
24677,-100,4,2,2,40,0,0
24958,-100,4,2,1,40,0,0
25333,-133.333333333333,4,2,1,50,0,0
25708,-133.333333333333,4,2,1,40,0,0
26646,-100,4,2,1,60,0,0
27021,-100,4,2,1,40,0,0
27208,-133.333333333333,4,2,1,40,0,0
28146,-100,4,2,1,40,0,0
28896,-133.333333333333,4,2,1,40,0,0
29646,-100,4,2,1,60,0,0
30021,-100,4,2,1,40,0,0
30208,-133.333333333333,4,2,1,40,0,0
33021,-100,4,2,1,40,0,0
34146,-133.333333333333,4,2,1,40,0,0
34521,-100,4,2,1,40,0,0
34896,-133.333333333333,4,2,1,40,0,0
37646,-133.333333333333,4,2,2,40,0,0
37771,-133.333333333333,4,2,3,40,0,0
37896,-133.333333333333,4,2,1,40,0,0
38646,-100,4,2,1,40,0,0
39208,-133.333333333333,4,2,1,20,0,0
39489,-133.333333333333,4,2,1,30,0,0
39677,-133.333333333333,4,2,1,40,0,0
39864,-133.333333333333,4,2,1,50,0,0
40052,-133.333333333333,4,2,1,60,0,0
40146,-133.333333333333,4,2,1,40,0,0
42208,-66.6666666666667,4,2,1,65,0,0
42583,-100,4,2,1,60,0,0
42771,-100,4,2,1,40,0,0
43896,-133.333333333333,4,2,1,40,0,0
44896,-133.333333333333,4,2,2,40,0,0
45271,-133.333333333333,4,2,1,55,0,0
45396,-133.333333333333,4,2,1,70,0,0
45646,-133.333333333333,4,2,1,60,0,0
45896,-133.333333333333,4,2,1,50,0,0
46146,-133.333333333333,4,2,1,40,0,0
46521,-100,4,2,1,40,0,0
46896,-133.333333333333,4,2,1,40,0,0
48271,-133.333333333333,4,2,1,50,0,0
48396,-133.333333333333,4,2,1,60,0,0
48646,-133.333333333333,4,2,1,50,0,0
48896,-133.333333333333,4,2,1,40,0,0
49146,-133.333333333333,4,2,2,65,0,0
49396,-133.333333333333,4,2,3,65,0,0
49646,-133.333333333333,4,2,1,65,0,0
49896,-100,4,2,1,55,0,0
50833,-66.6666666666667,4,2,1,75,0,0
51021,-66.6666666666667,4,2,1,55,0,0
51396,-133.333333333333,4,2,1,55,0,0
51771,-100,4,2,1,55,0,0
51958,-133.333333333333,4,2,1,55,0,0
52333,-100,4,2,1,55,0,0
53833,-66.6666666666667,4,2,1,75,0,0
54021,-66.6666666666667,4,2,1,55,0,0
54396,-133.333333333333,4,2,1,55,0,0
54771,-100,4,2,1,55,0,0
55708,-100,4,2,2,55,0,0
55802,-100,4,2,3,55,0,0
55896,-100,4,2,1,55,0,0
56896,-100,4,2,2,40,0,0
57146,-100,4,2,1,40,0,0
57396,-100,4,2,1,65,0,0
57646,-100,4,2,1,55,0,0
57896,-100,4,2,1,45,0,0
58146,-133.333333333333,4,2,1,55,0,0
58521,-100,4,2,1,55,0,0
58708,-100,4,2,2,55,0,0
58896,-100,4,2,1,55,0,0
59271,-66.6666666666667,4,2,1,65,0,0
60489,-66.6666666666667,4,2,2,65,0,0
60677,-66.6666666666667,4,2,1,65,0,0
60864,-66.6666666666667,4,2,3,65,0,0
61052,-66.6666666666667,4,2,1,65,0,0
61521,-100,4,2,2,65,0,0
61708,-100,4,2,3,65,0,0
61896,-80,4,2,1,50,0,0
63771,-100,4,2,1,50,0,0
64896,-80,4,2,1,50,0,0
67333,-80,4,2,2,50,0,0
67521,-80,4,2,1,50,0,0
67614,-80,4,2,3,50,0,0
67896,-80,4,2,1,70,0,0
68271,-80,4,2,1,50,0,0
69583,-100,4,2,1,50,0,0
70896,-80,4,2,1,65,0,0
72208,-80,4,2,1,50,0,0
72958,-80,4,2,2,50,0,0
73083,-80,4,2,3,50,0,0
73146,-80,4,2,1,50,0,0
73333,-80,4,2,1,70,0,0
73521,-80,4,2,1,60,0,0
73896,-80,4,2,1,75,0,1
74271,-66.6666666666667,4,2,1,75,0,1
74646,-100,4,2,1,75,0,1
75396,-80,4,2,1,75,0,1
75677,-66.6666666666667,4,2,1,75,0,1
76146,-100,4,2,1,75,0,1
76896,-80,4,2,1,75,0,1
77271,-66.6666666666667,4,2,1,75,0,1
78021,-100,4,2,1,75,0,1
78771,-80,4,2,1,75,0,1
78958,-66.6666666666667,4,2,1,75,0,1
79521,-100,4,2,1,75,0,1
79708,-66.6666666666667,4,2,1,75,0,1
79896,-66.6666666666667,4,2,2,75,0,1
79989,-66.6666666666667,4,2,1,75,0,1
80083,-66.6666666666667,4,2,3,75,0,1
80271,-66.6666666666667,4,2,1,75,0,1
80646,-100,4,2,1,75,0,1
81396,-80,4,2,1,75,0,1
81677,-66.6666666666667,4,2,1,75,0,1
82146,-100,4,2,1,75,0,1
82896,-80,4,2,1,75,0,1
83271,-66.6666666666667,4,2,1,75,0,1
83646,-100,4,2,1,75,0,1
84396,-66.6666666666667,4,2,1,75,0,1
84771,-100,4,2,1,75,0,1
85146,-57.1428571428571,4,2,1,75,0,1
85521,-57.1428571428571,4,2,2,75,0,1
85708,-57.1428571428571,4,2,3,75,0,0
85896,-66.6666666666667,4,2,1,75,0,1
86083,-66.6666666666667,4,2,2,75,0,1
86271,-80,4,2,1,75,0,1
86458,-80,4,2,2,75,0,1
86646,-100,4,2,1,75,0,1
87021,-66.6666666666667,4,2,1,75,0,1
88146,-100,4,2,1,75,0,1
88896,-80,4,2,1,75,0,1
89271,-66.6666666666667,4,2,1,75,0,1
89646,-80,4,2,1,75,0,1
90396,-100,4,2,1,75,0,1
90771,-80,4,2,1,75,0,1
90958,-66.6666666666667,4,2,1,75,0,1
91146,-100,4,2,2,75,0,1
91333,-66.6666666666667,4,2,1,75,0,1
91708,-66.6666666666667,4,2,2,75,0,1
91896,-66.6666666666667,4,2,1,75,0,1
92646,-100,4,2,1,75,0,1
93396,-80,4,2,1,75,0,1
93677,-66.6666666666667,4,2,1,75,0,1
94146,-100,4,2,1,75,0,1
94896,-80,4,2,1,75,0,1
95271,-66.6666666666667,4,2,1,75,0,1
95646,-80,4,2,1,75,0,1
96396,-100,4,2,1,75,0,1
96771,-80,4,2,1,75,0,1
97146,-66.6666666666667,4,2,1,75,0,1
97802,-66.6666666666667,4,2,1,75,0,0
97896,-100,4,2,1,75,0,1
98177,-66.6666666666667,4,2,1,75,0,1
98646,-100,4,2,1,75,0,1
99677,-66.6666666666667,4,2,1,75,0,1
100146,-100,4,2,1,75,0,1
101177,-66.6666666666667,4,2,1,75,0,1
101646,-100,4,2,1,75,0,1
102771,-66.6666666666667,4,2,1,75,0,1
103521,-100,4,2,1,75,0,1
103708,-66.6666666666667,4,2,1,75,0,1
103896,-57.1428571428571,4,2,1,90,0,1
104646,-57.1428571428571,4,2,2,75,0,1
104833,-57.1428571428571,4,2,3,75,0,1
105021,-57.1428571428571,4,2,1,75,0,1
105396,-100,4,2,1,75,0,1
105677,-66.6666666666667,4,2,1,75,0,1
106146,-100,4,2,1,75,0,1
107177,-66.6666666666667,4,2,1,75,0,1
107646,-100,4,2,1,75,0,1
108396,-66.6666666666667,4,2,1,75,0,1
108864,-66.6666666666667,4,2,1,40,0,1
109146,-66.6666666666667,4,2,1,75,0,1
109239,-66.6666666666667,4,2,1,40,0,1
109521,-66.6666666666667,4,2,1,75,0,1
109614,-66.6666666666667,4,2,1,40,0,1
109708,-66.6666666666667,4,2,1,50,0,1
109802,-66.6666666666667,4,2,1,60,0,0
109896,-100,4,2,1,75,0,1
110271,-111.111111111111,4,2,1,75,0,1
110646,-125,4,2,1,75,0,1
111021,-142.857142857143,4,2,1,75,0,1
111396,-80,4,2,1,75,0,1
111771,-66.6666666666667,4,2,1,75,0,1
112146,-100,4,2,1,75,0,1
112896,-80,4,2,1,75,0,1
113271,-66.6666666666667,4,2,1,75,0,1
113646,-100,4,2,1,75,0,1
114677,-66.6666666666667,4,2,1,75,0,1
115146,-100,4,2,2,75,0,1
115333,-100,4,2,1,75,0,1
115614,-100,4,2,2,75,0,1
115708,-66.6666666666667,4,2,2,75,0,1
115896,-66.6666666666667,4,2,1,75,0,1
116646,-100,4,2,1,75,0,1
117396,-80,4,2,1,75,0,1
117677,-66.6666666666667,4,2,1,75,0,1
118146,-100,4,2,1,75,0,1
118896,-80,4,2,1,75,0,1
119271,-66.6666666666667,4,2,1,75,0,1
119646,-100,4,2,1,75,0,1
120021,-66.6666666666667,4,2,1,75,0,1
120396,392.156862745098,4,2,1,45,1,0
122160,392.156862745098,4,2,1,20,1,0
122160,-400,4,2,1,20,0,0
122552,-400,4,2,1,5,0,0
122748,-400,4,2,1,20,0,0
123140,-400,4,2,1,5,0,0
123336,-400,4,2,1,20,0,0
123728,-400,4,2,1,5,0,0
123924,-400,4,2,1,20,0,0
124316,-400,4,2,1,5,0,0
124512,375,4,2,1,20,1,0
124512,-400,4,2,1,20,0,0
124793,-400,4,2,1,5,0,0
124887,-400,4,2,1,20,0,0
125168,-400,4,2,1,5,0,0
125262,375,4,2,1,15,1,0
125262,-400,4,2,1,15,0,0
125637,-400,4,2,1,5,0,0
125824,-400,4,2,1,15,0,0
126199,-400,4,2,1,5,0,0
126387,-400,4,2,1,15,0,0
126762,-400,4,2,1,5,0,0
126949,-400,4,2,1,15,0,0
127324,-400,4,2,1,5,0,0
127512,-400,4,2,1,10,0,0
127793,-400,4,2,1,5,0,0
127887,-400,4,2,1,10,0,0
128262,-400,4,2,1,5,0,0

[Colours]
Combo1 : 236,236,0
Combo2 : 249,124,0

[HitObjects]
438,340,396,6,0,P|424:319|399:320,1,53.125
496,296,958,2,0,P|488:263|485:235,1,53.125
419,223,1521,2,0,P|452:231|480:234,1,53.125
332,299,2083,2,0,P|341:274|363:260,1,53.125
301,356,2646,2,0,P|294:330|290:319,1,31.875
381,377,3021,2,0,P|379:366|377:356,1,21.25
455,360,3302,1,4,0:3:0:0:
462,350,3396,6,0,P|483:352|507:392,1,63.75,4|0,0:3|3:0,0:0:0:0:
406,291,3771,1,8,0:3:0:0:
413,294,3864,1,8,0:3:0:0:
424,288,3958,2,0,P|463:281|491:272,1,63.75,4|0,0:3|0:0,0:0:0:0:
381,225,4333,1,8,0:3:0:0:
295,225,4521,2,0,P|334:232|362:241,1,63.75
229,188,4896,6,0,P|224:170|225:156,1,21.25,4|0,0:3|0:0,0:0:0:0:
163,245,5083,2,0,P|164:234|168:224,1,21.25,4|0,0:3|0:0,0:0:0:0:
118,170,5271,2,0,P|113:152|114:138,1,21.25,4|0,0:3|0:0,0:0:0:0:
52,227,5458,2,0,P|53:216|57:206,1,21.25,4|0,0:3|0:0,0:0:0:0:
7,152,5646,5,8,3:0:0:0:
1,137,5739,1,8,0:3:0:0:
1,121,5833,2,0,P|3:109|16:96,1,21.25,8|8,0:3|0:3,0:0:0:0:
101,43,6021,5,12,0:3:0:0:
169,52,6114,1,8,0:3:0:0:
237,61,6208,1,8,0:3:0:0:
305,70,6302,1,8,0:3:0:0:
374,52,6396,5,4,3:0:0:0:
382,35,6489,2,0,P|378:16|356:-4,1,42.5,2|0,0:0|0:0,0:0:0:0:
338,136,6677,1,0,0:0:0:0:
407,157,6771,2,0,P|441:139|453:97,1,63.7500024318696,14|0,0:3|0:0,0:0:0:0:
491,43,6958,5,0,3:0:0:0:
481,50,7052,2,0,P|474:70|477:95,1,42.5,2|0,0:0|0:0,0:0:0:0:
398,165,7239,1,0,3:0:0:0:
398,240,7333,2,0,P|424:271|470:271,1,63.7500024318696,10|0,0:3|0:0,0:0:0:0:
497,372,7521,5,0,3:0:0:0:
494,358,7614,2,0,P|473:341|444:348,1,42.5,10|0,0:3|0:0,0:0:0:0:
385,373,7802,1,0,3:0:0:0:
338,323,7896,2,0,P|308:320|276:340,1,63.7500024318696,10|0,0:3|0:0,0:0:0:0:
191,382,8083,6,0,P|205:359|204:343,1,42.5,0|0,3:0|0:0,0:0:0:0:
160,250,8271,2,0,P|137:287|140:315,1,63.7500024318696,10|0,0:3|0:0,0:0:0:0:
103,375,8458,1,0,3:0:0:0:
44,347,8552,1,8,0:3:0:0:
23,366,8646,6,0,P|40:359|64:355,1,42.5,2|0,3:1|0:0,0:0:0:0:
230,255,8833,2,0,P|181:247|153:245,1,63.7500024318696,10|0,0:3|0:0,0:0:0:0:
0,257,9021,6,0,P|13:284|25:281,1,42.5,2|0,3:1|0:0,0:0:0:0:
239,247,9208,2,0,P|190:239|162:237,1,63.7500024318696,10|0,0:3|0:0,0:0:0:0:
54,195,9396,5,0,3:0:0:0:
67,199,9489,2,0,P|90:188|95:167,1,42.5,2|0,0:0|0:0,0:0:0:0:
49,24,9677,1,0,0:0:0:0:
3,78,9771,2,0,P|14:116|48:127,1,63.7500024318696,10|0,0:3|0:0,0:0:0:0:
110,97,9958,5,0,3:0:0:0:
116,89,10052,2,0,P|134:78|155:79,1,42.5,10|0,0:3|0:0,0:0:0:0:
255,166,10239,1,0,3:0:0:0:
315,203,10333,2,0,P|352:196|373:159,1,63.7500024318696,10|0,0:3|0:0,0:0:0:0:
442,52,10521,5,2,0:1:0:0:
408,95,10614,1,10,0:3:0:0:
457,140,10708,1,2,0:1:0:0:
448,162,10802,1,8,0:3:0:0:
461,202,10896,1,2,0:1:0:0:
452,224,10990,1,8,0:3:0:0:
480,264,11083,6,0,P|471:298|471:314,1,42.5,0|0,3:0|0:0,0:0:0:0:
304,329,11271,2,0,P|298:295|376:280,1,127.500004863739,4|0,0:3|0:0,0:0:0:0:
406,334,11552,1,8,0:3:0:0:
400,352,11646,1,8,0:3:0:0:
189,286,11833,2,0,P|161:286|145:319,1,63.7500024318696,8|0,0:3|0:0,0:0:0:0:
103,384,12021,6,0,P|120:257|149:131,1,255,8|0,0:1|1:0,0:0:0:0:
57,38,13333,5,4,0:3:0:0:
2,65,13427,1,8,0:3:0:0:
0,125,13521,1,8,0:3:0:0:
44,162,13614,1,8,0:3:0:0:
69,189,13708,1,8,0:3:0:0:
63,201,13802,1,8,0:3:0:0:
13,260,13896,6,0,P|46:249|106:236,1,95.6250036478044,4|0,3:0|0:0,0:0:0:0:
175,225,14271,1,0,3:0:0:0:
350,191,14646,2,0,P|334:129|327:65,1,127.500004863739,8|0,0:3|1:0,0:0:0:0:
385,0,15208,1,0,1:0:0:0:
385,0,15302,1,0,1:0:0:0:
385,0,15396,1,0,1:0:0:0:
246,67,15583,6,0,B|223:69|223:69|240:57,1,42.5,2|0,0:2|0:0,0:0:0:0:
498,3,15958,5,0,3:0:0:0:
428,130,16146,1,8,0:3:0:0:
490,180,16333,1,8,0:1:0:0:
487,184,16521,2,0,P|439:175|392:171,1,95.6250036478044,0|0,0:0|1:0,0:0:0:0:
334,210,16896,6,0,P|284:166|311:117,1,127.5,0|0,1:0|0:0,0:0:0:0:
306,119,17271,1,0,3:0:0:0:
502,277,17646,1,8,0:3:0:0:
502,277,18021,1,0,1:0:0:0:
427,288,18208,2,0,L|422:252,1,31.8750012159348,0|0,1:0|1:0,0:0:0:0:
352,299,18396,1,0,0:0:0:0:
209,212,18583,6,0,B|217:196|217:196|214:224,1,42.5,2|0,0:0|0:0,0:0:0:0:
58,384,18958,6,0,P|78:375|107:368,1,42.5,8|0,3:1|0:0,0:0:0:0:
202,351,19146,2,0,P|154:344|104:330,1,85,8|0,0:3|3:0,0:0:0:0:
77,252,19521,1,0,0:0:0:0:
81,242,19614,1,8,0:3:0:0:
84,231,19708,1,8,0:3:0:0:
121,92,19896,5,0,3:0:0:0:
17,28,20083,1,8,3:1:0:0:
13,47,20177,1,8,0:1:0:0:
28,66,20271,1,8,3:1:0:0:
17,90,20365,1,8,0:1:0:0:
35,115,20458,1,8,3:1:0:0:
19,151,20552,1,8,0:1:0:0:
45,173,20646,6,0,P|72:165|103:161,1,56.6666666666667,8|0,0:3|0:0,0:0:0:0:
159,197,20896,1,0,3:0:0:0:
221,166,21021,1,8,0:3:0:0:
274,211,21146,1,0,3:0:0:0:
355,182,21271,1,8,0:3:0:0:
394,241,21396,6,0,P|383:302|374:374,1,127.500004863739,4|0,0:3|1:0,0:0:0:0:
374,366,21958,1,0,3:0:0:0:
477,187,22146,2,0,P|469:144|512:141,1,95.6250036478044,8|0,0:3|0:0,0:0:0:0:
403,94,22521,2,0,P|369:96|354:11,1,127.500004863739,8|0,0:1|0:0,0:0:0:0:
480,5,22896,6,0,P|411:13|338:30,1,127.5,0|0,3:0|0:0,0:0:0:0:
267,59,23271,1,0,3:0:0:0:
38,0,23646,5,8,0:3:0:0:
151,103,23896,1,0,3:0:0:0:
96,213,24146,1,8,3:1:0:0:
158,292,24396,5,0,1:0:0:0:
72,354,24583,1,0,3:0:0:0:
62,328,24677,1,8,0:3:0:0:
72,317,24771,1,8,0:3:0:0:
228,346,24958,1,0,0:0:0:0:
354,253,25146,5,8,3:1:0:0:
420,286,25333,2,0,L|422:304,1,15.9375006079674,8|0,0:3|0:0,0:0:0:0:
323,119,25521,2,0,L|325:103,1,15.9375006079674,12|0,0:3|0:0,0:0:0:0:
391,70,25708,1,0,3:0:0:0:
512,176,25896,6,0,P|464:184|408:203,1,95.6250036478044,4|0,3:0|0:0,0:0:0:0:
378,182,26271,2,0,P|330:190|274:209,1,95.6250036478044,8|0,3:1|0:0,0:0:0:0:
172,240,26646,6,0,B|175:223|175:223|180:217|180:217|187:189,1,42.5,10|0,0:3|0:0,0:0:0:0:
77,0,27021,5,0,1:0:0:0:
139,41,27208,2,0,L|133:78,1,31.8750012159348,0|0,3:0|0:0,0:0:0:0:
7,334,27583,6,0,L|1:297,1,31.8750012159348,8|0,3:1|0:0,0:0:0:0:
130,203,27864,1,0,0:0:0:0:
132,215,27958,1,0,0:0:0:0:
152,323,28146,2,0,L|143:364,1,42.5,8|0,0:3|0:0,0:0:0:0:
121,384,28333,1,0,0:0:0:0:
262,289,28521,1,0,1:0:0:0:
293,350,28708,2,0,L|284:308,1,42.5,0|0,1:0|0:0,0:0:0:0:
374,225,28896,6,0,P|421:232|466:246,1,95.6250036478044,8|0,3:1|0:0,0:0:0:0:
506,242,29271,2,0,P|461:224|415:211,1,95.6250036478044,8|0,3:1|0:0,0:0:0:0:
233,203,29646,6,0,B|247:199|247:199|250:193|250:193|255:194|255:194|271:192,1,42.5,10|0,0:3|0:0,0:0:0:0:
437,22,30021,5,0,1:0:0:0:
481,80,30208,2,0,L|525:87,1,31.8750012159348,0|0,3:0|0:0,0:0:0:0:
292,44,30583,6,0,L|285:0,1,31.8750012159348,2|0,3:2|0:0,0:0:0:0:
135,139,30958,5,0,1:0:0:0:
47,187,31146,2,0,P|8:173|7:149,1,63.7500024318696,8|8,0:3|3:1,0:0:0:0:
72,89,31521,2,0,P|124:107|176:115,1,95.6250036478044
234,87,31896,5,8,3:1:0:0:
423,17,32271,1,0,1:0:0:0:
384,79,32458,1,2,0:0:0:0:
487,171,32646,2,0,P|483:135|430:127,1,85.0000032424928,12|0,0:3|0:0,0:0:0:0:
396,176,33021,2,0,P|356:183|286:215,1,113.333333333333,8|0,0:1|0:0,0:0:0:0:
224,193,33396,5,0,1:0:0:0:
121,133,33646,1,0,1:0:0:0:
65,218,33896,1,0,1:0:0:0:
0,196,34146,6,0,P|45:184|100:175,1,95.6250036478044,8|0,0:3|0:0,0:0:0:0:
189,122,34521,2,0,P|137:120|142:54,1,127.5,8|0,0:3|0:0,0:0:0:0:
264,30,34896,6,0,P|233:20|201:16,1,63.7500024318696
37,5,35177,1,0,1:0:0:0:
54,30,35271,2,0,P|63:65|69:103,1,63.7500024318696,0|0,1:0|0:0,0:0:0:0:
102,266,35646,5,8,0:3:0:0:
227,239,35896,1,0,3:0:0:0:
263,353,36146,1,8,0:3:0:0:
353,337,36396,5,0,0:0:0:0:
370,321,36489,6,0,P|361:276|356:208,1,95.6250036478044,2|0,0:0|0:0,0:0:0:0:
423,143,36896,5,2,0:1:0:0:
465,132,37021,1,2,0:1:0:0:
512,191,37146,1,2,0:0:0:0:
340,240,37396,1,2,3:2:0:0:
263,219,37521,1,8,0:3:0:0:
223,279,37646,1,8,0:3:0:0:
184,270,37771,1,8,0:3:0:0:
136,325,37896,6,0,P|130:361|185:380,1,95.6250036478044,4|0,0:3|0:0,0:0:0:0:
238,350,38271,2,0,P|275:337|340:330,1,95.6250036478044,0|0,3:0|0:0,0:0:0:0:
441,368,38646,6,0,B|459:362|459:362|460:369|460:369|485:378,1,42.5,8|0,0:0|0:0,0:0:0:0:
237,209,39208,5,2,3:2:0:0:
236,197,39302,2,0,P|240:181|262:179,1,31.8750012159348,10|0,0:0|0:0,0:0:0:0:
262,133,39489,2,0,P|273:122|293:130,1,31.8750012159348,10|0,0:0|0:0,0:0:0:0:
322,84,39677,2,0,P|337:80|350:97,1,31.8750012159348,10|0,0:0|0:0,0:0:0:0:
419,67,39864,2,0,P|434:71|436:93,1,31.8750012159348,2|0,0:0|0:0,0:0:0:0:
512,125,40052,1,2,0:0:0:0:
507,140,40146,5,8,0:0:0:0:
425,208,40333,2,0,P|378:195|331:189,1,95.6250036478044,8|0,3:1|0:0,0:0:0:0:
259,179,40708,1,0,3:0:0:0:
135,143,40896,6,0,P|88:130|41:123,1,95.6250036478044,0|0,3:0|0:0,0:0:0:0:
0,60,41271,2,0,P|47:52|93:40,1,95.6250036478044,0|0,3:0|0:0,0:0:0:0:
166,71,41646,1,8,0:0:0:0:
164,65,42021,1,0,0:0:0:0:
316,5,42208,6,0,B|325:-1|325:-1|323:14|323:14|311:27|311:27|308:63,1,63.7500024318696,2|0,1:2|0:0,0:0:0:0:
190,187,42583,6,0,B|194:207|194:207|201:217|201:217|199:236,1,42.5,2|0,1:2|0:0,0:0:0:0:
311,302,42771,1,8,0:3:0:0:
333,331,42864,2,0,B|341:344|341:344|330:383,1,42.5,8|0,3:1|0:0,0:0:0:0:
178,321,43052,1,8,0:0:0:0:
172,315,43146,5,0,3:0:0:0:
199,295,43239,1,8,0:0:0:0:
233,299,43333,1,8,3:1:0:0:
54,378,43521,2,0,P|62:337|67:292,1,85,0|0,0:0|3:0,0:0:0:0:
13,209,43802,1,8,0:0:0:0:
37,172,43896,6,0,P|20:106|-4:42,1,127.500004863739,8|0,3:1|0:0,0:0:0:0:
64,87,44458,1,0,3:0:0:0:
183,4,44646,5,12,0:3:0:0:
308,152,44896,1,8,0:3:0:0:
228,319,45146,1,8,0:3:0:0:
166,285,45271,1,2,0:0:0:0:
198,226,45396,1,6,0:3:0:0:
352,213,45646,1,2,0:0:0:0:
415,335,45896,1,0,0:0:0:0:
504,305,46146,6,0,P|451:313|403:332,1,106.250004053116,0|8,3:0|0:3,0:0:0:0:
393,328,46521,2,0,P|365:296|408:229,1,127.5,0|0,3:0|0:0,0:0:0:0:
512,156,46896,2,0,P|453:144|418:127,2,95.6250036478044,0|8|0,3:0|0:3|3:0,0:0:0:0:
327,73,47646,5,8,0:3:0:0:
207,216,47896,1,0,0:0:0:0:
281,374,48146,1,0,0:0:0:0:
325,323,48271,1,2,0:0:0:0:
277,276,48396,1,2,0:0:0:0:
150,305,48646,1,10,0:3:0:0:
49,380,48896,2,0,P|58:363|59:328,1,42.5000016212464,0|8,0:0|0:3,0:0:0:0:
0,255,49146,5,8,0:3:0:0:
151,298,49396,1,8,0:3:0:0:
284,380,49646,1,8,0:3:0:0:
473,314,49896,6,0,L|416:311,1,42.5,4|0,3:0|0:0,0:0:0:0:
196,243,50177,1,8,0:3:0:0:
235,246,50271,1,8,0:3:0:0:
332,150,50458,2,0,L|281:158,1,42.5,8|0,0:1|0:0,0:0:0:0:
151,180,50646,1,0,0:0:0:0:
246,102,50833,6,0,B|260:92|260:92|248:75|248:75|251:50,1,63.7500024318696,2|0,0:0|0:0,0:0:0:0:
23,0,51021,1,0,0:0:0:0:
13,12,51114,1,8,0:3:0:0:
27,62,51208,1,8,0:3:0:0:
66,236,51396,6,0,P|76:266|85:296,1,63.7500024318696,8|0,3:1|0:0,0:0:0:0:
0,377,51771,2,0,L|47:366,1,42.5,10|0,0:3|0:0,0:0:0:0:
163,304,51958,2,0,P|211:309|271:323,1,95.6250036478044,8|0,3:1|0:0,0:0:0:0:
323,336,52333,2,0,L|370:325,1,42.5,8|0,0:3|0:0,0:0:0:0:
512,285,52521,1,0,3:0:0:0:
498,296,52614,1,8,0:3:0:0:
433,278,52708,1,8,0:3:0:0:
487,133,52896,6,0,L|495:185,1,42.5,2|0,3:2|0:0,0:0:0:0:
399,384,53271,5,8,0:3:0:0:
326,340,53458,2,0,L|334:288,1,42.5,2|0,3:2|0:0,0:0:0:0:
347,225,53646,1,0,1:0:0:0:
221,150,53833,6,0,B|216:127|216:127|202:122|202:122|207:117|207:117|200:87,1,63.7500024318696,10|0,0:3|0:0,0:0:0:0:
344,0,54021,1,0,3:0:0:0:
361,21,54114,1,8,0:3:0:0:
345,75,54208,1,8,0:3:0:0:
148,164,54396,6,0,P|116:156|85:153,1,63.7500024318696,0|0,3:0|0:0,0:0:0:0:
16,99,54677,1,8,0:3:0:0:
44,74,54771,2,0,L|91:69,1,42.5,10|0,0:3|0:0,0:0:0:0:
287,40,54958,1,0,3:0:0:0:
202,23,55146,1,0,0:0:0:0:
117,6,55333,2,0,L|164:11,1,42.5,10|0,0:3|0:0,0:0:0:0:
389,36,55521,5,8,0:3:0:0:
366,82,55614,1,8,0:3:0:0:
389,109,55708,1,8,0:3:0:0:
378,138,55802,1,8,0:3:0:0:
444,173,55896,6,0,L|487:164,1,42.5,4|0,3:0|0:0,0:0:0:0:
265,248,56177,1,8,0:3:0:0:
233,262,56271,2,0,P|169:248|102:241,1,127.5,0|0,3:0|0:0,0:0:0:0:
27,235,56646,5,8,0:3:0:0:
203,174,56896,1,8,0:3:0:0:
286,320,57146,1,8,0:3:0:0:
185,381,57396,1,10,0:3:0:0:
294,236,57646,1,2,3:2:0:0:
430,296,57896,1,2,3:2:0:0:
512,194,58146,6,0,P|472:206|439:219,1,63.7500024318696,12|0,0:3|0:0,0:0:0:0:
341,188,58427,1,8,0:3:0:0:
360,158,58521,2,0,L|350:111,1,42.5,8|0,0:3|0:0,0:0:0:0:
328,0,58708,1,8,0:3:0:0:
194,96,58896,5,0,3:0:0:0:
263,117,59083,1,0,3:0:0:0:
85,21,59271,2,0,B|64:35|64:35|73:43|73:43|80:91,1,63.7500024318696,10|0,0:3|0:0,0:0:0:0:
148,194,59458,1,0,0:0:0:0:
152,215,59552,1,8,0:3:0:0:
110,267,59646,5,0,3:0:0:0:
54,252,59739,2,0,B|23:246|23:246|1:279,1,63.7500024318696,2|0,0:0|3:0,0:0:0:0:
254,382,60021,2,0,B|314:373|314:373|328:366|328:366|387:362,1,127.500004863739,10|0,0:3|0:0,0:0:0:0:
505,343,60302,1,8,0:3:0:0:
465,288,60396,5,0,3:0:0:0:
426,285,60489,1,8,0:3:0:0:
282,202,60677,1,8,0:3:0:0:
343,210,60771,1,8,0:3:0:0:
363,191,60864,1,8,0:3:0:0:
494,52,61052,1,8,0:3:0:0:
463,30,61146,5,0,3:0:0:0:
418,80,61239,1,8,0:3:0:0:
423,100,61333,1,8,0:3:0:0:
428,120,61427,1,8,0:3:0:0:
433,140,61521,2,0,L|443:186,1,42.5,8|0,0:3|0:0,0:0:0:0:
483,363,61708,1,8,0:3:0:0:
496,352,61802,1,8,0:3:0:0:
426,317,61896,6,0,P|385:308|312:301,1,106.25,4|0,0:3|0:0,0:0:0:0:
203,241,62177,1,8,0:3:0:0:
257,228,62271,1,8,0:3:0:0:
73,331,62458,2,0,L|58:386,1,53.125,2|0,0:1|0:0,0:0:0:0:
218,113,62833,2,0,L|203:58,1,53.125,2|0,0:1|0:0,0:0:0:0:
142,30,63021,1,8,0:3:0:0:
8,150,63208,6,0,P|86:165|162:187,1,159.375,2|0,0:1|0:0,0:0:0:0:
184,177,63583,1,2,0:1:0:0:
284,138,63771,2,0,P|325:124|375:112,1,85,2|0,0:1|3:0,0:0:0:0:
424,30,64052,1,2,0:1:0:0:
414,26,64146,5,0,3:0:0:0:
403,41,64239,1,2,0:1:0:0:
410,56,64333,1,2,0:1:0:0:
483,214,64521,1,8,0:3:0:0:
505,197,64614,2,0,L|494:146,1,42.5,2|0,0:1|3:0,0:0:0:0:
265,324,64896,6,0,P|321:329|376:338,1,106.25,2|0,0:1|0:0,0:0:0:0:
507,362,65177,1,8,0:3:0:0:
498,310,65271,1,8,0:3:0:0:
363,241,65458,2,0,L|290:252,1,53.125,2|0,0:1|0:0,0:0:0:0:
53,374,65833,2,0,L|126:363,1,53.125,2|0,0:1|0:0,0:0:0:0:
168,325,66021,1,8,0:3:0:0:
38,158,66208,6,0,P|15:234|0:312,1,159.375,2|0,0:1|0:0,0:0:0:0:
7,323,66583,1,2,3:1:0:0:
97,267,66771,1,2,0:1:0:0:
245,361,66958,1,2,0:1:0:0:
259,373,67052,1,8,0:3:0:0:
316,364,67146,5,8,0:3:0:0:
330,311,67239,1,8,0:3:0:0:
315,295,67333,1,8,0:3:0:0:
170,158,67521,1,8,0:3:0:0:
142,209,67614,1,8,0:3:0:0:
150,222,67708,1,8,0:3:0:0:
359,237,67896,5,8,0:3:0:0:
204,59,68083,1,8,0:3:0:0:
264,12,68271,1,0,0:0:0:0:
221,238,68458,2,0,L|205:313,1,53.125,8|0,0:1|0:0,0:0:0:0:
432,100,68833,2,0,L|416:32,1,53.125,8|0,0:1|0:0,0:0:0:0:
472,0,69021,1,8,0:3:0:0:
500,218,69208,6,0,P|414:203|325:193,1,159.375,4|0,0:3|0:0,0:0:0:0:
326,181,69583,2,0,L|320:139,1,42.5,2|0,0:0|0:0,0:0:0:0:
217,252,69771,1,8,0:3:0:0:
199,238,69864,2,0,L|205:196,1,42.5,2|0,0:0|0:0,0:0:0:0:
105,163,70052,2,0,L|99:121,1,42.5,2|0,0:0|0:0,0:0:0:0:
0,206,70239,1,2,0:0:0:0:
18,220,70333,2,0,L|12:262,1,42.5,0|0,3:0|0:0,0:0:0:0:
94,345,70521,2,0,L|155:337,1,42.5,10|0,0:3|0:0,0:0:0:0:
346,315,70708,1,0,3:0:0:0:
358,331,70802,1,8,0:3:0:0:
304,383,70896,6,0,P|251:373|198:368,1,106.25,0|0,3:0|0:0,0:0:0:0:
37,329,71177,1,0,3:0:0:0:
89,338,71271,1,8,0:3:0:0:
209,235,71458,2,0,L|135:219,1,53.125,12|0,0:3|0:0,0:0:0:0:
135,236,71646,1,0,3:0:0:0:
383,104,71833,2,0,L|309:120,1,53.125,12|0,0:3|0:0,0:0:0:0:
283,169,72021,1,0,3:0:0:0:
496,355,72208,6,0,P|419:333|341:318,1,159.375,12|0,0:3|0:0,0:0:0:0:
282,281,72583,2,0,B|276:254|276:254|301:234,1,53.125,2|0,0:0|0:0,0:0:0:0:
368,214,72771,1,8,0:3:0:0:
225,104,72958,1,8,0:3:0:0:
226,111,73021,1,8,0:3:0:0:
227,118,73083,1,8,0:3:0:0:
228,125,73146,5,0,3:0:0:0:
106,248,73333,2,0,L|90:178,1,53.125,12|0,0:3|0:0,0:0:0:0:
65,43,73521,5,8,0:3:0:0:
88,66,73614,1,8,0:3:0:0:
78,97,73708,1,8,0:3:0:0:
101,121,73801,1,8,0:3:0:0:
70,184,73896,6,0,P|17:180|22:120,1,106.25,4|0,3:0|0:0,0:0:0:0:
198,34,74177,1,2,3:2:0:0:
157,72,74271,2,0,P|186:59|228:50,1,63.7500024318696,8|0,0:3|0:0,0:0:0:0:
406,154,74458,2,0,P|376:141|335:132,1,63.7500024318696,2|0,0:0|0:0,0:0:0:0:
278,117,74646,6,0,P|338:97|401:84,1,127.5,0|0,3:0|0:0,0:0:0:0:
265,106,75021,2,0,P|325:86|388:73,1,127.5,8|0,0:3|0:0,0:0:0:0:
481,94,75396,6,0,P|490:51|439:22,1,106.25,0|0,3:0|0:0,0:0:0:0:
330,160,75677,2,0,P|345:196|352:231,1,63.7500024318696,2|8,3:2|0:3,0:0:0:0:
504,383,75864,1,0,3:0:0:0:
484,348,75958,2,0,P|491:317|504:288,1,63.7500024318696,2|0,0:0|0:0,0:0:0:0:
473,221,76146,6,0,P|429:229|334:262,1,127.5,0|0,3:0|0:0,0:0:0:0:
484,201,76521,2,0,P|440:209|345:242,1,127.5,8|0,0:3|0:0,0:0:0:0:
312,358,76896,6,0,P|327:325|278:276,1,106.25,0|0,3:0|0:0,0:0:0:0:
98,310,77177,1,2,3:2:0:0:
150,266,77271,2,0,P|136:311|134:341,1,63.7500024318696,10|0,0:3|0:0,0:0:0:0:
258,200,77458,2,0,P|253:168|242:138,1,63.7500024318696,2|0,0:0|0:0,0:0:0:0:
106,51,77646,6,0,P|76:116|167:119,1,191.250007295609,2|0,3:2|0:0,0:0:0:0:
42,102,78021,2,0,P|63:151|81:226,1,127.5,8|0,0:3|0:0,0:0:0:0:
31,294,78396,6,0,P|4:289|0:270,1,42.5,0|0,3:0|0:0,0:0:0:0:
155,213,78583,1,0,0:0:0:0:
213,237,78677,1,2,3:2:0:0:
219,260,78771,2,0,P|209:284|183:282,1,53.125,8|0,0:3|0:0,0:0:0:0:
244,136,78958,2,0,P|292:120|332:113,1,63.7500024318696,2|0,0:0|0:0,0:0:0:0:
498,228,79146,5,0,3:0:0:0:
475,248,79239,1,8,0:3:0:0:
406,228,79333,2,0,P|397:185|394:142,1,63.7500024318696,2|0,0:0|0:0,0:0:0:0:
314,58,79521,6,0,P|298:71|294:98,1,42.5,8|0,3:1|0:0,0:0:0:0:
469,158,79708,2,0,P|478:115|481:72,1,63.7500024318696,2|0,0:0|0:0,0:0:0:0:
238,3,79896,5,8,0:3:0:0:
207,53,79989,1,10,0:3:0:0:
225,68,80083,1,8,0:3:0:0:
23,73,80271,2,0,P|75:83|156:106,1,127.500004863739,14|0,0:3|0:0,0:0:0:0:
182,164,80552,1,0,0:0:0:0:
133,214,80646,6,0,P|77:215|73:150,1,127.5,0|0,3:0|0:0,0:0:0:0:
166,237,81021,2,0,P|125:247|36:294,1,127.5,8|0,0:3|0:0,0:0:0:0:
91,374,81396,6,0,P|122:379|131:315,1,106.25,0|0,3:0|0:0,0:0:0:0:
0,234,81677,2,0,P|31:238|67:249,1,63.7500024318696,2|8,3:2|0:3,0:0:0:0:
317,330,81864,1,0,3:0:0:0:
275,303,81958,2,0,P|243:308|212:316,1,63.7500024318696,2|0,0:3|0:0,0:0:0:0:
165,249,82146,6,0,P|200:235|297:213,1,127.5,0|0,3:0|0:0,0:0:0:0:
137,231,82521,1,8,0:3:0:0:
361,244,82708,2,0,P|359:269|345:270,1,42.5,2|0,0:0|0:0,0:0:0:0:
231,148,82896,6,0,P|239:95|255:45,1,106.25,0|0,3:0|0:0,0:0:0:0:
485,3,83177,1,2,3:2:0:0:
453,52,83271,2,0,P|466:88|475:129,1,63.7500024318696,8|0,0:3|0:0,0:0:0:0:
349,313,83458,2,0,P|356:281|367:252,1,63.7500024318696,2|8,0:0|0:3,0:0:0:0:
398,166,83646,6,0,P|336:183|277:207,1,127.5,0|0,3:0|0:0,0:0:0:0:
408,150,84021,2,0,P|402:116|345:122,1,85,8|0,0:3|0:0,0:0:0:0:
221,282,84302,1,8,0:3:0:0:
258,258,84396,6,0,P|263:214|263:192,1,63.7500024318696,2|0,0:0|0:0,0:0:0:0:
76,38,84583,1,0,0:0:0:0:
42,97,84677,1,0,3:0:0:0:
65,117,84771,2,0,P|113:105|159:98,1,85,10|0,0:3|3:0,0:0:0:0:
269,125,85052,1,8,0:3:0:0:
326,86,85146,6,0,P|328:47|288:33,1,74.3750007092953,2|0,0:0|0:0,0:0:0:0:
59,199,85333,1,8,0:3:0:0:
95,259,85427,1,8,0:3:0:0:
78,277,85521,5,8,0:3:0:0:
60,280,85614,1,8,0:3:0:0:
41,277,85708,1,8,0:3:0:0:
28,265,85802,1,8,0:3:0:0:
64,189,85896,6,0,P|94:198|125:202,1,63.7500024318696,4|0,0:3|0:0,0:0:0:0:
208,288,86083,1,8,0:3:0:0:
201,286,86146,1,8,0:3:0:0:
194,284,86208,1,8,0:3:0:0:
186,282,86271,6,0,P|210:274|236:270,1,53.125,6|0,0:3|0:0,0:0:0:0:
341,210,86458,1,8,0:3:0:0:
334,212,86521,1,8,0:3:0:0:
327,214,86583,1,8,0:3:0:0:
319,216,86646,6,0,P|339:222|360:225,1,42.5,6|0,0:3|0:0,0:0:0:0:
471,331,86833,5,0,3:0:0:0:
435,310,86927,1,0,3:0:0:0:
375,350,87021,2,0,P|436:332|498:323,1,127.500004863739,6|0,0:3|0:0,0:0:0:0:
320,291,87302,1,10,0:3:0:0:
260,333,87396,5,0,3:0:0:0:
257,347,87489,1,0,3:0:0:0:
64,300,87677,2,0,P|73:259|87:222,1,63.7500024318696,2|8,3:2|0:3,0:0:0:0:
191,104,87864,1,0,3:0:0:0:
160,136,87958,2,0,P|169:95|183:58,1,63.7500024318696,2|0,0:0|0:0,0:0:0:0:
69,34,88146,6,0,P|79:85|89:165,1,127.5,0|0,3:0|0:0,0:0:0:0:
164,300,88521,2,0,P|157:267|151:215,1,85,8|0,0:3|0:0,0:0:0:0:
253,140,88802,1,8,0:3:0:0:
310,182,88896,6,0,P|315:218|257:243,1,106.25,0|0,3:0|0:0,0:0:0:0:
165,119,89177,1,2,3:2:0:0:
199,84,89271,2,0,P|241:70|269:63,1,63.7500024318696,8|0,0:3|0:0,0:0:0:0:
464,140,89458,2,0,P|433:148|403:158,1,63.7500024318696,2|0,0:0|0:0,0:0:0:0:
339,116,89646,6,0,P|352:43|427:58,1,159.375,2|0,3:2|0:0,0:0:0:0:
497,202,90021,2,0,P|487:252|481:331,1,106.25,8|0,0:3|0:0,0:0:0:0:
378,354,90302,1,8,0:3:0:0:
353,374,90396,6,0,P|331:376|311:381,1,42.5,0|0,3:0|0:0,0:0:0:0:
190,255,90583,1,8,0:3:0:0:
251,223,90677,1,2,3:2:0:0:
269,234,90771,2,0,P|275:259|279:288,1,53.125
78,376,90958,2,0,P|48:367|44:333,1,63.7500024318696,10|0,0:3|0:0,0:0:0:0:
87,280,91146,6,0,P|112:284|132:292,1,42.5,8|0,0:3|0:0,0:0:0:0:
287,372,91333,2,0,P|315:372|315:343,1,63.7500024318696,8|8,0:1|0:3,0:0:0:0:
167,179,91521,5,8,0:3:0:0:
192,186,91614,1,8,0:3:0:0:
258,150,91708,2,0,P|264:121|233:104,1,63.7500024318696,8|0,0:3|0:0,0:0:0:0:
15,187,91896,5,0,3:0:0:0:
55,129,91989,1,10,0:3:0:0:
32,110,92083,1,0,3:0:0:0:
192,0,92271,2,0,P|179:57|164:143,1,127.500004863739,14|0,0:3|0:0,0:0:0:0:
255,220,92552,1,8,0:3:0:0:
323,177,92646,6,0,P|336:136|268:113,1,127.5,0|0,3:0|0:0,0:0:0:0:
455,270,93021,2,0,P|487:269|487:215,1,85,8|2,0:3|0:0,0:0:0:0:
264,328,93396,6,0,P|300:326|339:383,1,106.25,0|0,3:0|0:0,0:0:0:0:
471,342,93677,2,0,P|483:301|486:276,1,63.7500024318696,2|8,3:2|0:3,0:0:0:0:
368,107,93864,1,0,3:0:0:0:
332,142,93958,2,0,P|336:110|346:80,1,63.7500024318696,2|0,0:0|0:0,0:0:0:0:
449,75,94146,6,0,P|437:137|420:198,1,127.5,0|0,3:0|0:0,0:0:0:0:
207,152,94521,2,0,P|218:89|235:28,1,127.5,8|0,0:3|0:0,0:0:0:0:
347,9,94896,6,0,P|368:34|314:54,1,106.25,0|0,3:0|0:0,0:0:0:0:
117,2,95177,1,2,3:2:0:0:
59,36,95271,2,0,P|90:28|121:24,1,63.7500024318696,8|0,0:3|0:0,0:0:0:0:
294,174,95458,2,0,P|262:178|231:185,1,63.7500024318696,2|0,0:0|0:0,0:0:0:0:
101,173,95646,6,0,P|150:184|152:234,1,106.25,0|0,3:0|0:0,0:0:0:0:
45,302,95927,1,0,0:0:0:0:
82,341,96021,2,0,P|144:349|194:362,1,106.25,8|0,0:3|0:0,0:0:0:0:
333,369,96302,1,8,0:3:0:0:
396,338,96396,6,0,P|400:361|382:364,1,42.5,0|0,3:0|0:0,0:0:0:0:
294,308,96583,2,0,P|301:281|303:263,1,42.5,8|0,0:1|0:0,0:0:0:0:
127,232,96771,6,0,P|122:260|144:264,1,53.125,8|0,0:3|0:0,0:0:0:0:
262,207,96958,1,8,0:1:0:0:
268,184,97052,1,8,0:3:0:0:
230,144,97146,6,0,P|211:148|159:166,1,63.7500024318696,0|0,3:0|0:0,0:0:0:0:
16,64,97333,1,8,0:3:0:0:
7,53,97427,1,8,0:3:0:0:
56,0,97521,1,8,0:3:0:0:
109,41,97614,1,8,0:3:0:0:
179,27,97708,1,8,0:3:0:0:
236,66,97802,1,8,0:3:0:0:
299,24,97896,6,0,P|266:50|285:95,1,85,4|0,3:0|0:0,0:0:0:0:
431,116,98177,2,0,P|463:104|497:98,1,63.7500024318696,2|8,3:2|0:3,0:0:0:0:
260,204,98364,1,0,3:0:0:0:
312,225,98458,2,0,P|344:213|378:207,1,63.7500024318696,2|8,0:0|0:3,0:0:0:0:
478,310,98646,6,0,P|415:297|352:289,1,127.5,0|0,3:0|0:0,0:0:0:0:
507,236,99021,2,0,P|444:223|381:215,1,127.5,10|0,0:3|0:0,0:0:0:0:
208,327,99396,6,0,P|222:295|280:289,1,85,0|0,3:0|0:0,0:0:0:0:
76,364,99677,2,0,P|43:369|12:380,1,63.7500024318696,2|8,3:2|0:3,0:0:0:0:
204,262,99864,1,0,3:0:0:0:
163,229,99958,2,0,P|132:218|101:214,1,63.7500024318696,2|8,0:3|0:3,0:0:0:0:
4,119,100146,6,0,P|67:106|130:98,1,127.5,0|0,3:0|0:0,0:0:0:0:
0,193,100521,2,0,P|63:180|126:172,1,127.5,10|0,0:3|0:0,0:0:0:0:
266,122,100896,6,0,P|226:116|211:74,1,85,0|0,3:0|0:0,0:0:0:0:
362,3,101177,2,0,P|351:47|348:72,1,63.7500024318696,2|8,3:2|0:3,0:0:0:0:
430,269,101364,1,0,3:0:0:0:
412,213,101458,2,0,P|401:257|398:282,1,63.7500024318696,2|0,0:0|0:0,0:0:0:0:
458,348,101646,6,0,P|422:334|327:315,1,127.5,0|0,3:0|0:0,0:0:0:0:
164,289,102021,2,0,P|224:267|286:256,1,127.5,10|0,0:3|0:0,0:0:0:0:
268,353,102396,6,0,P|246:358|220:371,1,42.5,0|0,3:0|0:0,0:0:0:0:
46,328,102583,1,0,0:0:0:0:
86,359,102677,1,2,3:2:0:0:
73,378,102771,2,0,P|64:344|59:306,1,63.7500024318696,8|0,0:3|0:0,0:0:0:0:
151,144,102958,2,0,P|155:112|164:81,1,63.7500024318696,10|0,0:3|0:0,0:0:0:0:
95,19,103146,5,0,3:0:0:0:
72,12,103239,1,8,0:3:0:0:
21,58,103333,2,0,P|61:43|92:37,1,63.7500024318696,2|8,0:0|0:3,0:0:0:0:
285,111,103521,6,0,P|269:90|252:96,1,42.5,0|0,3:0|0:0,0:0:0:0:
388,162,103708,2,0,P|429:148|469:142,1,63.7500024318696,10|8,0:3|0:3,0:0:0:0:
497,84,103896,6,0,P|488:43|434:36,1,99.1666676123937,4|0,3:0|0:0,0:0:0:0:
361,260,104146,6,0,P|381:315|425:318,1,99.1666676123937,12|0,0:3|0:0,0:0:0:0:
223,154,104396,6,0,P|169:168|120:196,1,99.1666676123937,12|0,0:3|0:0,0:0:0:0:
91,363,104646,5,8,0:3:0:0:
116,332,104739,1,8,0:3:0:0:
88,272,104833,1,8,0:3:0:0:
38,269,104927,1,8,0:3:0:0:
0,340,105021,2,0,P|104:314|175:307,1,148.750001418591,12|0,0:3|0:0,0:0:0:0:
371,348,105302,1,8,0:3:0:0:
313,310,105396,6,0,P|280:325|278:381,1,85,0|0,3:0|0:0,0:0:0:0:
430,310,105677,2,0,P|434:278|442:247,1,63.7500024318696,2|8,3:2|0:3,0:0:0:0:
379,8,105864,1,0,3:0:0:0:
333,49,105958,2,0,P|341:82|345:122,1,63.7500024318696,2|0,0:0|0:0,0:0:0:0:
294,208,106146,6,0,P|362:212|433:225,1,127.500004863739,0|0,3:0|0:0,0:0:0:0:
281,132,106521,2,0,P|349:136|420:149,1,127.500004863739,8|0,0:3|0:0,0:0:0:0:
216,173,106896,6,0,P|175:172|161:135,1,85,0|0,3:0|0:0,0:0:0:0:
238,25,107177,2,0,P|226:64|219:103,1,63.7500024318696,2|8,0:0|0:3,0:0:0:0:
56,286,107364,1,0,3:0:0:0:
93,240,107458,2,0,P|81:279|74:318,1,63.7500024318696,2|8,0:0|0:3,0:0:0:0:
158,370,107646,6,0,P|195:375|225:299,1,127.5,0|0,3:0|0:0,0:0:0:0:
347,359,108021,2,0,P|390:365|430:377,1,85,8|0,0:3|0:0,0:0:0:0:
451,370,108302,1,8,0:3:0:0:
504,316,108396,6,0,P|498:285|469:275,1,63.7500024318696,2|0,3:2|0:0,0:0:0:0:
284,254,108583,1,8,0:3:0:0:
353,279,108677,1,8,0:3:0:0:
372,265,108771,1,10,0:3:0:0:
379,226,108864,1,8,0:3:0:0:
360,205,108958,1,8,0:3:0:0:
334,207,109052,1,8,0:3:0:0:
383,179,109146,5,10,0:3:0:0:
360,122,109239,1,8,0:3:0:0:
300,100,109333,1,8,0:3:0:0:
264,121,109427,1,8,0:3:0:0:
198,151,109521,5,10,0:3:0:0:
130,127,109614,1,8,0:3:0:0:
115,53,109708,1,8,0:3:0:0:
168,3,109802,1,8,0:3:0:0:
251,23,109896,6,0,P|270:86|276:120,1,85,4|0,3:0|0:0,0:0:0:0:
287,90,110177,1,2,3:2:0:0:
213,147,110271,6,0,P|195:181|188:222,1,76.4999976654053,12|0,0:3|0:0,0:0:0:0:
176,203,110552,1,2,3:2:0:0:
269,224,110646,6,0,P|293:249|291:288,1,68,12|0,0:3|0:0,0:0:0:0:
306,267,110927,1,2,3:2:0:0:
220,313,111021,6,0,P|198:338|207:366,1,59.4999981842042,12|0,0:3|0:0,0:0:0:0:
184,338,111302,1,2,3:2:0:0:
284,384,111396,6,0,P|345:366|396:357,1,106.25,4|0,3:0|0:0,0:0:0:0:
496,241,111677,1,2,3:2:0:0:
460,281,111771,2,0,P|473:317|479:345,1,63.7500024318696,8|0,0:3|0:0,0:0:0:0:
337,186,111958,2,0,P|348:156|355:125,1,63.7500024318696,2|0,0:0|0:0,0:0:0:0:
278,59,112146,6,0,P|303:117|321:178,1,127.5,0|0,3:0|0:0,0:0:0:0:
289,44,112521,1,8,0:3:0:0:
288,243,112708,1,2,0:0:0:0:
234,274,112802,1,8,0:3:0:0:
219,260,112896,6,0,P|256:263|291:325,1,106.25,0|0,3:0|0:0,0:0:0:0:
111,384,113177,1,2,3:2:0:0:
148,347,113271,2,0,P|143:315|130:269,1,63.7500024318696,8|0,0:3|0:0,0:0:0:0:
31,102,113458,2,0,P|38:132|43:164,1,63.7500024318696,2|0,0:0|0:0,0:0:0:0:
113,206,113646,6,0,P|160:196|170:111,1,127.500004863739,0|0,3:0|0:0,0:0:0:0:
116,24,114021,2,0,P|88:53|121:83,1,85,10|0,0:3|0:0,0:0:0:0:
297,39,114302,1,8,0:3:0:0:
252,21,114396,6,0,P|217:29|200:38,1,42.5,8|0,3:1|0:0,0:0:0:0:
352,136,114583,1,10,0:3:0:0:
396,96,114677,2,0,P|397:64|371:61,1,63.7500024318696,8|0,3:1|0:0,0:0:0:0:
286,231,114864,1,0,0:0:0:0:
352,257,114958,2,0,P|379:240|409:217,1,63.7500024318696,10|0,0:3|0:0,0:0:0:0:
447,116,115146,6,0,P|440:102|410:104,1,42.5,8|0,0:3|0:0,0:0:0:0:
275,239,115333,2,0,P|270:269|270:285,1,42.5,8|8,0:1|0:3,0:0:0:0:
490,384,115521,5,0,3:0:0:0:
497,363,115614,1,8,0:3:0:0:
447,315,115708,2,0,P|406:324|373:338,1,63.7500024318696,8|0,0:3|0:0,0:0:0:0:
146,368,115896,5,0,3:0:0:0:
187,311,115989,1,8,0:3:0:0:
171,292,116083,1,0,3:0:0:0:
475,219,116271,2,0,P|412:229|350:245,1,127.500004863739,12|0,0:3|0:0,0:0:0:0:
318,176,116552,1,8,0:3:0:0:
392,160,116646,6,0,P|414:196|351:235,1,127.5,0|0,3:0|0:0,0:0:0:0:
415,133,117021,1,8,0:3:0:0:
281,267,117208,2,0,P|259:260|232:256,1,42.5,0|2,0:0|0:0,0:0:0:0:
113,314,117396,6,0,P|150:301|138:232,1,106.25,0|0,3:0|0:0,0:0:0:0:
0,168,117677,2,0,P|41:175|71:186,1,63.7500024318696,2|8,3:2|0:3,0:0:0:0:
258,108,117864,1,0,3:0:0:0:
200,95,117958,2,0,P|241:87|271:76,1,63.7500024318696,2|8,0:0|0:3,0:0:0:0:
409,33,118146,6,0,P|346:18|283:9,1,127.5,0|0,3:0|0:0,0:0:0:0:
422,24,118521,2,0,P|359:9|296:0,1,127.5,8|0,0:3|0:0,0:0:0:0:
412,137,118896,6,0,P|451:137|471:76,1,106.25,0|0,3:0|0:0,0:0:0:0:
288,164,119177,1,2,3:2:0:0:
335,117,119271,2,0,P|327:154|324:181,1,63.7500024318696,8|0,0:3|0:0,0:0:0:0:
395,373,119458,2,0,P|398:341|405:310,1,63.7500024318696,2|0,0:0|0:0,0:0:0:0:
457,264,119646,6,0,P|371:282|323:298,1,127.5,0|0,3:0|0:0,0:0:0:0:
123,242,120021,2,0,P|107:205|225:176,1,191.250007295609,10|0,0:3|0:0,0:0:0:0:
263,269,120396,5,0,0:0:0:0:
241,318,120788,1,0,0:0:0:0:
253,346,121180,1,0,0:0:0:0:
248,356,121572,1,0,0:0:0:0:
255,384,121964,1,0,0:0:0:0:
255,384,122160,6,0,P|262:364|287:374,1,53.125
358,280,122748,2,0,P|352:263|342:223,1,53.125
272,289,123336,2,0,P|294:290|328:302,1,53.125
179,327,123924,2,0,P|197:309|188:276,1,53.125
102,220,124512,2,0,P|78:215|64:215,1,31.875
198,262,124887,2,0,P|174:257|160:257,1,31.875
294,304,125262,6,0,P|270:306|265:333,1,53.125
175,379,125824,2,0,P|182:350|187:318,1,53.125
258,293,126387,2,0,P|238:295|203:305,1,53.125
127,274,126949,2,0,P|120:267|118:225,1,53.125
21,291,127512,2,0,P|27:313|29:328,1,31.875
1,342,127887,2,0,P|7:364|9:385,1,42.5
